osu file format v14

[General]
AudioFilename: The Queen.mp3
AudioLeadIn: 0
PreviewTime: 46108
Countdown: 0
SampleSet: Soft
StackLeniency: 0.7
Mode: 0
LetterboxInBreaks: 1
WidescreenStoryboard: 0

[Editor]
DistanceSpacing: 1.2
BeatDivisor: 4
GridSize: 4
TimelineZoom: 1

[Metadata]
Title:The Queen
TitleUnicode:The Queen
Artist:M2U
ArtistUnicode:M2U
Creator:Enon
Version:Easy
Source:O2Jam U
Tags:Dailycare Morinaga pomuta p_o_m_u_t_a DreaM117er m1223961117 Moly Abelia Niedola fanzhen0019 z1085684963 kiryu english electronic
BeatmapID:668963
BeatmapSetID:298063

[Difficulty]
HPDrainRate:2
CircleSize:3
OverallDifficulty:2
ApproachRate:3
SliderMultiplier:1
SliderTickRate:1

[Events]
//Background and Video events
0,0,"BG.jpg",0,0
//Break Periods
2,92388,98428
//Storyboard Layer 0 (Background)
//Storyboard Layer 1 (Fail)
//Storyboard Layer 2 (Pass)
//Storyboard Layer 3 (Foreground)
//Storyboard Layer 4 (Overlay)
//Storyboard Sound Samples

[TimingPoints]
28,480,4,2,0,60,1,0
15388,-100,4,2,0,80,0,0
30748,-100,4,2,0,60,0,0
46108,-100,4,2,0,80,0,1
92188,-100,4,2,0,60,0,0
99868,-100,4,2,0,80,0,0
115228,-100,4,2,0,60,0,0
117148,-100,4,2,0,80,0,0
119068,-100,4,2,0,80,0,1
145948,-100,4,2,0,80,0,0

[Colours]
Combo1 : 0,255,64
Combo2 : 0,128,255
Combo3 : 255,128,0

[HitObjects]
201,97,15388,6,0,P|249:106|297:92,1,100,6|8,3:2|1:0,0:0:0:0:
388,50,16348,2,0,L|376:169,1,100,0|8,3:0|1:0,0:0:0:0:
301,214,17308,2,0,P|364:250|475:172,1,200,0|0,3:0|3:0,0:0:0:0:
378,149,18748,1,8,1:0:0:0:
301,214,19228,6,0,L|313:333,1,100,0|8,3:0|1:0,0:0:0:0:
215,284,20188,2,0,L|203:165,1,100,0|8,3:0|1:0,0:0:0:0:
281,116,21148,2,0,P|190:85|114:143,1,200,0|0,3:0|3:0,0:0:0:0:
205,185,22588,1,8,1:0:0:0:
281,116,23068,6,0,L|274:12,1,100,0|8,3:0|1:0,0:0:0:0:
368,51,24028,2,0,L|375:155,1,100,0|8,3:0|1:0,0:0:0:0:
465,192,24988,2,0,P|389:250|299:216,1,200,0|0,3:0|3:0,0:0:0:0:
375,151,26428,1,8,1:0:0:0:
466,192,26908,6,0,L|473:296,1,100,0|8,3:0|1:0,0:0:0:0:
389,347,27868,2,0,L|382:243,1,100,0|8,3:0|1:0,0:0:0:0:
297,300,28828,2,0,B|189:268|205:336|97:300,1,200,0|0,3:0|3:0,0:0:0:0:
34,226,30268,1,8,1:0:0:0:
82,138,30748,6,0,L|204:133,1,100,4|0,3:2|1:0,0:0:0:0:
236,217,31708,2,0,L|136:221,1,100,0|0,3:0|1:0,0:0:0:0:
182,133,32668,2,0,P|277:127|333:204,1,200,0|0,3:0|3:0,0:0:0:0:
236,217,34108,1,0,1:0:0:0:
182,133,34588,6,0,L|197:18,1,100,0|0,3:0|1:0,0:0:0:0:
294,21,35548,2,0,L|279:136,1,100,0|0,3:0|1:0,0:0:0:0:
334,205,36508,2,0,P|429:211|485:134,1,200,0|0,3:0|3:0,0:0:0:0:
388,122,37948,1,0,1:0:0:0:
334,205,38428,6,0,L|343:325,1,100,0|0,3:0|1:0,0:0:0:0:
251,348,39388,2,0,L|242:228,1,100,0|0,3:0|1:0,0:0:0:0:
175,175,40348,2,0,P|80:169|24:246,1,200,0|0,3:0|3:0,0:0:0:0:
121,258,41788,1,0,1:0:0:0:
175,175,42268,6,0,L|182:75,1,100,0|0,3:0|1:0,0:0:0:0:
272,31,43228,2,0,L|256:242,1,200,0|0,3:0|3:0,0:0:0:0:
244,329,44668,2,0,P|193:306|160:254,2,100,0|0|0,1:0|3:0|1:0,0:0:0:0:
343,314,46108,6,0,L|458:296,1,100,6|8,3:2|1:0,0:0:0:0:
473,204,47068,2,0,L|254:238,1,200,0|0,3:0|3:0,0:0:0:0:
194,176,48508,1,8,1:0:0:0:
164,80,48988,2,0,P|219:78|273:114,1,100,0|8,3:0|1:0,0:0:0:0:
194,176,49948,6,0,P|132:175|67:57,1,200,0|0,3:0|3:0,0:0:0:0:
164,80,51388,1,8,1:0:0:0:
194,176,51868,2,0,L|182:294,1,100,0|8,3:0|1:0,0:0:0:0:
265,334,52828,2,0,L|277:216,1,100,0|8,3:0|1:0,0:0:0:0:
285,135,53788,6,0,P|341:160|355:294,1,200,4|0,3:2|3:0,0:0:0:0:
275,234,55228,1,8,1:0:0:0:
194,176,55708,2,0,L|198:70,1,100,0|8,3:0|1:0,0:0:0:0:
288,35,56668,2,0,L|285:135,1,100,0|8,3:0|1:0,0:0:0:0:
275,234,57628,6,0,P|363:198|477:231,1,200,0|0,3:0|3:0,0:0:0:0:
508,309,59068,1,8,1:0:0:0:
413,341,59548,2,0,L|313:337,1,100,0|8,3:0|1:0,0:0:0:0:
248,260,60508,2,0,L|148:256,1,100,0|8,3:0|1:0,0:0:0:0:
137,157,61468,6,0,P|58:211|61:307,1,200,4|0,3:2|3:0,0:0:0:0:
148,256,62908,1,8,1:0:0:0:
237,212,63388,2,0,L|220:8,1,200,0|0,3:0|3:0,0:0:0:0:
318,34,64828,1,8,1:0:0:0:
411,70,65308,6,0,P|371:118|236:90,1,200,0|0,3:0|3:0,0:0:0:0:
318,34,66748,1,8,1:0:0:0:
411,70,67228,2,0,L|406:184,1,100,0|8,3:0|1:0,0:0:0:0:
491,224,68188,2,0,L|495:124,1,100,0|8,3:0|1:0,0:0:0:0:
407,170,69148,6,0,P|400:266|491:326,1,200,0|0,3:0|3:0,0:0:0:0:
491,224,70588,1,8,1:0:0:0:
407,170,71068,2,0,L|198:186,1,200,0|0,3:0|3:0,0:0:0:0:
140,110,72508,1,8,1:0:0:0:
220,51,72988,6,0,L|319:43,1,100,0|8,3:0|1:0,0:0:0:0:
416,20,73948,2,0,B|442:102|351:94|373:206,1,200,0|0,3:0|3:0,0:0:0:0:
422,293,75388,1,8,1:0:0:0:
338,347,75868,2,0,L|218:344,1,100,0|8,3:0|1:0,0:0:0:0:
189,257,76828,6,0,L|288:259,1,100,0|8,3:0|1:0,0:0:0:0:
374,206,77788,2,0,P|356:165|368:105,1,100,0|8,3:0|1:0,0:0:0:0:
425,32,78748,2,0,P|344:13|264:106,1,200,0|0,3:0|3:0,0:0:0:0:
364,111,80188,1,8,1:0:0:0:
294,183,80668,6,0,L|91:177,1,200,0|0,3:0|3:0,0:0:0:0:
17,242,82108,1,8,1:0:0:0:
86,313,82588,2,0,L|289:319,1,200,0|0,3:0|3:0,0:0:0:0:
363,254,84028,1,8,1:0:0:0:
294,183,84508,6,0,P|360:155|459:235,1,200,0|0,3:0|3:0,0:0:0:0:
363,254,85948,1,8,1:0:0:0:
285,318,86428,2,0,L|86:313,1,200,0|0,3:0|3:0,0:0:0:0:
17,242,87868,1,8,1:0:0:0:
94,177,88348,6,0,L|193:179,1,100,0|8,3:0|1:0,0:0:0:0:
247,95,89308,2,0,L|147:92,1,100,0|8,3:0|1:0,0:0:0:0:
194,180,90268,2,0,P|254:194|345:88,1,200,0|0,3:0|3:0,0:0:0:0:
247,95,91708,1,8,1:0:0:0:
147,92,92188,5,6,3:2:0:0:
147,92,99868,6,0,P|94:148|127:264,1,200,6|0,3:2|3:0,0:0:0:0:
189,185,101308,1,8,1:0:0:0:
256,111,101788,2,0,L|249:-5,1,100,0|8,3:0|1:0,0:0:0:0:
344,43,102748,2,0,L|351:159,1,100,0|8,3:0|1:0,0:0:0:0:
276,211,103708,6,0,P|366:243|443:185,1,200,0|0,3:0|3:0,0:0:0:0:
350,143,105148,1,8,1:0:0:0:
276,211,105628,2,0,L|269:310,1,100,0|8,3:0|1:0,0:0:0:0:
175,342,106588,2,0,L|181:242,1,100,0|8,3:0|1:0,0:0:0:0:
188,141,107548,6,0,P|101:181|87:276,1,200,4|0,3:2|3:0,0:0:0:0:
181,242,108988,1,8,1:0:0:0:
276,211,109468,2,0,L|282:111,1,100,0|8,3:0|1:0,0:0:0:0:
377,80,110428,2,0,L|370:179,1,100,0|8,3:0|1:0,0:0:0:0:
336,276,111388,6,0,P|431:263|473:177,1,200,0|0,3:0|3:0,0:0:0:0:
371,180,112828,1,8,1:0:0:0:
271,184,113308,1,4,3:2:0:0:
271,184,115228,6,0,B|312:292|223:277|264:381,1,200,0|0,3:0|3:0,0:0:0:0:
354,337,116668,1,8,0:0:0:0:
450,310,117148,6,0,L|467:94,1,200,4|0,3:2|3:0,0:0:0:0:
383,53,118588,1,8,0:0:0:0:
302,112,119068,6,0,L|293:220,1,100,6|8,3:2|1:0,0:0:0:0:
200,247,120028,2,0,L|208:139,1,100,0|8,3:0|1:0,0:0:0:0:
137,76,120988,2,0,P|99:85|69:234,1,200,0|0,3:0|3:0,0:0:0:0:
118,302,122428,1,8,1:0:0:0:
181,379,122908,6,0,L|289:372,1,100,0|8,3:0|1:0,0:0:0:0:
314,278,123868,2,0,L|205:284,1,100,0|8,3:0|1:0,0:0:0:0:
261,194,124828,2,0,P|374:199|413:279,1,200,0|0,3:0|3:0,0:0:0:0:
314,278,126268,1,8,1:0:0:0:
261,194,126748,6,0,L|267:85,1,100,0|8,3:0|1:0,0:0:0:0:
181,42,127708,2,0,L|174:150,1,100,0|8,3:0|1:0,0:0:0:0:
169,241,128668,2,0,P|56:246|17:326,1,200,0|0,3:0|3:0,0:0:0:0:
116,325,130108,1,8,1:0:0:0:
169,241,130588,6,0,L|174:141,1,100,0|8,3:0|1:0,0:0:0:0:
270,111,131548,2,0,L|264:210,1,100,0|8,3:0|1:0,0:0:0:0:
349,263,132508,2,0,P|462:258|501:178,1,200,0|0,3:0|3:0,0:0:0:0:
402,179,133948,1,8,1:0:0:0:
349,263,134428,6,0,L|343:362,1,100,0|8,3:0|1:0,0:0:0:0:
258,310,135388,2,0,L|263:210,1,100,0|8,3:0|1:0,0:0:0:0:
178,157,136348,2,0,L|165:378,1,200,0|0,3:0|3:0,0:0:0:0:
82,304,137788,1,8,1:0:0:0:
31,217,138268,6,0,B|139:176|124:265|228:224,1,200,0|0,3:0|3:0,0:0:0:0:
184,134,139708,1,0,1:0:0:0:
280,160,140188,2,0,P|371:162|429:61,1,200,0|0,3:0|3:0,0:0:0:0:
328,68,141628,1,0,1:0:0:0:
280,160,142108,6,0,L|292:276,1,100,0|8,3:0|1:0,0:0:0:0:
206,314,143068,2,0,L|194:198,1,100,0|8,3:0|1:0,0:0:0:0:
280,160,144028,2,0,B|388:119|373:208|477:167,1,200,0|0,3:0|3:0,0:0:0:0:
428,78,145468,1,8,1:0:0:0:
256,192,145948,12,4,147388,3:1:0:0:
