osu file format v14

[General]
AudioFilename: The Prince of Darkness.mp3
AudioLeadIn: 0
PreviewTime: -1
Countdown: 0
SampleSet: Soft
StackLeniency: 0.7
Mode: 3
LetterboxInBreaks: 0
SpecialStyle: 0
WidescreenStoryboard: 1

[Editor]
DistanceSpacing: 1
BeatDivisor: 4
GridSize: 8
TimelineZoom: 2.099999

[Metadata]
Title:The Prince of Darkness
TitleUnicode:The Prince of Darkness
Artist:M2U
ArtistUnicode:M2U
Creator:DarkSider2442
Version:Darkness
Source:
Tags:
BeatmapID:993555
BeatmapSetID:464007

[Difficulty]
HPDrainRate:8
CircleSize:7
OverallDifficulty:8
ApproachRate:5
SliderMultiplier:1.4
SliderTickRate:1

[Events]
//Background and Video events
0,0,"maxresdefault.png",0,0
//Break Periods
//Storyboard Layer 0 (Background)
//Storyboard Layer 1 (Fail)
//Storyboard Layer 2 (Pass)
//Storyboard Layer 3 (Foreground)
//Storyboard Sound Samples

[TimingPoints]
1015,375,4,2,0,5,1,0

[HitObjects]
36,192,1015,128,0,1765:0:0:0:0:
402,192,1015,1,0,0:0:0:0:
182,192,1015,1,0,0:0:0:0:
256,192,1108,1,0,0:0:0:0:
109,192,1202,1,0,0:0:0:0:
475,192,1202,1,0,0:0:0:0:
329,192,1202,1,0,0:0:0:0:
182,192,1296,1,0,0:0:0:0:
256,192,1390,1,0,0:0:0:0:
402,192,1390,1,0,0:0:0:0:
182,192,1483,1,0,0:0:0:0:
109,192,1577,1,0,0:0:0:0:
329,192,1577,1,0,0:0:0:0:
475,192,1577,1,0,0:0:0:0:
256,192,1671,1,0,0:0:0:0:
182,192,1765,1,0,0:0:0:0:
402,192,1765,1,0,0:0:0:0:
475,192,1858,1,0,0:0:0:0:
36,192,1952,1,0,0:0:0:0:
329,192,1952,1,0,0:0:0:0:
182,192,1952,1,0,0:0:0:0:
402,192,2046,1,0,0:0:0:0:
109,192,2140,1,0,0:0:0:0:
256,192,2140,1,0,0:0:0:0:
329,192,2233,1,0,0:0:0:0:
182,192,2327,1,0,0:0:0:0:
402,192,2327,1,0,0:0:0:0:
36,192,2327,1,0,0:0:0:0:
256,192,2421,1,0,0:0:0:0:
475,192,2515,128,0,3265:0:0:0:0:
329,192,2515,1,0,0:0:0:0:
109,192,2515,1,0,0:0:0:0:
256,192,2608,1,0,0:0:0:0:
182,192,2702,1,0,0:0:0:0:
36,192,2702,1,0,0:0:0:0:
402,192,2702,1,0,0:0:0:0:
329,192,2796,1,0,0:0:0:0:
256,192,2890,1,0,0:0:0:0:
109,192,2890,1,0,0:0:0:0:
329,192,2983,1,0,0:0:0:0:
36,192,3077,1,0,0:0:0:0:
182,192,3077,1,0,0:0:0:0:
402,192,3077,1,0,0:0:0:0:
256,192,3171,1,0,0:0:0:0:
36,192,3265,1,0,0:0:0:0:
329,192,3265,1,0,0:0:0:0:
182,192,3358,1,0,0:0:0:0:
36,192,3452,1,0,0:0:0:0:
329,192,3452,1,0,0:0:0:0:
475,192,3452,1,0,0:0:0:0:
256,192,3546,1,0,0:0:0:0:
109,192,3640,1,0,0:0:0:0:
402,192,3640,1,0,0:0:0:0:
329,192,3733,1,0,0:0:0:0:
182,192,3827,1,0,0:0:0:0:
475,192,3827,1,0,0:0:0:0:
36,192,3827,1,0,0:0:0:0:
402,192,3921,1,0,0:0:0:0:
36,192,4015,128,0,4765:0:0:0:0:
256,192,4015,1,0,0:0:0:0:
475,192,4015,1,0,0:0:0:0:
109,192,4108,1,0,0:0:0:0:
182,192,4202,1,0,0:0:0:0:
402,192,4202,1,0,0:0:0:0:
329,192,4202,1,0,0:0:0:0:
256,192,4296,1,0,0:0:0:0:
329,192,4390,1,0,0:0:0:0:
109,192,4390,1,0,0:0:0:0:
402,192,4483,1,0,0:0:0:0:
475,192,4577,1,0,0:0:0:0:
182,192,4577,1,0,0:0:0:0:
256,192,4577,1,0,0:0:0:0:
329,192,4671,1,0,0:0:0:0:
109,192,4765,1,0,0:0:0:0:
475,192,4765,1,0,0:0:0:0:
256,192,4858,1,0,0:0:0:0:
109,192,4952,1,0,0:0:0:0:
402,192,4952,1,0,0:0:0:0:
36,192,4952,1,0,0:0:0:0:
182,192,5046,1,0,0:0:0:0:
329,192,5140,1,0,0:0:0:0:
475,192,5140,1,0,0:0:0:0:
109,192,5233,1,0,0:0:0:0:
256,192,5327,1,0,0:0:0:0:
402,192,5327,1,0,0:0:0:0:
182,192,5327,1,0,0:0:0:0:
36,192,5421,1,0,0:0:0:0:
475,192,5515,128,0,6265:0:0:0:0:
109,192,5515,1,0,0:0:0:0:
329,192,5515,1,0,0:0:0:0:
182,192,5608,1,0,0:0:0:0:
256,192,5702,1,0,0:0:0:0:
402,192,5702,1,0,0:0:0:0:
36,192,5702,1,0,0:0:0:0:
109,192,5796,1,0,0:0:0:0:
182,192,5890,1,0,0:0:0:0:
36,192,5890,1,0,0:0:0:0:
329,192,5983,1,0,0:0:0:0:
256,192,6077,1,0,0:0:0:0:
402,192,6077,1,0,0:0:0:0:
36,192,6077,1,0,0:0:0:0:
182,192,6171,1,0,0:0:0:0:
109,192,6265,1,0,0:0:0:0:
329,192,6265,1,0,0:0:0:0:
256,192,6358,1,0,0:0:0:0:
182,192,6452,1,0,0:0:0:0:
329,192,6452,1,0,0:0:0:0:
36,192,6452,1,0,0:0:0:0:
402,192,6546,1,0,0:0:0:0:
475,192,6640,1,0,0:0:0:0:
109,192,6640,1,0,0:0:0:0:
329,192,6733,1,0,0:0:0:0:
475,192,6827,1,0,0:0:0:0:
182,192,6827,1,0,0:0:0:0:
36,192,6827,1,0,0:0:0:0:
256,192,6921,1,0,0:0:0:0:
182,192,7015,1,0,0:0:0:0:
36,192,7015,1,0,0:0:0:0:
475,192,7015,1,0,0:0:0:0:
329,192,7015,1,0,0:0:0:0:
402,192,7108,1,0,0:0:0:0:
109,192,7202,1,0,0:0:0:0:
256,192,7202,1,0,0:0:0:0:
402,192,7296,1,0,0:0:0:0:
182,192,7390,1,0,0:0:0:0:
36,192,7390,1,0,0:0:0:0:
475,192,7390,1,0,0:0:0:0:
329,192,7483,1,0,0:0:0:0:
109,192,7577,1,0,0:0:0:0:
256,192,7577,1,0,0:0:0:0:
402,192,7671,1,0,0:0:0:0:
182,192,7765,1,0,0:0:0:0:
36,192,7765,1,0,0:0:0:0:
475,192,7765,1,0,0:0:0:0:
256,192,7858,1,0,0:0:0:0:
475,192,7952,1,0,0:0:0:0:
329,192,7952,1,0,0:0:0:0:
109,192,8046,1,0,0:0:0:0:
402,192,8140,1,0,0:0:0:0:
256,192,8140,1,0,0:0:0:0:
36,192,8140,1,0,0:0:0:0:
182,192,8233,1,0,0:0:0:0:
475,192,8327,1,0,0:0:0:0:
329,192,8327,1,0,0:0:0:0:
109,192,8421,1,0,0:0:0:0:
402,192,8515,1,0,0:0:0:0:
256,192,8515,1,0,0:0:0:0:
36,192,8515,1,0,0:0:0:0:
475,192,8608,1,0,0:0:0:0:
329,192,8702,1,0,0:0:0:0:
109,192,8702,1,0,0:0:0:0:
475,192,8796,1,0,0:0:0:0:
256,192,8890,1,0,0:0:0:0:
36,192,8890,1,0,0:0:0:0:
402,192,8890,1,0,0:0:0:0:
329,192,8983,1,0,0:0:0:0:
182,192,9077,1,0,0:0:0:0:
475,192,9077,1,0,0:0:0:0:
329,192,9171,1,0,0:0:0:0:
109,192,9265,1,0,0:0:0:0:
475,192,9265,1,0,0:0:0:0:
256,192,9265,1,0,0:0:0:0:
36,192,9358,1,0,0:0:0:0:
329,192,9452,1,0,0:0:0:0:
109,192,9452,1,0,0:0:0:0:
182,192,9546,1,0,0:0:0:0:
36,192,9640,1,0,0:0:0:0:
256,192,9640,1,0,0:0:0:0:
475,192,9640,1,0,0:0:0:0:
182,192,9733,1,0,0:0:0:0:
329,192,9827,1,0,0:0:0:0:
109,192,9827,1,0,0:0:0:0:
402,192,9921,1,0,0:0:0:0:
182,192,10015,1,0,0:0:0:0:
329,192,10015,1,0,0:0:0:0:
475,192,10015,1,0,0:0:0:0:
36,192,10108,1,0,0:0:0:0:
182,192,10202,1,0,0:0:0:0:
402,192,10202,1,0,0:0:0:0:
36,192,10296,1,0,0:0:0:0:
109,192,10390,1,0,0:0:0:0:
329,192,10390,1,0,0:0:0:0:
475,192,10390,1,0,0:0:0:0:
256,192,10483,1,0,0:0:0:0:
109,192,10577,1,0,0:0:0:0:
402,192,10577,1,0,0:0:0:0:
256,192,10671,1,0,0:0:0:0:
475,192,10765,1,0,0:0:0:0:
182,192,10765,1,0,0:0:0:0:
36,192,10765,1,0,0:0:0:0:
329,192,10858,1,0,0:0:0:0:
475,192,10952,1,0,0:0:0:0:
109,192,10952,1,0,0:0:0:0:
329,192,11046,1,0,0:0:0:0:
402,192,11140,1,0,0:0:0:0:
182,192,11140,1,0,0:0:0:0:
36,192,11140,1,0,0:0:0:0:
256,192,11233,1,0,0:0:0:0:
402,192,11327,1,0,0:0:0:0:
109,192,11327,1,0,0:0:0:0:
256,192,11421,1,0,0:0:0:0:
36,192,11515,1,0,0:0:0:0:
182,192,11515,1,0,0:0:0:0:
475,192,11515,1,0,0:0:0:0:
256,192,11608,1,0,0:0:0:0:
329,192,11702,1,0,0:0:0:0:
109,192,11702,1,0,0:0:0:0:
475,192,11702,1,0,0:0:0:0:
256,192,11796,1,0,0:0:0:0:
182,192,11890,1,0,0:0:0:0:
36,192,11890,1,0,0:0:0:0:
402,192,11890,1,0,0:0:0:0:
256,192,11983,1,0,0:0:0:0:
329,192,12077,1,0,0:0:0:0:
475,192,12077,1,0,0:0:0:0:
109,192,12077,1,0,0:0:0:0:
256,192,12171,1,0,0:0:0:0:
182,192,12265,1,0,0:0:0:0:
36,192,12265,1,0,0:0:0:0:
329,192,12265,1,0,0:0:0:0:
256,192,12358,1,0,0:0:0:0:
109,192,12358,1,0,0:0:0:0:
402,192,12358,1,0,0:0:0:0:
182,192,12452,1,0,0:0:0:0:
36,192,12452,1,0,0:0:0:0:
329,192,12452,1,0,0:0:0:0:
256,192,12546,1,0,0:0:0:0:
109,192,12546,1,0,0:0:0:0:
402,192,12546,1,0,0:0:0:0:
475,192,12640,1,0,0:0:0:0:
329,192,12640,1,0,0:0:0:0:
182,192,12640,1,0,0:0:0:0:
402,192,12733,1,0,0:0:0:0:
256,192,12733,1,0,0:0:0:0:
109,192,12733,1,0,0:0:0:0:
182,192,12827,1,0,0:0:0:0:
329,192,12827,1,0,0:0:0:0:
475,192,12827,1,0,0:0:0:0:
402,192,12921,1,0,0:0:0:0:
256,192,12921,1,0,0:0:0:0:
109,192,12921,1,0,0:0:0:0:
36,192,13015,1,0,0:0:0:0:
182,192,13015,1,0,0:0:0:0:
329,192,13015,1,0,0:0:0:0:
475,192,13015,1,0,0:0:0:0:
256,192,13202,1,0,0:0:0:0:
475,192,13296,1,0,0:0:0:0:
402,192,13390,1,0,0:0:0:0:
109,192,13390,1,0,0:0:0:0:
36,192,13577,1,0,0:0:0:0:
329,192,13577,1,0,0:0:0:0:
36,192,13765,1,0,0:0:0:0:
256,192,13765,1,0,0:0:0:0:
475,192,13765,1,0,0:0:0:0:
329,192,13858,1,0,0:0:0:0:
36,192,13952,1,0,0:0:0:0:
182,192,13952,1,0,0:0:0:0:
402,192,14046,1,0,0:0:0:0:
36,192,14140,1,0,0:0:0:0:
475,192,14140,1,0,0:0:0:0:
256,192,14140,1,0,0:0:0:0:
36,192,14327,1,0,0:0:0:0:
475,192,14327,1,0,0:0:0:0:
109,192,14515,1,0,0:0:0:0:
402,192,14515,1,0,0:0:0:0:
256,192,14608,1,0,0:0:0:0:
402,192,14702,1,0,0:0:0:0:
36,192,14890,1,0,0:0:0:0:
329,192,14890,1,0,0:0:0:0:
109,192,15077,1,0,0:0:0:0:
256,192,15171,1,0,0:0:0:0:
402,192,15265,1,0,0:0:0:0:
182,192,15265,1,0,0:0:0:0:
329,192,15358,1,0,0:0:0:0:
475,192,15452,1,0,0:0:0:0:
109,192,15452,1,0,0:0:0:0:
329,192,15546,1,0,0:0:0:0:
256,192,15640,1,0,0:0:0:0:
36,192,15640,1,0,0:0:0:0:
329,192,15733,1,0,0:0:0:0:
182,192,15827,1,0,0:0:0:0:
402,192,15827,1,0,0:0:0:0:
329,192,15921,1,0,0:0:0:0:
36,192,16015,1,0,0:0:0:0:
475,192,16015,1,0,0:0:0:0:
256,192,16015,1,0,0:0:0:0:
182,192,16108,1,0,0:0:0:0:
36,192,16202,1,0,0:0:0:0:
402,192,16202,1,0,0:0:0:0:
182,192,16296,1,0,0:0:0:0:
36,192,16390,1,0,0:0:0:0:
329,192,16390,1,0,0:0:0:0:
475,192,16390,1,0,0:0:0:0:
109,192,16483,1,0,0:0:0:0:
36,192,16577,1,0,0:0:0:0:
256,192,16577,1,0,0:0:0:0:
329,192,16671,1,0,0:0:0:0:
36,192,16765,1,0,0:0:0:0:
182,192,16765,1,0,0:0:0:0:
402,192,16765,1,0,0:0:0:0:
329,192,16858,1,0,0:0:0:0:
36,192,16952,1,0,0:0:0:0:
256,192,16952,1,0,0:0:0:0:
402,192,17046,1,0,0:0:0:0:
36,192,17140,1,0,0:0:0:0:
329,192,17140,1,0,0:0:0:0:
182,192,17140,1,0,0:0:0:0:
36,192,17327,1,0,0:0:0:0:
329,192,17327,1,0,0:0:0:0:
475,192,17515,1,0,0:0:0:0:
182,192,17515,1,0,0:0:0:0:
329,192,17608,1,0,0:0:0:0:
182,192,17702,1,0,0:0:0:0:
36,192,17796,1,0,0:0:0:0:
109,192,17890,1,0,0:0:0:0:
402,192,17890,1,0,0:0:0:0:
109,192,17983,1,0,0:0:0:0:
402,192,17983,1,0,0:0:0:0:
329,192,18077,1,0,0:0:0:0:
182,192,18171,1,0,0:0:0:0:
36,192,18265,1,0,0:0:0:0:
402,192,18265,1,0,0:0:0:0:
109,192,18358,1,0,0:0:0:0:
182,192,18452,1,0,0:0:0:0:
329,192,18546,1,0,0:0:0:0:
109,192,18640,1,0,0:0:0:0:
402,192,18640,1,0,0:0:0:0:
475,192,18733,1,0,0:0:0:0:
329,192,18827,1,0,0:0:0:0:
36,192,18921,1,0,0:0:0:0:
475,192,19015,1,0,0:0:0:0:
182,192,19015,1,0,0:0:0:0:
329,192,19015,1,0,0:0:0:0:
109,192,19108,1,0,0:0:0:0:
475,192,19202,1,0,0:0:0:0:
256,192,19202,1,0,0:0:0:0:
182,192,19296,1,0,0:0:0:0:
475,192,19390,1,0,0:0:0:0:
329,192,19390,1,0,0:0:0:0:
36,192,19390,1,0,0:0:0:0:
109,192,19483,1,0,0:0:0:0:
475,192,19577,1,0,0:0:0:0:
182,192,19577,1,0,0:0:0:0:
402,192,19671,1,0,0:0:0:0:
475,192,19765,1,0,0:0:0:0:
109,192,19765,1,0,0:0:0:0:
256,192,19765,1,0,0:0:0:0:
329,192,19858,1,0,0:0:0:0:
475,192,19952,1,0,0:0:0:0:
182,192,19952,1,0,0:0:0:0:
36,192,20046,1,0,0:0:0:0:
475,192,20140,1,0,0:0:0:0:
109,192,20140,1,0,0:0:0:0:
256,192,20140,1,0,0:0:0:0:
475,192,20327,1,0,0:0:0:0:
109,192,20327,1,0,0:0:0:0:
36,192,20421,1,0,0:0:0:0:
256,192,20515,1,0,0:0:0:0:
402,192,20515,1,0,0:0:0:0:
182,192,20608,1,0,0:0:0:0:
329,192,20702,1,0,0:0:0:0:
109,192,20796,1,0,0:0:0:0:
256,192,20890,1,0,0:0:0:0:
475,192,20890,1,0,0:0:0:0:
36,192,20890,1,0,0:0:0:0:
109,192,21077,1,0,0:0:0:0:
256,192,21171,1,0,0:0:0:0:
402,192,21265,1,0,0:0:0:0:
182,192,21265,1,0,0:0:0:0:
109,192,21358,1,0,0:0:0:0:
256,192,21452,1,0,0:0:0:0:
402,192,21546,1,0,0:0:0:0:
329,192,21640,1,0,0:0:0:0:
36,192,21640,1,0,0:0:0:0:
182,192,21640,1,0,0:0:0:0:
256,192,21733,1,0,0:0:0:0:
109,192,21827,1,0,0:0:0:0:
256,192,21921,1,0,0:0:0:0:
475,192,22015,1,0,0:0:0:0:
329,192,22015,1,0,0:0:0:0:
36,192,22015,1,0,0:0:0:0:
182,192,22108,1,0,0:0:0:0:
475,192,22202,1,0,0:0:0:0:
329,192,22202,1,0,0:0:0:0:
109,192,22296,1,0,0:0:0:0:
475,192,22390,1,0,0:0:0:0:
256,192,22390,1,0,0:0:0:0:
36,192,22390,1,0,0:0:0:0:
182,192,22483,1,0,0:0:0:0:
475,192,22577,1,0,0:0:0:0:
329,192,22577,1,0,0:0:0:0:
182,192,22671,1,0,0:0:0:0:
475,192,22765,1,0,0:0:0:0:
36,192,22765,1,0,0:0:0:0:
256,192,22765,1,0,0:0:0:0:
109,192,22858,1,0,0:0:0:0:
475,192,22952,1,0,0:0:0:0:
256,192,22952,1,0,0:0:0:0:
402,192,23046,1,0,0:0:0:0:
475,192,23140,1,0,0:0:0:0:
36,192,23140,1,0,0:0:0:0:
182,192,23140,1,0,0:0:0:0:
475,192,23327,1,0,0:0:0:0:
36,192,23327,1,0,0:0:0:0:
256,192,23421,1,0,0:0:0:0:
109,192,23515,1,0,0:0:0:0:
402,192,23515,1,0,0:0:0:0:
256,192,23608,1,0,0:0:0:0:
402,192,23702,1,0,0:0:0:0:
109,192,23702,1,0,0:0:0:0:
182,192,23796,1,0,0:0:0:0:
36,192,23890,1,0,0:0:0:0:
475,192,23890,1,0,0:0:0:0:
329,192,23890,1,0,0:0:0:0:
36,192,23983,1,0,0:0:0:0:
475,192,23983,1,0,0:0:0:0:
182,192,24077,1,0,0:0:0:0:
329,192,24077,1,0,0:0:0:0:
256,192,24171,1,0,0:0:0:0:
109,192,24265,1,0,0:0:0:0:
402,192,24265,1,0,0:0:0:0:
36,192,24358,1,0,0:0:0:0:
329,192,24358,1,0,0:0:0:0:
109,192,24452,1,0,0:0:0:0:
402,192,24452,1,0,0:0:0:0:
475,192,24546,1,0,0:0:0:0:
182,192,24546,1,0,0:0:0:0:
256,192,24640,128,0,25015:0:0:0:0:
402,192,24640,1,0,0:0:0:0:
109,192,24640,1,0,0:0:0:0:
329,192,24733,1,0,0:0:0:0:
36,192,24733,1,0,0:0:0:0:
402,192,24827,1,0,0:0:0:0:
109,192,24827,1,0,0:0:0:0:
475,192,24921,1,0,0:0:0:0:
182,192,24921,1,0,0:0:0:0:
402,192,25015,1,0,0:0:0:0:
109,192,25015,1,0,0:0:0:0:
36,192,25015,128,0,26140:0:0:0:0:
329,192,25015,128,0,25202:0:0:0:0:
182,192,25202,1,0,0:0:0:0:
475,192,25390,128,0,25577:0:0:0:0:
109,192,25390,1,0,0:0:0:0:
329,192,25390,1,0,0:0:0:0:
402,192,25577,128,0,25765:0:0:0:0:
256,192,25577,1,0,0:0:0:0:
182,192,25765,1,0,0:0:0:0:
475,192,25765,1,0,0:0:0:0:
256,192,25952,128,0,26140:0:0:0:0:
402,192,25952,1,0,0:0:0:0:
182,192,26140,128,0,26515:0:0:0:0:
329,192,26140,128,0,26327:0:0:0:0:
475,192,26140,1,0,0:0:0:0:
109,192,26140,1,0,0:0:0:0:
402,192,26327,1,0,0:0:0:0:
256,192,26515,128,0,27077:0:0:0:0:
36,192,26515,128,0,27265:0:0:0:0:
329,192,26515,1,0,0:0:0:0:
475,192,26515,1,0,0:0:0:0:
402,192,26702,1,0,0:0:0:0:
475,192,26890,1,0,0:0:0:0:
182,192,26890,1,0,0:0:0:0:
402,192,27077,128,0,27640:0:0:0:0:
109,192,27077,1,0,0:0:0:0:
182,192,27265,128,0,27640:0:0:0:0:
475,192,27265,1,0,0:0:0:0:
329,192,27265,1,0,0:0:0:0:
256,192,27452,1,0,0:0:0:0:
109,192,27640,128,0,28015:0:0:0:0:
329,192,27640,1,0,0:0:0:0:
36,192,27640,1,0,0:0:0:0:
256,192,27827,1,0,0:0:0:0:
36,192,28015,128,0,29327:0:0:0:0:
475,192,28015,128,0,28390:0:0:0:0:
182,192,28015,1,0,0:0:0:0:
402,192,28015,1,0,0:0:0:0:
256,192,28202,1,0,0:0:0:0:
109,192,28390,1,0,0:0:0:0:
329,192,28390,1,0,0:0:0:0:
256,192,28577,1,0,0:0:0:0:
109,192,28765,128,0,28952:0:0:0:0:
402,192,28765,1,0,0:0:0:0:
182,192,28765,1,0,0:0:0:0:
256,192,28952,128,0,29140:0:0:0:0:
329,192,28952,1,0,0:0:0:0:
402,192,29140,128,0,29327:0:0:0:0:
475,192,29140,1,0,0:0:0:0:
109,192,29140,1,0,0:0:0:0:
182,192,29327,128,0,29421:0:0:0:0:
475,192,29327,1,0,0:0:0:0:
329,192,29421,128,0,29515:0:0:0:0:
475,192,29515,128,0,30077:0:0:0:0:
36,192,29515,128,0,29890:0:0:0:0:
109,192,29515,1,0,0:0:0:0:
256,192,29515,1,0,0:0:0:0:
329,192,29702,1,0,0:0:0:0:
402,192,29890,1,0,0:0:0:0:
182,192,29890,1,0,0:0:0:0:
109,192,30077,128,0,30640:0:0:0:0:
329,192,30077,1,0,0:0:0:0:
256,192,30265,128,0,31015:0:0:0:0:
475,192,30265,1,0,0:0:0:0:
36,192,30265,1,0,0:0:0:0:
329,192,30452,1,0,0:0:0:0:
402,192,30640,128,0,31015:0:0:0:0:
475,192,30640,1,0,0:0:0:0:
182,192,30640,1,0,0:0:0:0:
36,192,30827,1,0,0:0:0:0:
36,192,31015,128,0,32140:0:0:0:0:
475,192,31015,128,0,31765:0:0:0:0:
109,192,31015,1,0,0:0:0:0:
329,192,31015,1,0,0:0:0:0:
182,192,31202,1,0,0:0:0:0:
256,192,31390,128,0,31577:0:0:0:0:
402,192,31390,1,0,0:0:0:0:
109,192,31390,1,0,0:0:0:0:
329,192,31577,128,0,31765:0:0:0:0:
182,192,31577,1,0,0:0:0:0:
402,192,31765,128,0,31952:0:0:0:0:
256,192,31765,1,0,0:0:0:0:
109,192,31765,1,0,0:0:0:0:
475,192,31952,128,0,32140:0:0:0:0:
329,192,31952,1,0,0:0:0:0:
182,192,32140,128,0,32515:0:0:0:0:
402,192,32140,1,0,0:0:0:0:
256,192,32140,1,0,0:0:0:0:
475,192,32327,1,0,0:0:0:0:
256,192,32515,128,0,33077:0:0:0:0:
36,192,32515,128,0,33077:0:0:0:0:
109,192,32515,1,0,0:0:0:0:
402,192,32515,1,0,0:0:0:0:
329,192,32702,1,0,0:0:0:0:
182,192,32890,1,0,0:0:0:0:
402,192,32890,1,0,0:0:0:0:
475,192,33077,128,0,33640:0:0:0:0:
109,192,33077,128,0,33265:0:0:0:0:
329,192,33077,1,0,0:0:0:0:
182,192,33265,128,0,33452:0:0:0:0:
402,192,33265,1,0,0:0:0:0:
36,192,33265,1,0,0:0:0:0:
256,192,33452,128,0,33640:0:0:0:0:
109,192,33452,1,0,0:0:0:0:
329,192,33640,128,0,34015:0:0:0:0:
36,192,33640,128,0,33827:0:0:0:0:
182,192,33640,1,0,0:0:0:0:
402,192,33640,1,0,0:0:0:0:
475,192,33827,1,0,0:0:0:0:
402,192,34015,128,0,34577:0:0:0:0:
109,192,34015,128,0,34577:0:0:0:0:
256,192,34015,1,0,0:0:0:0:
36,192,34015,1,0,0:0:0:0:
182,192,34202,1,0,0:0:0:0:
36,192,34390,1,0,0:0:0:0:
329,192,34390,1,0,0:0:0:0:
182,192,34577,128,0,34671:0:0:0:0:
475,192,34577,1,0,0:0:0:0:
329,192,34671,128,0,34765:0:0:0:0:
256,192,34765,128,0,34952:0:0:0:0:
36,192,34765,1,0,0:0:0:0:
475,192,34765,1,0,0:0:0:0:
182,192,34952,128,0,35140:0:0:0:0:
402,192,34952,1,0,0:0:0:0:
109,192,35140,128,0,35327:0:0:0:0:
329,192,35140,1,0,0:0:0:0:
475,192,35140,1,0,0:0:0:0:
36,192,35327,128,0,35515:0:0:0:0:
256,192,35327,1,0,0:0:0:0:
402,192,35515,128,0,36077:0:0:0:0:
256,192,35515,128,0,35890:0:0:0:0:
182,192,35515,1,0,0:0:0:0:
475,192,35515,1,0,0:0:0:0:
109,192,35702,1,0,0:0:0:0:
36,192,35890,1,0,0:0:0:0:
182,192,35890,1,0,0:0:0:0:
36,192,36077,128,0,36171:0:0:0:0:
256,192,36077,1,0,0:0:0:0:
182,192,36171,128,0,36265:0:0:0:0:
329,192,36265,128,0,36640:0:0:0:0:
475,192,36265,128,0,37015:0:0:0:0:
402,192,36265,1,0,0:0:0:0:
109,192,36265,1,0,0:0:0:0:
182,192,36452,1,0,0:0:0:0:
36,192,36640,128,0,36733:0:0:0:0:
256,192,36640,1,0,0:0:0:0:
402,192,36640,1,0,0:0:0:0:
109,192,36733,128,0,36827:0:0:0:0:
182,192,36827,128,0,36921:0:0:0:0:
329,192,36827,1,0,0:0:0:0:
256,192,36921,128,0,37015:0:0:0:0:
329,192,37015,128,0,38140:0:0:0:0:
36,192,37015,128,0,37390:0:0:0:0:
402,192,37015,1,0,0:0:0:0:
109,192,37015,1,0,0:0:0:0:
182,192,37202,1,0,0:0:0:0:
109,192,37390,128,0,37577:0:0:0:0:
256,192,37390,1,0,0:0:0:0:
475,192,37390,1,0,0:0:0:0:
182,192,37577,128,0,37765:0:0:0:0:
402,192,37577,1,0,0:0:0:0:
36,192,37765,1,0,0:0:0:0:
256,192,37765,1,0,0:0:0:0:
182,192,37952,128,0,38140:0:0:0:0:
475,192,37952,1,0,0:0:0:0:
109,192,38140,128,0,38515:0:0:0:0:
256,192,38140,128,0,38327:0:0:0:0:
402,192,38140,1,0,0:0:0:0:
36,192,38140,1,0,0:0:0:0:
329,192,38327,1,0,0:0:0:0:
256,192,38515,128,0,39077:0:0:0:0:
36,192,38515,128,0,39265:0:0:0:0:
402,192,38515,1,0,0:0:0:0:
182,192,38515,1,0,0:0:0:0:
475,192,38702,1,0,0:0:0:0:
109,192,38890,1,0,0:0:0:0:
402,192,38890,1,0,0:0:0:0:
475,192,39077,128,0,39640:0:0:0:0:
329,192,39077,1,0,0:0:0:0:
109,192,39265,128,0,39640:0:0:0:0:
182,192,39265,1,0,0:0:0:0:
402,192,39265,1,0,0:0:0:0:
329,192,39452,1,0,0:0:0:0:
402,192,39640,128,0,40015:0:0:0:0:
256,192,39640,1,0,0:0:0:0:
36,192,39640,1,0,0:0:0:0:
182,192,39827,1,0,0:0:0:0:
256,192,40015,128,0,40390:0:0:0:0:
475,192,40015,128,0,40765:0:0:0:0:
329,192,40015,1,0,0:0:0:0:
109,192,40015,1,0,0:0:0:0:
36,192,40202,1,0,0:0:0:0:
36,192,40390,128,0,40577:0:0:0:0:
402,192,40390,1,0,0:0:0:0:
109,192,40390,1,0,0:0:0:0:
182,192,40577,128,0,40765:0:0:0:0:
329,192,40577,1,0,0:0:0:0:
36,192,40765,128,0,41140:0:0:0:0:
256,192,40765,128,0,41515:0:0:0:0:
109,192,40765,1,0,0:0:0:0:
402,192,40765,1,0,0:0:0:0:
329,192,40952,1,0,0:0:0:0:
475,192,41140,128,0,41515:0:0:0:0:
402,192,41140,1,0,0:0:0:0:
109,192,41140,1,0,0:0:0:0:
182,192,41327,1,0,0:0:0:0:
329,192,41515,128,0,42640:0:0:0:0:
36,192,41515,128,0,42640:0:0:0:0:
109,192,41515,1,0,0:0:0:0:
402,192,41515,1,0,0:0:0:0:
182,192,41702,1,0,0:0:0:0:
256,192,41890,1,0,0:0:0:0:
475,192,41890,1,0,0:0:0:0:
182,192,42077,128,0,42265:0:0:0:0:
402,192,42077,1,0,0:0:0:0:
109,192,42265,128,0,42452:0:0:0:0:
256,192,42265,1,0,0:0:0:0:
475,192,42265,1,0,0:0:0:0:
182,192,42452,128,0,42640:0:0:0:0:
402,192,42452,1,0,0:0:0:0:
256,192,42640,128,0,43015:0:0:0:0:
475,192,42640,128,0,42827:0:0:0:0:
109,192,42640,1,0,0:0:0:0:
402,192,42827,128,0,43015:0:0:0:0:
36,192,42827,1,0,0:0:0:0:
182,192,43015,128,0,43765:0:0:0:0:
475,192,43015,128,0,43577:0:0:0:0:
36,192,43015,1,0,0:0:0:0:
329,192,43015,1,0,0:0:0:0:
109,192,43202,1,0,0:0:0:0:
256,192,43390,1,0,0:0:0:0:
402,192,43390,1,0,0:0:0:0:
329,192,43577,1,0,0:0:0:0:
36,192,43577,1,0,0:0:0:0:
329,192,43765,128,0,43952:0:0:0:0:
109,192,43765,1,0,0:0:0:0:
475,192,43765,1,0,0:0:0:0:
36,192,43952,128,0,44046:0:0:0:0:
402,192,43952,1,0,0:0:0:0:
109,192,44046,128,0,44140:0:0:0:0:
182,192,44140,128,0,44327:0:0:0:0:
475,192,44140,1,0,0:0:0:0:
329,192,44140,1,0,0:0:0:0:
256,192,44327,128,0,44515:0:0:0:0:
402,192,44327,1,0,0:0:0:0:
329,192,44515,128,0,45265:0:0:0:0:
36,192,44515,128,0,45077:0:0:0:0:
109,192,44515,1,0,0:0:0:0:
475,192,44515,1,0,0:0:0:0:
182,192,44702,1,0,0:0:0:0:
256,192,44890,1,0,0:0:0:0:
475,192,44890,1,0,0:0:0:0:
182,192,45077,1,0,0:0:0:0:
402,192,45077,1,0,0:0:0:0:
182,192,45265,128,0,45452:0:0:0:0:
36,192,45265,128,0,45640:0:0:0:0:
475,192,45265,1,0,0:0:0:0:
256,192,45265,1,0,0:0:0:0:
475,192,45452,128,0,45546:0:0:0:0:
329,192,45452,1,0,0:0:0:0:
402,192,45546,128,0,45640:0:0:0:0:
329,192,45640,128,0,45827:0:0:0:0:
109,192,45640,128,0,46015:0:0:0:0:
182,192,45640,1,0,0:0:0:0:
402,192,45827,128,0,46015:0:0:0:0:
475,192,45827,1,0,0:0:0:0:
36,192,46015,128,0,46577:0:0:0:0:
256,192,46015,128,0,46390:0:0:0:0:
329,192,46015,1,0,0:0:0:0:
182,192,46015,1,0,0:0:0:0:
402,192,46202,1,0,0:0:0:0:
475,192,46390,1,0,0:0:0:0:
182,192,46390,1,0,0:0:0:0:
475,192,46577,128,0,46671:0:0:0:0:
256,192,46577,1,0,0:0:0:0:
402,192,46671,128,0,46765:0:0:0:0:
182,192,46765,128,0,46858:0:0:0:0:
329,192,46765,1,0,0:0:0:0:
36,192,46765,1,0,0:0:0:0:
109,192,46858,128,0,46952:0:0:0:0:
36,192,46952,128,0,47046:0:0:0:0:
402,192,46952,1,0,0:0:0:0:
109,192,47046,128,0,47140:0:0:0:0:
256,192,47140,128,0,47233:0:0:0:0:
475,192,47140,1,0,0:0:0:0:
329,192,47140,1,0,0:0:0:0:
182,192,47233,128,0,47327:0:0:0:0:
329,192,47327,128,0,47421:0:0:0:0:
36,192,47327,1,0,0:0:0:0:
256,192,47421,128,0,47515:0:0:0:0:
402,192,47515,128,0,48077:0:0:0:0:
109,192,47515,1,0,0:0:0:0:
475,192,47515,1,0,0:0:0:0:
182,192,47702,1,0,0:0:0:0:
256,192,47890,1,0,0:0:0:0:
36,192,47890,1,0,0:0:0:0:
182,192,48077,128,0,48171:0:0:0:0:
475,192,48077,1,0,0:0:0:0:
329,192,48077,1,0,0:0:0:0:
109,192,48171,128,0,48265:0:0:0:0:
402,192,48171,1,0,0:0:0:0:
256,192,48171,1,0,0:0:0:0:
36,192,48265,128,0,49015:0:0:0:0:
182,192,48265,1,0,0:0:0:0:
329,192,48265,1,0,0:0:0:0:
256,192,48452,1,0,0:0:0:0:
109,192,48452,1,0,0:0:0:0:
475,192,48452,1,0,0:0:0:0:
182,192,48640,1,0,0:0:0:0:
402,192,48640,1,0,0:0:0:0:
329,192,48733,1,0,0:0:0:0:
109,192,48733,1,0,0:0:0:0:
256,192,48827,1,0,0:0:0:0:
475,192,48827,1,0,0:0:0:0:
402,192,48921,1,0,0:0:0:0:
182,192,48921,1,0,0:0:0:0:
109,192,49015,1,0,0:0:0:0:
256,192,49015,1,0,0:0:0:0:
475,192,49015,1,0,0:0:0:0:
402,192,49108,1,0,0:0:0:0:
329,192,49202,1,0,0:0:0:0:
256,192,49296,1,0,0:0:0:0:
475,192,49390,1,0,0:0:0:0:
182,192,49390,1,0,0:0:0:0:
109,192,49483,1,0,0:0:0:0:
36,192,49577,1,0,0:0:0:0:
402,192,49577,1,0,0:0:0:0:
329,192,49671,1,0,0:0:0:0:
36,192,49765,1,0,0:0:0:0:
256,192,49765,1,0,0:0:0:0:
475,192,49765,1,0,0:0:0:0:
182,192,49858,1,0,0:0:0:0:
109,192,49952,1,0,0:0:0:0:
36,192,50046,1,0,0:0:0:0:
402,192,50140,1,0,0:0:0:0:
182,192,50140,1,0,0:0:0:0:
329,192,50233,1,0,0:0:0:0:
475,192,50327,1,0,0:0:0:0:
256,192,50327,1,0,0:0:0:0:
402,192,50421,1,0,0:0:0:0:
182,192,50421,1,0,0:0:0:0:
36,192,50515,1,0,0:0:0:0:
329,192,50515,1,0,0:0:0:0:
109,192,50515,1,0,0:0:0:0:
402,192,50608,1,0,0:0:0:0:
475,192,50702,1,0,0:0:0:0:
256,192,50796,1,0,0:0:0:0:
109,192,50890,1,0,0:0:0:0:
329,192,50890,1,0,0:0:0:0:
402,192,50983,1,0,0:0:0:0:
256,192,51077,1,0,0:0:0:0:
36,192,51077,1,0,0:0:0:0:
329,192,51171,1,0,0:0:0:0:
109,192,51171,1,0,0:0:0:0:
475,192,51265,1,0,0:0:0:0:
402,192,51265,1,0,0:0:0:0:
182,192,51265,1,0,0:0:0:0:
329,192,51358,1,0,0:0:0:0:
256,192,51452,1,0,0:0:0:0:
475,192,51452,1,0,0:0:0:0:
182,192,51546,1,0,0:0:0:0:
402,192,51546,1,0,0:0:0:0:
475,192,51640,1,0,0:0:0:0:
109,192,51640,1,0,0:0:0:0:
329,192,51640,1,0,0:0:0:0:
36,192,51733,1,0,0:0:0:0:
256,192,51733,1,0,0:0:0:0:
182,192,51827,1,0,0:0:0:0:
402,192,51827,1,0,0:0:0:0:
475,192,51921,1,0,0:0:0:0:
256,192,51921,1,0,0:0:0:0:
36,192,52015,1,0,0:0:0:0:
329,192,52015,1,0,0:0:0:0:
109,192,52015,1,0,0:0:0:0:
182,192,52108,1,0,0:0:0:0:
256,192,52202,1,0,0:0:0:0:
402,192,52296,1,0,0:0:0:0:
36,192,52390,1,0,0:0:0:0:
182,192,52390,1,0,0:0:0:0:
256,192,52483,1,0,0:0:0:0:
329,192,52577,1,0,0:0:0:0:
475,192,52577,1,0,0:0:0:0:
182,192,52671,1,0,0:0:0:0:
256,192,52765,1,0,0:0:0:0:
36,192,52765,1,0,0:0:0:0:
402,192,52765,1,0,0:0:0:0:
329,192,52858,1,0,0:0:0:0:
182,192,52952,1,0,0:0:0:0:
109,192,53046,1,0,0:0:0:0:
475,192,53140,1,0,0:0:0:0:
256,192,53140,1,0,0:0:0:0:
402,192,53233,1,0,0:0:0:0:
329,192,53327,1,0,0:0:0:0:
36,192,53327,1,0,0:0:0:0:
182,192,53421,1,0,0:0:0:0:
475,192,53421,1,0,0:0:0:0:
36,192,53515,1,0,0:0:0:0:
256,192,53515,1,0,0:0:0:0:
402,192,53608,1,0,0:0:0:0:
109,192,53608,1,0,0:0:0:0:
329,192,53702,1,0,0:0:0:0:
182,192,53796,1,0,0:0:0:0:
475,192,53890,1,0,0:0:0:0:
256,192,53890,1,0,0:0:0:0:
329,192,53983,1,0,0:0:0:0:
402,192,54077,1,0,0:0:0:0:
109,192,54077,1,0,0:0:0:0:
475,192,54171,1,0,0:0:0:0:
182,192,54171,1,0,0:0:0:0:
256,192,54265,1,0,0:0:0:0:
329,192,54265,1,0,0:0:0:0:
109,192,54265,1,0,0:0:0:0:
475,192,54358,1,0,0:0:0:0:
36,192,54358,1,0,0:0:0:0:
402,192,54452,1,0,0:0:0:0:
182,192,54452,1,0,0:0:0:0:
329,192,54546,1,0,0:0:0:0:
109,192,54546,1,0,0:0:0:0:
402,192,54640,1,0,0:0:0:0:
256,192,54640,1,0,0:0:0:0:
36,192,54640,1,0,0:0:0:0:
475,192,54733,1,0,0:0:0:0:
182,192,54733,1,0,0:0:0:0:
402,192,54827,1,0,0:0:0:0:
109,192,54827,1,0,0:0:0:0:
329,192,54921,1,0,0:0:0:0:
36,192,54921,1,0,0:0:0:0:
109,192,55015,1,0,0:0:0:0:
475,192,55015,1,0,0:0:0:0:
182,192,55015,1,0,0:0:0:0:
256,192,55108,1,0,0:0:0:0:
402,192,55202,1,0,0:0:0:0:
36,192,55202,1,0,0:0:0:0:
182,192,55296,1,0,0:0:0:0:
329,192,55390,1,0,0:0:0:0:
475,192,55390,1,0,0:0:0:0:
182,192,55483,1,0,0:0:0:0:
329,192,55577,1,0,0:0:0:0:
36,192,55577,1,0,0:0:0:0:
475,192,55671,1,0,0:0:0:0:
109,192,55671,1,0,0:0:0:0:
256,192,55671,1,0,0:0:0:0:
182,192,55765,1,0,0:0:0:0:
402,192,55765,1,0,0:0:0:0:
329,192,55858,1,0,0:0:0:0:
402,192,55952,1,0,0:0:0:0:
109,192,55952,1,0,0:0:0:0:
475,192,56046,1,0,0:0:0:0:
36,192,56140,1,0,0:0:0:0:
256,192,56140,1,0,0:0:0:0:
182,192,56233,1,0,0:0:0:0:
109,192,56327,1,0,0:0:0:0:
402,192,56327,1,0,0:0:0:0:
475,192,56327,1,0,0:0:0:0:
36,192,56421,1,0,0:0:0:0:
329,192,56421,1,0,0:0:0:0:
256,192,56515,1,0,0:0:0:0:
182,192,56515,1,0,0:0:0:0:
475,192,56515,1,0,0:0:0:0:
402,192,56608,1,0,0:0:0:0:
109,192,56702,1,0,0:0:0:0:
329,192,56702,1,0,0:0:0:0:
182,192,56796,1,0,0:0:0:0:
256,192,56890,1,0,0:0:0:0:
109,192,56890,1,0,0:0:0:0:
329,192,56983,1,0,0:0:0:0:
402,192,57077,1,0,0:0:0:0:
182,192,57077,1,0,0:0:0:0:
36,192,57077,1,0,0:0:0:0:
475,192,57171,1,0,0:0:0:0:
256,192,57171,1,0,0:0:0:0:
329,192,57265,1,0,0:0:0:0:
402,192,57265,1,0,0:0:0:0:
109,192,57265,1,0,0:0:0:0:
256,192,57358,1,0,0:0:0:0:
109,192,57452,1,0,0:0:0:0:
182,192,57452,1,0,0:0:0:0:
402,192,57452,1,0,0:0:0:0:
329,192,57546,1,0,0:0:0:0:
36,192,57546,1,0,0:0:0:0:
182,192,57640,1,0,0:0:0:0:
256,192,57640,1,0,0:0:0:0:
475,192,57640,1,0,0:0:0:0:
402,192,57733,1,0,0:0:0:0:
109,192,57733,1,0,0:0:0:0:
329,192,57827,1,0,0:0:0:0:
36,192,57827,1,0,0:0:0:0:
256,192,57827,1,0,0:0:0:0:
402,192,57921,1,0,0:0:0:0:
182,192,57921,1,0,0:0:0:0:
475,192,58015,1,0,0:0:0:0:
109,192,58015,1,0,0:0:0:0:
36,192,58015,1,0,0:0:0:0:
256,192,58108,1,0,0:0:0:0:
329,192,58202,1,0,0:0:0:0:
109,192,58202,1,0,0:0:0:0:
475,192,58296,1,0,0:0:0:0:
402,192,58390,1,0,0:0:0:0:
182,192,58390,1,0,0:0:0:0:
109,192,58483,1,0,0:0:0:0:
256,192,58577,1,0,0:0:0:0:
475,192,58577,1,0,0:0:0:0:
36,192,58577,1,0,0:0:0:0:
182,192,58671,1,0,0:0:0:0:
402,192,58671,1,0,0:0:0:0:
329,192,58765,1,0,0:0:0:0:
109,192,58765,1,0,0:0:0:0:
36,192,58765,1,0,0:0:0:0:
182,192,58858,1,0,0:0:0:0:
256,192,58952,1,0,0:0:0:0:
475,192,58952,1,0,0:0:0:0:
329,192,59046,1,0,0:0:0:0:
402,192,59140,1,0,0:0:0:0:
109,192,59140,1,0,0:0:0:0:
329,192,59233,1,0,0:0:0:0:
256,192,59327,1,0,0:0:0:0:
475,192,59327,1,0,0:0:0:0:
36,192,59327,1,0,0:0:0:0:
182,192,59421,1,0,0:0:0:0:
402,192,59421,1,0,0:0:0:0:
109,192,59515,1,0,0:0:0:0:
329,192,59515,1,0,0:0:0:0:
36,192,59515,1,0,0:0:0:0:
256,192,59608,1,0,0:0:0:0:
182,192,59702,1,0,0:0:0:0:
475,192,59702,1,0,0:0:0:0:
402,192,59702,1,0,0:0:0:0:
109,192,59796,1,0,0:0:0:0:
36,192,59890,1,0,0:0:0:0:
329,192,59890,1,0,0:0:0:0:
475,192,59890,1,0,0:0:0:0:
256,192,59983,1,0,0:0:0:0:
36,192,60077,1,0,0:0:0:0:
182,192,60077,1,0,0:0:0:0:
329,192,60077,1,0,0:0:0:0:
256,192,60171,1,0,0:0:0:0:
109,192,60171,1,0,0:0:0:0:
402,192,60171,1,0,0:0:0:0:
182,192,60265,1,0,0:0:0:0:
329,192,60265,1,0,0:0:0:0:
475,192,60265,1,0,0:0:0:0:
109,192,60358,1,0,0:0:0:0:
256,192,60358,1,0,0:0:0:0:
402,192,60358,1,0,0:0:0:0:
329,192,60452,1,0,0:0:0:0:
182,192,60452,1,0,0:0:0:0:
36,192,60452,1,0,0:0:0:0:
109,192,60546,1,0,0:0:0:0:
256,192,60546,1,0,0:0:0:0:
402,192,60546,1,0,0:0:0:0:
182,192,60640,1,0,0:0:0:0:
329,192,60640,1,0,0:0:0:0:
475,192,60640,1,0,0:0:0:0:
402,192,60733,1,0,0:0:0:0:
256,192,60733,1,0,0:0:0:0:
109,192,60733,1,0,0:0:0:0:
329,192,60827,1,0,0:0:0:0:
182,192,60827,1,0,0:0:0:0:
36,192,60827,1,0,0:0:0:0:
109,192,60921,1,0,0:0:0:0:
256,192,60921,1,0,0:0:0:0:
402,192,60921,1,0,0:0:0:0:
182,192,61015,1,0,0:0:0:0:
329,192,61015,1,0,0:0:0:0:
475,192,61015,128,0,61390:0:0:0:0:
109,192,61202,1,0,0:0:0:0:
256,192,61296,1,0,0:0:0:0:
36,192,61390,128,0,61765:0:0:0:0:
402,192,61390,1,0,0:0:0:0:
182,192,61577,1,0,0:0:0:0:
329,192,61577,1,0,0:0:0:0:
402,192,61765,128,0,62140:0:0:0:0:
256,192,61765,1,0,0:0:0:0:
182,192,61952,1,0,0:0:0:0:
36,192,62046,1,0,0:0:0:0:
475,192,62140,128,0,62515:0:0:0:0:
256,192,62140,1,0,0:0:0:0:
109,192,62233,1,0,0:0:0:0:
329,192,62327,1,0,0:0:0:0:
402,192,62327,1,0,0:0:0:0:
182,192,62421,1,0,0:0:0:0:
36,192,62515,128,0,62890:0:0:0:0:
402,192,62515,1,0,0:0:0:0:
329,192,62515,1,0,0:0:0:0:
256,192,62608,1,0,0:0:0:0:
182,192,62702,1,0,0:0:0:0:
109,192,62796,1,0,0:0:0:0:
475,192,62890,128,0,63077:0:0:0:0:
182,192,62890,1,0,0:0:0:0:
256,192,62983,1,0,0:0:0:0:
182,192,63077,128,0,63265:0:0:0:0:
329,192,63077,1,0,0:0:0:0:
109,192,63077,1,0,0:0:0:0:
402,192,63171,1,0,0:0:0:0:
36,192,63265,128,0,63640:0:0:0:0:
475,192,63265,1,0,0:0:0:0:
329,192,63452,1,0,0:0:0:0:
475,192,63546,1,0,0:0:0:0:
109,192,63640,128,0,64015:0:0:0:0:
402,192,63640,1,0,0:0:0:0:
475,192,63733,1,0,0:0:0:0:
329,192,63827,1,0,0:0:0:0:
182,192,63827,1,0,0:0:0:0:
402,192,63921,1,0,0:0:0:0:
256,192,63921,1,0,0:0:0:0:
182,192,64015,128,0,64390:0:0:0:0:
475,192,64015,1,0,0:0:0:0:
329,192,64015,1,0,0:0:0:0:
36,192,64108,1,0,0:0:0:0:
402,192,64202,1,0,0:0:0:0:
109,192,64296,1,0,0:0:0:0:
329,192,64390,128,0,64577:0:0:0:0:
475,192,64390,1,0,0:0:0:0:
182,192,64483,1,0,0:0:0:0:
36,192,64577,128,0,64765:0:0:0:0:
402,192,64577,1,0,0:0:0:0:
109,192,64577,1,0,0:0:0:0:
329,192,64671,1,0,0:0:0:0:
475,192,64765,128,0,65140:0:0:0:0:
256,192,64765,1,0,0:0:0:0:
182,192,64858,1,0,0:0:0:0:
256,192,64952,1,0,0:0:0:0:
182,192,65046,1,0,0:0:0:0:
402,192,65140,128,0,65515:0:0:0:0:
109,192,65140,1,0,0:0:0:0:
36,192,65233,1,0,0:0:0:0:
109,192,65327,1,0,0:0:0:0:
329,192,65327,1,0,0:0:0:0:
182,192,65421,1,0,0:0:0:0:
36,192,65515,128,0,65890:0:0:0:0:
256,192,65515,1,0,0:0:0:0:
329,192,65515,1,0,0:0:0:0:
475,192,65608,1,0,0:0:0:0:
182,192,65702,1,0,0:0:0:0:
402,192,65796,1,0,0:0:0:0:
109,192,65890,128,0,66077:0:0:0:0:
256,192,65890,1,0,0:0:0:0:
475,192,65983,1,0,0:0:0:0:
36,192,66077,128,0,66265:0:0:0:0:
402,192,66077,1,0,0:0:0:0:
182,192,66077,1,0,0:0:0:0:
329,192,66171,1,0,0:0:0:0:
256,192,66265,128,0,66640:0:0:0:0:
402,192,66265,1,0,0:0:0:0:
109,192,66265,1,0,0:0:0:0:
475,192,66327,1,0,0:0:0:0:
402,192,66390,1,0,0:0:0:0:
36,192,66452,1,0,0:0:0:0:
329,192,66452,1,0,0:0:0:0:
402,192,66546,1,0,0:0:0:0:
475,192,66640,128,0,67015:0:0:0:0:
36,192,66640,1,0,0:0:0:0:
109,192,66640,1,0,0:0:0:0:
182,192,66640,1,0,0:0:0:0:
329,192,66733,1,0,0:0:0:0:
402,192,66733,1,0,0:0:0:0:
256,192,66827,1,0,0:0:0:0:
182,192,66827,1,0,0:0:0:0:
109,192,66827,1,0,0:0:0:0:
329,192,66921,1,0,0:0:0:0:
402,192,66921,1,0,0:0:0:0:
36,192,67015,128,0,67202:0:0:0:0:
109,192,67015,128,0,67202:0:0:0:0:
182,192,67015,128,0,67202:0:0:0:0:
475,192,67202,128,0,67390:0:0:0:0:
329,192,67202,128,0,67390:0:0:0:0:
256,192,67202,128,0,67390:0:0:0:0:
182,192,67390,128,0,67577:0:0:0:0:
109,192,67390,128,0,67577:0:0:0:0:
402,192,67390,128,0,67577:0:0:0:0:
36,192,67577,128,0,67765:0:0:0:0:
329,192,67577,128,0,67765:0:0:0:0:
256,192,67577,128,0,67765:0:0:0:0:
402,192,67765,128,0,67952:0:0:0:0:
109,192,67765,128,0,67952:0:0:0:0:
182,192,67765,128,0,67952:0:0:0:0:
329,192,67952,128,0,68140:0:0:0:0:
256,192,67952,128,0,68140:0:0:0:0:
475,192,67952,128,0,68140:0:0:0:0:
182,192,68140,128,0,68327:0:0:0:0:
36,192,68140,128,0,68327:0:0:0:0:
109,192,68140,128,0,68327:0:0:0:0:
256,192,68327,128,0,68515:0:0:0:0:
402,192,68327,128,0,68515:0:0:0:0:
475,192,68327,128,0,68515:0:0:0:0:
329,192,68515,128,0,68702:0:0:0:0:
109,192,68515,128,0,68702:0:0:0:0:
36,192,68515,128,0,68702:0:0:0:0:
256,192,68702,128,0,68890:0:0:0:0:
182,192,68702,128,0,68890:0:0:0:0:
475,192,68702,128,0,68890:0:0:0:0:
329,192,68890,128,0,69077:0:0:0:0:
402,192,68890,128,0,69077:0:0:0:0:
109,192,68890,128,0,69077:0:0:0:0:
256,192,69077,128,0,69265:0:0:0:0:
36,192,69077,128,0,69265:0:0:0:0:
182,192,69077,128,0,69265:0:0:0:0:
109,192,69265,128,0,69452:0:0:0:0:
329,192,69265,128,0,69452:0:0:0:0:
475,192,69265,128,0,69452:0:0:0:0:
402,192,69452,128,0,69640:0:0:0:0:
256,192,69452,128,0,69640:0:0:0:0:
36,192,69452,128,0,69640:0:0:0:0:
182,192,69640,128,0,69827:0:0:0:0:
329,192,69640,128,0,69827:0:0:0:0:
475,192,69640,128,0,69827:0:0:0:0:
36,192,69827,128,0,70015:0:0:0:0:
402,192,69827,128,0,70015:0:0:0:0:
256,192,69827,128,0,70015:0:0:0:0:
475,192,70015,128,0,70202:0:0:0:0:
329,192,70015,128,0,70202:0:0:0:0:
109,192,70015,128,0,70202:0:0:0:0:
256,192,70202,128,0,70390:0:0:0:0:
182,192,70202,128,0,70390:0:0:0:0:
402,192,70202,128,0,70390:0:0:0:0:
329,192,70390,128,0,70577:0:0:0:0:
109,192,70390,128,0,70577:0:0:0:0:
475,192,70390,128,0,70577:0:0:0:0:
182,192,70577,128,0,70765:0:0:0:0:
36,192,70577,128,0,70765:0:0:0:0:
256,192,70577,128,0,70765:0:0:0:0:
109,192,70765,128,0,70952:0:0:0:0:
329,192,70765,128,0,70952:0:0:0:0:
402,192,70765,128,0,70952:0:0:0:0:
256,192,70952,128,0,71140:0:0:0:0:
182,192,70952,128,0,71140:0:0:0:0:
475,192,70952,128,0,71140:0:0:0:0:
36,192,71140,128,0,71327:0:0:0:0:
402,192,71140,128,0,71327:0:0:0:0:
109,192,71140,128,0,71327:0:0:0:0:
256,192,71327,128,0,71515:0:0:0:0:
182,192,71327,128,0,71515:0:0:0:0:
475,192,71327,128,0,71515:0:0:0:0:
329,192,71515,128,0,71702:0:0:0:0:
109,192,71515,128,0,71702:0:0:0:0:
402,192,71515,128,0,71702:0:0:0:0:
182,192,71702,128,0,71890:0:0:0:0:
256,192,71702,128,0,71890:0:0:0:0:
475,192,71702,128,0,71890:0:0:0:0:
36,192,71890,128,0,72077:0:0:0:0:
402,192,71890,128,0,72077:0:0:0:0:
109,192,71890,128,0,72077:0:0:0:0:
182,192,72077,128,0,72265:0:0:0:0:
329,192,72077,128,0,72265:0:0:0:0:
256,192,72077,128,0,72265:0:0:0:0:
402,192,72265,128,0,72921:0:0:0:0:
36,192,72265,128,0,72921:0:0:0:0:
109,192,72265,128,0,72921:0:0:0:0:
475,192,72265,128,0,72921:0:0:0:0:
182,192,72640,128,0,72921:0:0:0:0:
329,192,72640,128,0,72921:0:0:0:0:
36,192,73015,1,0,0:0:0:0:
182,192,73015,1,0,0:0:0:0:
329,192,73015,1,0,0:0:0:0:
475,192,73015,1,0,0:0:0:0:
109,192,73390,1,0,0:0:0:0:
182,192,73390,1,0,0:0:0:0:
329,192,73390,1,0,0:0:0:0:
402,192,73390,1,0,0:0:0:0:
402,192,73765,1,0,0:0:0:0:
475,192,73765,1,0,0:0:0:0:
109,192,73765,1,0,0:0:0:0:
36,192,73765,1,0,0:0:0:0:
329,192,74140,1,0,0:0:0:0:
475,192,74140,1,0,0:0:0:0:
36,192,74140,1,0,0:0:0:0:
182,192,74140,1,0,0:0:0:0:
36,192,74421,1,0,0:0:0:0:
475,192,74421,1,0,0:0:0:0:
402,192,74515,1,0,0:0:0:0:
329,192,74515,1,0,0:0:0:0:
182,192,74515,1,0,0:0:0:0:
109,192,74515,1,0,0:0:0:0:
256,192,74890,1,0,0:0:0:0:
402,192,74890,1,0,0:0:0:0:
329,192,74890,1,0,0:0:0:0:
475,192,74890,1,0,0:0:0:0:
329,192,75265,1,0,0:0:0:0:
475,192,75265,1,0,0:0:0:0:
402,192,75265,1,0,0:0:0:0:
36,192,75265,1,0,0:0:0:0:
402,192,75640,1,0,0:0:0:0:
475,192,75640,1,0,0:0:0:0:
109,192,75640,1,0,0:0:0:0:
36,192,75640,1,0,0:0:0:0:
36,192,75921,1,0,0:0:0:0:
402,192,75921,1,0,0:0:0:0:
182,192,76015,1,0,0:0:0:0:
475,192,76015,1,0,0:0:0:0:
109,192,76015,1,0,0:0:0:0:
256,192,76015,1,0,0:0:0:0:
256,192,76390,1,0,0:0:0:0:
329,192,76390,1,0,0:0:0:0:
36,192,76390,1,0,0:0:0:0:
109,192,76390,1,0,0:0:0:0:
402,192,76765,1,0,0:0:0:0:
329,192,76765,1,0,0:0:0:0:
182,192,76765,1,0,0:0:0:0:
109,192,76765,1,0,0:0:0:0:
256,192,77140,1,0,0:0:0:0:
182,192,77140,1,0,0:0:0:0:
402,192,77140,1,0,0:0:0:0:
475,192,77140,1,0,0:0:0:0:
329,192,77421,1,0,0:0:0:0:
36,192,77421,1,0,0:0:0:0:
109,192,77515,1,0,0:0:0:0:
475,192,77515,1,0,0:0:0:0:
256,192,77515,1,0,0:0:0:0:
402,192,77515,1,0,0:0:0:0:
109,192,77890,1,0,0:0:0:0:
329,192,77890,1,0,0:0:0:0:
256,192,77890,1,0,0:0:0:0:
475,192,77890,1,0,0:0:0:0:
36,192,78265,1,0,0:0:0:0:
475,192,78265,1,0,0:0:0:0:
402,192,78265,1,0,0:0:0:0:
109,192,78265,1,0,0:0:0:0:
182,192,78358,1,0,0:0:0:0:
256,192,78452,1,0,0:0:0:0:
329,192,78546,1,0,0:0:0:0:
402,192,78640,1,0,0:0:0:0:
475,192,78640,1,0,0:0:0:0:
36,192,78640,1,0,0:0:0:0:
109,192,78640,1,0,0:0:0:0:
329,192,78733,1,0,0:0:0:0:
256,192,78827,1,0,0:0:0:0:
36,192,78827,1,0,0:0:0:0:
475,192,78827,1,0,0:0:0:0:
182,192,78921,1,0,0:0:0:0:
475,192,79015,1,0,0:0:0:0:
109,192,79015,1,0,0:0:0:0:
36,192,79015,1,0,0:0:0:0:
402,192,79015,128,0,79108:0:0:0:0:
182,192,79108,128,0,79202:0:0:0:0:
329,192,79202,128,0,79296:0:0:0:0:
36,192,79202,1,0,0:0:0:0:
109,192,79296,128,0,79390:0:0:0:0:
256,192,79390,128,0,79483:0:0:0:0:
475,192,79390,1,0,0:0:0:0:
402,192,79390,1,0,0:0:0:0:
36,192,79483,128,0,79577:0:0:0:0:
329,192,79577,128,0,79671:0:0:0:0:
182,192,79577,1,0,0:0:0:0:
109,192,79671,128,0,79765:0:0:0:0:
402,192,79765,128,0,79858:0:0:0:0:
256,192,79765,1,0,0:0:0:0:
36,192,79765,1,0,0:0:0:0:
182,192,79858,128,0,79952:0:0:0:0:
475,192,79952,128,0,80046:0:0:0:0:
329,192,79952,1,0,0:0:0:0:
256,192,80046,128,0,80140:0:0:0:0:
36,192,80140,128,0,80233:0:0:0:0:
475,192,80140,1,0,0:0:0:0:
182,192,80140,1,0,0:0:0:0:
329,192,80233,128,0,80327:0:0:0:0:
109,192,80327,128,0,80421:0:0:0:0:
256,192,80327,1,0,0:0:0:0:
402,192,80421,128,0,80515:0:0:0:0:
182,192,80515,128,0,80608:0:0:0:0:
36,192,80515,1,0,0:0:0:0:
329,192,80515,1,0,0:0:0:0:
475,192,80608,128,0,80702:0:0:0:0:
256,192,80702,128,0,80796:0:0:0:0:
402,192,80702,1,0,0:0:0:0:
36,192,80796,128,0,80890:0:0:0:0:
402,192,80890,128,0,80983:0:0:0:0:
475,192,80890,1,0,0:0:0:0:
109,192,80890,1,0,0:0:0:0:
182,192,80983,128,0,81077:0:0:0:0:
475,192,81077,128,0,81171:0:0:0:0:
329,192,81077,1,0,0:0:0:0:
109,192,81171,128,0,81265:0:0:0:0:
402,192,81265,128,0,81358:0:0:0:0:
256,192,81265,1,0,0:0:0:0:
36,192,81265,1,0,0:0:0:0:
182,192,81358,128,0,81452:0:0:0:0:
329,192,81452,128,0,81546:0:0:0:0:
475,192,81452,1,0,0:0:0:0:
36,192,81546,128,0,81640:0:0:0:0:
402,192,81640,128,0,81733:0:0:0:0:
256,192,81640,1,0,0:0:0:0:
109,192,81640,1,0,0:0:0:0:
182,192,81733,128,0,81827:0:0:0:0:
475,192,81827,128,0,81921:0:0:0:0:
329,192,81827,1,0,0:0:0:0:
109,192,81921,128,0,82015:0:0:0:0:
402,192,82015,128,0,82108:0:0:0:0:
256,192,82015,1,0,0:0:0:0:
36,192,82015,1,0,0:0:0:0:
182,192,82108,128,0,82202:0:0:0:0:
475,192,82202,128,0,82296:0:0:0:0:
329,192,82202,1,0,0:0:0:0:
256,192,82296,128,0,82390:0:0:0:0:
402,192,82390,128,0,82483:0:0:0:0:
36,192,82390,1,0,0:0:0:0:
109,192,82390,1,0,0:0:0:0:
182,192,82483,128,0,82577:0:0:0:0:
329,192,82577,128,0,82671:0:0:0:0:
475,192,82577,1,0,0:0:0:0:
109,192,82671,128,0,82765:0:0:0:0:
402,192,82765,128,0,82858:0:0:0:0:
256,192,82765,1,0,0:0:0:0:
36,192,82765,1,0,0:0:0:0:
182,192,82858,128,0,82952:0:0:0:0:
475,192,82952,128,0,83046:0:0:0:0:
329,192,82952,1,0,0:0:0:0:
256,192,83046,128,0,83140:0:0:0:0:
402,192,83140,128,0,83233:0:0:0:0:
36,192,83140,1,0,0:0:0:0:
109,192,83140,1,0,0:0:0:0:
182,192,83233,128,0,83327:0:0:0:0:
329,192,83327,128,0,83421:0:0:0:0:
475,192,83327,1,0,0:0:0:0:
109,192,83421,128,0,83515:0:0:0:0:
475,192,83515,1,0,0:0:0:0:
256,192,83515,128,0,83608:0:0:0:0:
182,192,83608,128,0,83702:0:0:0:0:
402,192,83608,1,0,0:0:0:0:
109,192,83702,128,0,83796:0:0:0:0:
329,192,83702,1,0,0:0:0:0:
36,192,83796,128,0,83890:0:0:0:0:
256,192,83796,1,0,0:0:0:0:
475,192,83890,128,0,83983:0:0:0:0:
182,192,83890,1,0,0:0:0:0:
402,192,83983,128,0,84077:0:0:0:0:
109,192,83983,1,0,0:0:0:0:
329,192,84077,128,0,84171:0:0:0:0:
36,192,84077,1,0,0:0:0:0:
256,192,84171,128,0,84265:0:0:0:0:
475,192,84171,1,0,0:0:0:0:
36,192,84265,128,0,84640:0:0:0:0:
402,192,84265,1,0,0:0:0:0:
182,192,84265,1,0,0:0:0:0:
109,192,84358,1,0,0:0:0:0:
329,192,84358,1,0,0:0:0:0:
256,192,84452,1,0,0:0:0:0:
182,192,84452,1,0,0:0:0:0:
329,192,84546,1,0,0:0:0:0:
402,192,84546,1,0,0:0:0:0:
475,192,84640,128,0,85015:0:0:0:0:
182,192,84640,1,0,0:0:0:0:
109,192,84640,1,0,0:0:0:0:
256,192,84733,1,0,0:0:0:0:
329,192,84733,1,0,0:0:0:0:
109,192,84827,1,0,0:0:0:0:
36,192,84827,1,0,0:0:0:0:
182,192,84921,1,0,0:0:0:0:
256,192,84921,1,0,0:0:0:0:
36,192,85015,128,0,86233:0:0:0:0:
402,192,85015,128,0,85202:0:0:0:0:
109,192,85202,128,0,86140:0:0:0:0:
329,192,85202,128,0,85390:0:0:0:0:
182,192,85390,128,0,86046:0:0:0:0:
475,192,85390,128,0,85577:0:0:0:0:
256,192,85577,128,0,85952:0:0:0:0:
402,192,85577,128,0,85765:0:0:0:0:
475,192,85765,128,0,85858:0:0:0:0:
402,192,85858,128,0,85952:0:0:0:0:
329,192,85952,128,0,86046:0:0:0:0:
256,192,86046,128,0,86140:0:0:0:0:
182,192,86140,128,0,86233:0:0:0:0:
109,192,86233,128,0,86327:0:0:0:0:
36,192,86327,128,0,86421:0:0:0:0:
109,192,86421,128,0,86515:0:0:0:0:
475,192,86515,128,0,87827:0:0:0:0:
329,192,86515,128,0,86702:0:0:0:0:
402,192,86702,128,0,87733:0:0:0:0:
256,192,86702,128,0,86890:0:0:0:0:
329,192,86890,128,0,87640:0:0:0:0:
182,192,86890,128,0,87077:0:0:0:0:
256,192,87077,128,0,87546:0:0:0:0:
109,192,87077,128,0,87265:0:0:0:0:
182,192,87265,128,0,87358:0:0:0:0:
109,192,87358,128,0,87452:0:0:0:0:
36,192,87452,128,0,87546:0:0:0:0:
182,192,87546,128,0,87640:0:0:0:0:
256,192,87640,128,0,87733:0:0:0:0:
329,192,87733,128,0,87827:0:0:0:0:
402,192,87827,128,0,87921:0:0:0:0:
475,192,87921,128,0,88015:0:0:0:0:
109,192,88015,128,0,88765:0:0:0:0:
36,192,88015,128,0,88671:0:0:0:0:
182,192,88015,128,0,88202:0:0:0:0:
475,192,88202,128,0,89233:0:0:0:0:
402,192,88202,128,0,89140:0:0:0:0:
329,192,88202,128,0,88390:0:0:0:0:
182,192,88390,128,0,88858:0:0:0:0:
329,192,88577,128,0,89046:0:0:0:0:
36,192,88765,128,0,88858:0:0:0:0:
109,192,88858,128,0,88952:0:0:0:0:
182,192,88952,128,0,89046:0:0:0:0:
256,192,89046,128,0,89140:0:0:0:0:
329,192,89140,128,0,89233:0:0:0:0:
402,192,89233,128,0,89327:0:0:0:0:
475,192,89327,128,0,89421:0:0:0:0:
256,192,89421,128,0,89515:0:0:0:0:
36,192,89515,128,0,89702:0:0:0:0:
182,192,89608,128,0,89796:0:0:0:0:
329,192,89702,128,0,89890:0:0:0:0:
475,192,89796,128,0,89983:0:0:0:0:
36,192,89890,128,0,90265:0:0:0:0:
182,192,89983,128,0,90265:0:0:0:0:
329,192,90077,128,0,90265:0:0:0:0:
475,192,90171,128,0,90265:0:0:0:0:
109,192,90265,128,0,90452:0:0:0:0:
256,192,90358,128,0,90452:0:0:0:0:
402,192,90452,128,0,90640:0:0:0:0:
256,192,90546,128,0,90733:0:0:0:0:
109,192,90640,128,0,90827:0:0:0:0:
402,192,90733,128,0,91015:0:0:0:0:
256,192,90827,128,0,91015:0:0:0:0:
109,192,90921,128,0,91015:0:0:0:0:
475,192,91015,128,0,91202:0:0:0:0:
182,192,91108,128,0,91296:0:0:0:0:
402,192,91202,128,0,91390:0:0:0:0:
109,192,91296,128,0,91483:0:0:0:0:
329,192,91390,128,0,91577:0:0:0:0:
36,192,91483,128,0,91858:0:0:0:0:
256,192,91577,128,0,91765:0:0:0:0:
182,192,91671,128,0,92046:0:0:0:0:
475,192,91765,128,0,91952:0:0:0:0:
329,192,91858,128,0,92233:0:0:0:0:
36,192,91952,128,0,92327:0:0:0:0:
402,192,92046,128,0,92421:0:0:0:0:
182,192,92140,128,0,92515:0:0:0:0:
475,192,92233,128,0,92608:0:0:0:0:
256,192,92327,128,0,92702:0:0:0:0:
36,192,92421,128,0,92796:0:0:0:0:
329,192,92515,128,0,92890:0:0:0:0:
109,192,92608,128,0,92983:0:0:0:0:
402,192,92702,128,0,93077:0:0:0:0:
182,192,92796,128,0,93171:0:0:0:0:
36,192,92890,128,0,93546:0:0:0:0:
256,192,92983,128,0,93358:0:0:0:0:
109,192,93077,128,0,93358:0:0:0:0:
329,192,93171,128,0,93546:0:0:0:0:
182,192,93265,128,0,93640:0:0:0:0:
402,192,93358,128,0,93733:0:0:0:0:
109,192,93452,128,0,93827:0:0:0:0:
475,192,93546,128,0,93827:0:0:0:0:
36,192,93640,128,0,94015:0:0:0:0:
329,192,93733,128,0,94015:0:0:0:0:
256,192,93827,128,0,94108:0:0:0:0:
182,192,93921,128,0,94202:0:0:0:0:
475,192,94015,128,0,95140:0:0:0:0:
402,192,94108,128,0,94296:0:0:0:0:
329,192,94202,128,0,94390:0:0:0:0:
256,192,94296,128,0,94483:0:0:0:0:
402,192,94390,128,0,95046:0:0:0:0:
182,192,94390,128,0,94577:0:0:0:0:
329,192,94483,128,0,94952:0:0:0:0:
109,192,94483,128,0,94671:0:0:0:0:
256,192,94577,128,0,94858:0:0:0:0:
182,192,94671,128,0,94765:0:0:0:0:
36,192,94765,128,0,95890:0:0:0:0:
109,192,94858,128,0,95046:0:0:0:0:
182,192,94952,128,0,95140:0:0:0:0:
256,192,95046,128,0,95233:0:0:0:0:
109,192,95140,128,0,95796:0:0:0:0:
329,192,95140,128,0,95327:0:0:0:0:
182,192,95233,128,0,95702:0:0:0:0:
402,192,95233,128,0,95421:0:0:0:0:
256,192,95327,128,0,95608:0:0:0:0:
329,192,95421,128,0,95515:0:0:0:0:
475,192,95515,128,0,96171:0:0:0:0:
402,192,95608,128,0,96265:0:0:0:0:
329,192,95702,128,0,96358:0:0:0:0:
256,192,95796,128,0,96077:0:0:0:0:
182,192,95890,128,0,96733:0:0:0:0:
109,192,95983,128,0,96640:0:0:0:0:
36,192,96077,128,0,96546:0:0:0:0:
256,192,96171,128,0,96827:0:0:0:0:
475,192,96265,1,0,0:0:0:0:
402,192,96358,1,0,0:0:0:0:
329,192,96452,1,0,0:0:0:0:
402,192,96546,1,0,0:0:0:0:
475,192,96640,1,0,0:0:0:0:
36,192,96640,1,0,0:0:0:0:
109,192,96733,1,0,0:0:0:0:
402,192,96733,1,0,0:0:0:0:
182,192,96827,1,0,0:0:0:0:
329,192,96827,1,0,0:0:0:0:
109,192,96921,1,0,0:0:0:0:
402,192,96921,1,0,0:0:0:0:
36,192,97015,128,0,97765:0:0:0:0:
256,192,97015,1,0,0:0:0:0:
475,192,97015,1,0,0:0:0:0:
329,192,97108,1,0,0:0:0:0:
109,192,97202,1,0,0:0:0:0:
402,192,97202,1,0,0:0:0:0:
256,192,97202,1,0,0:0:0:0:
475,192,97296,1,0,0:0:0:0:
182,192,97390,1,0,0:0:0:0:
329,192,97390,1,0,0:0:0:0:
475,192,97483,1,0,0:0:0:0:
256,192,97577,1,0,0:0:0:0:
402,192,97577,1,0,0:0:0:0:
109,192,97577,1,0,0:0:0:0:
182,192,97671,1,0,0:0:0:0:
329,192,97765,1,0,0:0:0:0:
475,192,97765,1,0,0:0:0:0:
109,192,97858,1,0,0:0:0:0:
256,192,97952,1,0,0:0:0:0:
402,192,97952,1,0,0:0:0:0:
475,192,97952,1,0,0:0:0:0:
36,192,98046,1,0,0:0:0:0:
182,192,98140,1,0,0:0:0:0:
329,192,98140,1,0,0:0:0:0:
36,192,98233,1,0,0:0:0:0:
256,192,98327,1,0,0:0:0:0:
402,192,98327,1,0,0:0:0:0:
475,192,98327,1,0,0:0:0:0:
109,192,98421,1,0,0:0:0:0:
475,192,98515,128,0,99265:0:0:0:0:
329,192,98515,1,0,0:0:0:0:
182,192,98608,1,0,0:0:0:0:
402,192,98702,1,0,0:0:0:0:
36,192,98702,1,0,0:0:0:0:
256,192,98702,1,0,0:0:0:0:
109,192,98796,1,0,0:0:0:0:
329,192,98890,1,0,0:0:0:0:
36,192,98890,1,0,0:0:0:0:
182,192,98983,1,0,0:0:0:0:
402,192,99077,1,0,0:0:0:0:
256,192,99077,1,0,0:0:0:0:
36,192,99077,1,0,0:0:0:0:
109,192,99171,1,0,0:0:0:0:
36,192,99265,1,0,0:0:0:0:
329,192,99265,1,0,0:0:0:0:
256,192,99358,1,0,0:0:0:0:
402,192,99452,1,0,0:0:0:0:
109,192,99452,1,0,0:0:0:0:
182,192,99452,1,0,0:0:0:0:
329,192,99546,1,0,0:0:0:0:
475,192,99640,1,0,0:0:0:0:
36,192,99640,1,0,0:0:0:0:
402,192,99733,1,0,0:0:0:0:
475,192,99827,1,0,0:0:0:0:
256,192,99827,1,0,0:0:0:0:
182,192,99827,1,0,0:0:0:0:
329,192,99921,1,0,0:0:0:0:
36,192,100015,128,0,100765:0:0:0:0:
402,192,100015,1,0,0:0:0:0:
475,192,100015,1,0,0:0:0:0:
182,192,100108,1,0,0:0:0:0:
475,192,100202,1,0,0:0:0:0:
329,192,100202,1,0,0:0:0:0:
109,192,100202,1,0,0:0:0:0:
256,192,100296,1,0,0:0:0:0:
402,192,100390,1,0,0:0:0:0:
109,192,100390,1,0,0:0:0:0:
182,192,100483,1,0,0:0:0:0:
475,192,100577,1,0,0:0:0:0:
329,192,100577,1,0,0:0:0:0:
109,192,100577,1,0,0:0:0:0:
256,192,100671,1,0,0:0:0:0:
402,192,100765,1,0,0:0:0:0:
109,192,100765,1,0,0:0:0:0:
329,192,100858,1,0,0:0:0:0:
36,192,100952,1,0,0:0:0:0:
182,192,100952,1,0,0:0:0:0:
475,192,100952,1,0,0:0:0:0:
402,192,101046,1,0,0:0:0:0:
109,192,101140,1,0,0:0:0:0:
329,192,101140,1,0,0:0:0:0:
475,192,101233,1,0,0:0:0:0:
182,192,101327,1,0,0:0:0:0:
402,192,101327,1,0,0:0:0:0:
36,192,101327,1,0,0:0:0:0:
329,192,101421,1,0,0:0:0:0:
475,192,101515,128,0,102265:0:0:0:0:
109,192,101515,1,0,0:0:0:0:
256,192,101515,1,0,0:0:0:0:
402,192,101608,1,0,0:0:0:0:
182,192,101702,1,0,0:0:0:0:
329,192,101702,1,0,0:0:0:0:
36,192,101702,1,0,0:0:0:0:
109,192,101796,1,0,0:0:0:0:
256,192,101890,1,0,0:0:0:0:
402,192,101890,1,0,0:0:0:0:
109,192,101983,1,0,0:0:0:0:
329,192,102077,1,0,0:0:0:0:
182,192,102077,1,0,0:0:0:0:
36,192,102077,1,0,0:0:0:0:
402,192,102171,1,0,0:0:0:0:
256,192,102265,1,0,0:0:0:0:
109,192,102265,1,0,0:0:0:0:
329,192,102358,1,0,0:0:0:0:
182,192,102452,1,0,0:0:0:0:
36,192,102452,1,0,0:0:0:0:
402,192,102452,1,0,0:0:0:0:
256,192,102546,1,0,0:0:0:0:
329,192,102640,1,0,0:0:0:0:
475,192,102640,1,0,0:0:0:0:
256,192,102733,1,0,0:0:0:0:
182,192,102827,1,0,0:0:0:0:
36,192,102827,1,0,0:0:0:0:
402,192,102827,1,0,0:0:0:0:
256,192,102921,1,0,0:0:0:0:
329,192,103015,1,0,0:0:0:0:
109,192,103015,1,0,0:0:0:0:
36,192,103015,1,0,0:0:0:0:
475,192,103015,1,0,0:0:0:0:
182,192,103108,1,0,0:0:0:0:
402,192,103202,1,0,0:0:0:0:
256,192,103202,1,0,0:0:0:0:
36,192,103296,1,0,0:0:0:0:
329,192,103390,1,0,0:0:0:0:
475,192,103390,1,0,0:0:0:0:
182,192,103390,1,0,0:0:0:0:
109,192,103483,1,0,0:0:0:0:
402,192,103577,1,0,0:0:0:0:
256,192,103577,1,0,0:0:0:0:
329,192,103671,1,0,0:0:0:0:
36,192,103765,1,0,0:0:0:0:
182,192,103765,1,0,0:0:0:0:
475,192,103765,1,0,0:0:0:0:
402,192,103858,1,0,0:0:0:0:
109,192,103952,1,0,0:0:0:0:
256,192,103952,1,0,0:0:0:0:
329,192,104046,1,0,0:0:0:0:
36,192,104140,1,0,0:0:0:0:
182,192,104140,1,0,0:0:0:0:
475,192,104140,1,0,0:0:0:0:
402,192,104233,1,0,0:0:0:0:
109,192,104327,1,0,0:0:0:0:
329,192,104327,1,0,0:0:0:0:
402,192,104421,1,0,0:0:0:0:
475,192,104515,1,0,0:0:0:0:
36,192,104515,1,0,0:0:0:0:
256,192,104515,1,0,0:0:0:0:
109,192,104608,1,0,0:0:0:0:
182,192,104702,1,0,0:0:0:0:
402,192,104702,1,0,0:0:0:0:
256,192,104796,1,0,0:0:0:0:
329,192,104890,1,0,0:0:0:0:
109,192,104890,1,0,0:0:0:0:
475,192,104890,1,0,0:0:0:0:
256,192,104983,1,0,0:0:0:0:
182,192,105077,1,0,0:0:0:0:
402,192,105077,1,0,0:0:0:0:
109,192,105171,1,0,0:0:0:0:
475,192,105265,1,0,0:0:0:0:
182,192,105265,1,0,0:0:0:0:
36,192,105265,1,0,0:0:0:0:
402,192,105358,1,0,0:0:0:0:
182,192,105452,1,0,0:0:0:0:
475,192,105452,1,0,0:0:0:0:
329,192,105546,1,0,0:0:0:0:
182,192,105640,1,0,0:0:0:0:
475,192,105640,1,0,0:0:0:0:
36,192,105640,1,0,0:0:0:0:
256,192,105733,1,0,0:0:0:0:
329,192,105827,1,0,0:0:0:0:
109,192,105827,1,0,0:0:0:0:
402,192,105921,1,0,0:0:0:0:
475,192,106015,1,0,0:0:0:0:
182,192,106015,1,0,0:0:0:0:
36,192,106015,1,0,0:0:0:0:
256,192,106108,1,0,0:0:0:0:
475,192,106202,1,0,0:0:0:0:
329,192,106202,1,0,0:0:0:0:
256,192,106296,1,0,0:0:0:0:
182,192,106390,1,0,0:0:0:0:
36,192,106390,1,0,0:0:0:0:
475,192,106390,1,0,0:0:0:0:
402,192,106483,1,0,0:0:0:0:
182,192,106577,1,0,0:0:0:0:
329,192,106577,1,0,0:0:0:0:
402,192,106671,1,0,0:0:0:0:
329,192,106765,1,0,0:0:0:0:
36,192,106765,1,0,0:0:0:0:
475,192,106765,1,0,0:0:0:0:
109,192,106858,1,0,0:0:0:0:
329,192,106952,1,0,0:0:0:0:
182,192,106952,1,0,0:0:0:0:
109,192,107046,1,0,0:0:0:0:
36,192,107140,1,0,0:0:0:0:
402,192,107140,1,0,0:0:0:0:
475,192,107140,1,0,0:0:0:0:
256,192,107233,1,0,0:0:0:0:
36,192,107327,1,0,0:0:0:0:
329,192,107327,1,0,0:0:0:0:
256,192,107421,1,0,0:0:0:0:
182,192,107515,1,0,0:0:0:0:
109,192,107515,1,0,0:0:0:0:
475,192,107608,1,0,0:0:0:0:
402,192,107608,1,0,0:0:0:0:
256,192,107702,1,0,0:0:0:0:
182,192,107702,1,0,0:0:0:0:
475,192,107796,1,0,0:0:0:0:
36,192,107796,1,0,0:0:0:0:
256,192,107890,1,0,0:0:0:0:
329,192,107890,1,0,0:0:0:0:
36,192,107983,1,0,0:0:0:0:
109,192,107983,1,0,0:0:0:0:
402,192,108077,1,0,0:0:0:0:
329,192,108077,1,0,0:0:0:0:
109,192,108171,1,0,0:0:0:0:
182,192,108171,1,0,0:0:0:0:
402,192,108265,1,0,0:0:0:0:
475,192,108265,1,0,0:0:0:0:
256,192,108358,1,0,0:0:0:0:
182,192,108358,1,0,0:0:0:0:
36,192,108452,1,0,0:0:0:0:
475,192,108452,1,0,0:0:0:0:
256,192,108546,1,0,0:0:0:0:
329,192,108546,1,0,0:0:0:0:
36,192,108640,1,0,0:0:0:0:
109,192,108640,1,0,0:0:0:0:
329,192,108733,1,0,0:0:0:0:
402,192,108733,1,0,0:0:0:0:
182,192,108827,1,0,0:0:0:0:
109,192,108827,1,0,0:0:0:0:
402,192,108921,1,0,0:0:0:0:
475,192,108921,1,0,0:0:0:0:
256,192,109015,1,0,0:0:0:0:
182,192,109015,1,0,0:0:0:0:
36,192,109015,1,0,0:0:0:0:
