osu file format v14

[General]
AudioFilename: audio.mp3
AudioLeadIn: 0
PreviewTime: 65359
Countdown: 0
SampleSet: None
StackLeniency: 0.3
Mode: 0
LetterboxInBreaks: 0
WidescreenStoryboard: 0

[Editor]
Bookmarks: 1502,1931,6645,7288,7931,8359,20359,20895,23359,24217,27645,37502,37931,44788,51645,65359,79074,85931,91074,92788,104788,130074
DistanceSpacing: 0.2
BeatDivisor: 4
GridSize: 4
TimelineZoom: 1.6

[Metadata]
Title:Temptation
TitleUnicode:Temptation
Artist:M2U
ArtistUnicode:M2U
Creator:Nokris
Version:Dance
Source:
Tags:
BeatmapID:1464873
BeatmapSetID:692276

[Difficulty]
HPDrainRate:5
CircleSize:4
OverallDifficulty:8
ApproachRate:8.7
SliderMultiplier:2
SliderTickRate:2

[Events]
//Background and Video events
0,0,"maskquerade.jpg",0,0
//Break Periods
//Storyboard Layer 0 (Background)
//Storyboard Layer 1 (Fail)
//Storyboard Layer 2 (Pass)
//Storyboard Layer 3 (Foreground)
//Storyboard Sound Samples

[TimingPoints]
217,428.571428571429,4,2,1,45,1,0
1502,-200,4,2,1,45,0,0
1931,-133.333333333333,4,2,1,45,0,0
2359,-133.333333333333,4,2,2,45,0,0
2467,-133.333333333333,4,2,1,45,0,0
4074,-133.333333333333,4,2,2,45,0,0
4181,-133.333333333333,4,2,1,45,0,0
7931,-133.333333333333,4,2,2,45,0,0
8359,-285.714285714286,4,2,1,45,0,0
8788,-133.333333333333,4,2,3,45,0,0
14788,-79.9999999999999,4,2,3,45,0,0
15645,-133.333333333333,4,2,3,45,0,0
20359,-200,4,2,3,45,0,0
21002,-100,4,2,3,45,0,0
23359,-80,4,2,1,45,0,0
23574,-80,4,2,2,45,0,0
24217,-153.846153846154,4,2,1,60,0,0
24645,-153.846153846154,4,2,2,60,0,0
24752,-153.846153846154,4,2,1,60,0,0
25074,-80,4,2,1,60,0,0
25931,-153.846153846154,4,2,1,60,0,0
26359,-153.846153846154,4,2,2,60,0,0
26467,-153.846153846154,4,2,1,60,0,0
28074,-153.846153846154,4,2,2,60,0,0
28181,-153.846153846154,4,2,1,60,0,0
28502,-80,4,2,1,60,0,0
29359,-153.846153846153,4,2,1,60,0,0
30217,-80,4,2,1,60,0,0
30645,-66.6666666666667,4,2,1,60,0,0
31074,-153.846153846153,4,2,1,60,0,0
31502,-153.846153846153,4,2,2,60,0,0
31609,-153.846153846153,4,2,1,60,0,0
31931,-80,4,2,1,60,0,0
32788,-153.846153846153,4,2,1,60,0,0
34931,-153.846153846153,4,2,2,60,0,0
35038,-153.846153846153,4,2,1,60,0,0
35359,-80,4,2,1,60,0,0
36217,-153.846153846153,4,2,1,60,0,0
37074,-153.846153846153,4,2,1,60,0,0
37288,-153.846153846153,4,2,2,60,0,0
37931,-74.0740740740741,4,3,1,75,0,1
50574,-153.846153846153,4,2,1,45,0,0
51645,-133.333333333333,4,2,1,60,0,0
55502,-133.333333333333,4,2,2,60,0,0
55609,-133.333333333333,4,2,1,60,0,0
62359,-133.333333333333,4,2,2,60,0,0
62467,-133.333333333333,4,2,1,60,0,0
65359,-153.846153846154,4,2,1,60,0,0
65788,-153.846153846154,4,2,2,60,0,0
65895,-153.846153846154,4,2,1,60,0,0
66216,-80,4,2,1,60,0,0
67073,-153.846153846154,4,2,1,60,0,0
67502,-153.846153846154,4,2,2,60,0,0
67609,-153.846153846154,4,2,1,60,0,0
69217,-153.846153846154,4,2,2,60,0,0
69324,-153.846153846154,4,2,1,60,0,0
69644,-80,4,2,1,60,0,0
70501,-153.846153846153,4,2,1,60,0,0
71359,-80,4,2,1,60,0,0
71787,-66.6666666666667,4,2,1,60,0,0
72216,-153.846153846153,4,2,1,60,0,0
72645,-153.846153846153,4,2,2,60,0,0
72752,-153.846153846153,4,2,1,60,0,0
73073,-80,4,2,1,60,0,0
73930,-153.846153846153,4,2,1,60,0,0
76074,-153.846153846153,4,2,2,60,0,0
76181,-153.846153846153,4,2,1,60,0,0
76501,-80,4,2,1,60,0,0
77359,-153.846153846153,4,2,1,60,0,0
78217,-153.846153846153,4,2,1,60,0,0
78431,-153.846153846153,4,2,2,60,0,0
79074,-74.0740740740741,4,3,1,75,0,1
91074,-74.0740740740741,4,2,1,45,0,0
92788,-74.0740740740741,4,3,1,75,0,1
105431,-153.846153846153,4,2,1,45,0,0
106502,-153.846153846153,4,2,3,45,0,0
126217,-153.846153846153,4,2,2,40,0,0
126431,-153.846153846153,4,2,2,45,0,0
126645,-153.846153846153,4,2,2,50,0,0
126859,-153.846153846153,4,2,2,55,0,0
127074,-133.333333333333,4,2,1,60,0,0
127502,-133.333333333333,4,2,2,60,0,0
127609,-133.333333333333,4,2,1,60,0,0
127931,-80,4,2,1,60,0,0
129002,-66.6666666666667,4,2,1,60,0,0
129324,-66.6666666666667,4,2,1,5,0,0
129431,-66.6666666666667,4,2,1,60,0,0
129967,-66.6666666666667,4,2,1,5,0,0
130074,-66.6666666666667,4,2,2,60,0,0

[Colours]
Combo1 : 0,128,0
Combo2 : 255,147,255
Combo3 : 128,255,255
Combo4 : 168,168,213
Combo5 : 179,0,0

[HitObjects]
92,44,1502,6,0,L|24:32,1,50
132,112,1824,1,0,0:0:0:0:
152,100,1931,5,6,0:0:0:0:
324,108,2145,2,0,L|148:84,1,150.000005722046,2|0,0:0|0:0,0:0:0:0:
408,44,2788,1,0,0:0:0:0:
324,108,3002,1,2,0:0:0:0:
384,196,3217,1,10,0:0:0:0:
506,139,3431,6,0,L|463:133,1,37.5000014305115
357,212,3645,1,2,0:0:0:0:
512,282,3859,2,0,P|440:273|374:335,1,150.000005722046,2|0,0:0|0:0,0:0:0:0:
292,374,4502,2,0,L|277:273,1,75.0000028610231,0|2,0:0|0:0,0:0:0:0:
211,218,4824,1,0,0:0:0:0:
189,245,4931,2,0,P|153:259|102:250,1,75.0000028610231,10|0,0:0|0:0,0:0:0:0:
26,106,5252,37,0,0:0:0:0:
62,111,5359,2,0,L|158:123,1,75.0000028610231,2|2,0:0|0:0,0:0:0:0:
343,144,5788,1,8,0:0:0:0:
122,212,6002,1,2,0:0:0:0:
270,47,6217,1,2,0:0:0:0:
232,233,6431,2,0,L|220:295,1,37.5000014305115
136,304,6645,6,0,B|182:284|224:318|224:318|269:357|316:331,1,187.500007152558
386,281,7288,6,0,P|360:259|332:249,1,37.5000014305115
274,158,7502,2,0,P|306:146|328:127,1,37.5000014305115
434,120,7717,2,0,P|427:153|433:182,1,37.5000014305115
512,250,7931,5,2,0:0:0:0:
512,250,8359,22,0,L|502:306,1,52.4999983978272
452,362,8788,6,0,P|390:328|300:313,1,150.000005722046,8|0,0:0|0:0,0:0:0:0:
116,338,9431,2,0,L|181:345,1,37.5000014305115,2|0,0:0|0:0,0:0:0:0:
256,355,9645,2,0,P|314:308|355:246,1,150.000005722046,2|0,0:0|0:0,0:0:0:0:
493,98,10288,5,0,0:0:0:0:
493,98,10395,1,0,0:0:0:0:
493,98,10502,2,0,L|321:108,1,150.000005722046,8|0,0:0|0:0,0:0:0:0:
144,188,11145,2,0,L|203:184,1,37.5000014305115,2|0,0:0|0:0,0:0:0:0:
270,148,11359,38,0,B|298:119|298:119|288:20,1,112.500004291535,2|0,0:0|0:0,0:0:0:0:
206,1,11788,2,0,L|217:97,1,75.0000028610231,2|0,0:0|0:0,0:0:0:0:
246,307,12217,6,0,B|326:286|314:341|402:316,1,150.000005722046,8|0,0:0|0:0,0:0:0:0:
471,361,12752,1,0,0:0:0:0:
471,361,12859,1,2,0:0:0:0:
471,361,12967,1,0,0:0:0:0:
471,361,13074,2,0,L|487:216,1,112.500004291535,2|0,0:0|0:0,0:0:0:0:
486,230,13502,1,0,0:0:0:0:
274,85,13717,1,0,0:0:0:0:
485,22,13931,6,0,L|480:79,1,37.5000014305115,8|0,0:0|0:0,0:0:0:0:
420,180,14145,1,0,0:0:0:0:
388,160,14252,1,0,0:0:0:0:
351,157,14359,1,0,0:0:0:0:
316,171,14466,1,0,0:0:0:0:
281,185,14574,1,2,0:0:0:0:
244,182,14681,1,0,0:0:0:0:
212,162,14788,38,0,L|220:251,1,62.5,10|0,0:0|0:0,0:0:0:0:
318,365,15002,1,0,0:0:0:0:
325,334,15109,1,0,0:0:0:0:
315,305,15217,2,0,B|245:287|270:337|183:318,1,125,10|0,0:0|0:0,0:0:0:0:
89,274,15538,1,0,0:0:0:0:
104,284,15645,6,0,L|112:376,1,75.0000028610231,8|0,0:0|0:0,0:0:0:0:
1,121,16074,2,0,P|37:137|103:131,1,75.0000028610231,0|2,0:0|0:0,0:0:0:0:
149,173,16395,1,0,0:0:0:0:
133,198,16502,2,0,P|177:178|272:189,1,112.500004291535,2|0,0:0|0:0,0:0:0:0:
262,183,16931,1,0,0:0:0:0:
440,296,17145,2,0,L|451:250,1,37.5000014305115
508,154,17359,6,0,P|470:156|436:172,1,75.0000028610231,8|0,0:0|0:0,0:0:0:0:
303,84,17788,2,0,P|323:114|354:136,1,75.0000028610231,0|2,0:0|0:0,0:0:0:0:
338,299,18109,1,0,0:0:0:0:
338,299,18217,2,0,P|354:265|357:228,1,75.0000028610231,2|0,0:0|0:0,0:0:0:0:
228,31,18645,2,0,B|186:34|186:34|161:49|161:49|103:55,1,112.500004291535,2|0,0:0|0:0,0:0:0:0:
1,126,19074,38,0,P|56:119|142:185,1,150.000005722046,8|0,0:0|0:0,0:0:0:0:
195,296,19717,1,2,0:0:0:0:
333,129,19931,1,2,0:0:0:0:
333,129,20359,6,0,L|195:119,1,125
132,167,21002,6,0,P|153:191|164:215,1,50
195,306,21217,2,0,P|171:312|146:311,1,50
51,289,21431,2,0,P|57:266|70:244,1,50
277,207,21645,37,0,0:0:0:0:
277,207,21752,1,0,0:0:0:0:
277,207,21859,2,0,L|338:221,1,50
512,313,22074,1,0,0:0:0:0:
512,313,22181,1,0,0:0:0:0:
512,313,22288,2,0,L|451:327,1,50
373,384,22502,5,0,0:0:0:0:
376,359,22609,1,0,0:0:0:0:
379,334,22716,1,0,0:0:0:0:
382,309,22823,1,0,0:0:0:0:
451,230,22931,5,0,0:0:0:0:
448,205,23038,1,0,0:0:0:0:
445,180,23145,1,0,0:0:0:0:
442,155,23252,1,0,0:0:0:0:
372,81,23359,37,8,0:1:0:0:
372,81,23467,1,0,0:0:0:0:
372,81,23574,2,0,P|407:70|461:39,1,62.5,8|8,0:1|0:1,0:0:0:0:
242,121,23788,2,0,P|277:132|331:163,1,62.5,8|8,0:1|0:1,0:0:0:0:
178,1,24002,1,8,0:1:0:0:
172,31,24109,1,8,0:1:0:0:
166,62,24216,5,6,0:0:0:0:
15,175,24431,2,0,L|151:160,1,129.999994049073,2|0,0:0|0:0,0:0:0:0:
268,278,24967,1,0,0:0:0:0:
241,300,25074,6,0,B|213:258|238:211|238:211|266:155|233:105,1,187.5,2|0,0:0|0:0,0:0:0:0:
228,104,25502,1,10,0:0:0:0:
239,379,25717,2,0,P|275:371|316:320,1,62.5
351,238,25931,37,2,0:0:0:0:
512,330,26145,2,0,L|375:316,1,129.999994049073,2|0,0:0|0:0,0:0:0:0:
103,285,26788,1,2,0:0:0:0:
180,377,27002,1,0,0:0:0:0:
190,354,27109,1,0,0:0:0:0:
200,332,27217,2,0,L|258:340,1,32.4999985122681,10|0,0:0|0:0,0:0:0:0:
288,258,27431,2,0,L|256:255,1,32.4999985122681
20,230,27645,5,2,0:0:0:0:
102,103,27859,2,0,P|159:130|226:135,1,129.999994049073,2|0,0:0|0:0,0:0:0:0:
367,130,28395,1,0,0:0:0:0:
338,117,28502,6,0,P|237:129|162:191,1,187.5,2|0,0:0|0:0,0:0:0:0:
155,207,28931,1,10,0:0:0:0:
360,303,29145,2,0,L|373:235,1,62.5
413,35,29359,37,2,0:0:0:0:
503,152,29574,1,2,0:0:0:0:
499,173,29645,1,0,0:0:0:0:
496,194,29716,1,0,0:0:0:0:
508,212,29788,6,0,P|477:197|428:191,1,64.9999970245363,8|0,0:0|0:0,0:0:0:0:
273,311,30217,22,0,P|330:286|371:240,1,125,2|0,0:0|0:0,0:0:0:0:
463,41,30645,6,0,L|443:225,1,150.000005722046,10|8,0:0|0:0,0:0:0:0:
431,356,31074,5,2,0:0:0:0:
278,212,31288,2,0,B|209:192|225:243|141:219,1,129.999994049073,2|0,0:0|0:0,0:0:0:0:
0,89,31931,6,0,P|44:105|129:176,1,125,2|0,0:0|0:0,0:0:0:0:
278,51,32252,1,0,0:0:0:0:
278,51,32359,2,0,P|220:73|158:80,1,125,10|0,0:0|0:0,0:0:0:0:
79,265,32788,6,0,L|87:344,1,64.9999970245363,2|2,0:0|0:0,0:0:0:0:
10,203,33217,1,8,0:0:0:0:
173,372,33431,1,0,0:0:0:0:
173,372,33538,1,0,0:0:0:0:
173,372,33645,2,0,P|197:363|222:344,1,32.4999985122681,2|0,0:0|0:0,0:0:0:0:
277,296,33859,1,0,0:0:0:0:
277,296,33967,1,0,0:0:0:0:
277,296,34074,2,0,L|354:302,1,64.9999970245363,10|0,0:0|0:0,0:0:0:0:
486,365,34502,37,2,0:0:0:0:
322,208,34717,2,0,L|367:67,1,129.999994049073,2|0,0:0|0:0,0:0:0:0:
484,37,35252,5,0,0:0:0:0:
459,64,35359,2,0,B|411:84|367:57|367:57|320:28|261:53,1,187.5,2|0,0:0|0:0,0:0:0:0:
214,5,35788,2,0,L|245:133,1,125,10|0,0:0|0:0,0:0:0:0:
287,345,36109,1,0,0:0:0:0:
308,330,36217,6,0,P|288:321|236:308,1,64.9999970245363,2|2,0:0|0:0,0:0:0:0:
59,249,36645,2,0,P|90:241|120:228,1,64.9999970245363,8|2,0:0|0:0,0:0:0:0:
243,126,37074,1,8,0:1:0:0:
36,367,37288,38,0,L|31:318,1,32.4999985122681,8|8,0:1|0:1,0:0:0:0:
14,119,37502,1,8,0:1:0:0:
46,123,37609,1,8,0:1:0:0:
78,127,37716,1,8,0:1:0:0:
110,132,37823,1,8,0:1:0:0:
149,161,37931,38,0,B|172:97|172:97|145:32,1,135.000000514984,6|0,0:2|0:0,0:0:0:0:
7,206,38359,1,8,0:2:0:0:
7,206,38574,2,0,P|90:177|198:308,1,270.000001029968,2|0,0:0|0:0,0:0:0:0:
411,357,39217,1,8,0:2:0:0:
259,180,39431,2,0,L|368:192,1,67.5000002574921,2|0,0:0|0:0,0:0:0:0:
396,240,39645,6,0,P|446:220|514:136,1,135.000000514984,2|0,0:0|0:0,0:0:0:0:
314,58,40074,1,8,0:2:0:0:
314,58,40288,2,0,B|356:117|310:184|310:184|272:248|320:319,1,270.000001029968,2|0,0:0|0:0,0:0:0:0:
494,364,40931,1,8,0:2:0:0:
228,117,41145,53,2,0:0:0:0:
228,117,41252,1,0,0:0:0:0:
228,117,41359,2,0,L|79:125,1,135.000000514984,2|0,0:0|0:0,0:0:0:0:
0,341,41788,1,8,0:2:0:0:
0,341,42002,2,0,P|105:341|159:161,1,270.000001029968,2|0,0:0|0:0,0:0:0:0:
102,1,42645,1,8,0:2:0:0:
314,58,42859,2,0,P|292:91|282:160,1,67.5000002574921,2|0,0:0|0:0,0:0:0:0:
344,197,43074,6,0,L|478:189,1,135.000000514984,2|0,0:0|0:0,0:0:0:0:
302,319,43502,1,8,0:2:0:0:
302,319,43717,2,0,B|290:228|290:228|324:148|324:148|312:48,1,270.000001029968,2|0,0:0|0:0,0:0:0:0:
72,4,44359,1,8,0:2:0:0:
27,18,44467,1,0,0:0:0:0:
27,65,44574,1,2,0:0:0:0:
72,80,44681,1,0,0:0:0:0:
99,42,44788,54,0,B|116:121|68:106|89:183,1,135.000000514984,6|0,0:2|0:0,0:0:0:0:
139,367,45217,1,8,0:2:0:0:
0,218,45431,2,0,P|105:184|198:330,1,270.000001029968,2|0,0:0|0:0,0:0:0:0:
438,360,46074,1,8,0:2:0:0:
269,186,46288,5,2,0:0:0:0:
269,186,46395,1,0,0:0:0:0:
269,186,46502,2,0,B|248:123|248:123|277:39,1,135.000000514984,2|0,0:0|0:0,0:0:0:0:
489,112,46931,1,8,0:2:0:0:
415,254,47145,2,0,B|350:287|290:239|290:239|225:186|145:236,1,270.000001029968,2|0,0:0|0:0,0:0:0:0:
37,370,47788,1,8,0:2:0:0:
5,137,48002,2,0,P|40:159|109:171,1,67.5000002574921,2|0,0:0|0:0,0:0:0:0:
163,225,48217,54,0,L|148:74,1,135.000000514984,2|0,0:0|0:0,0:0:0:0:
340,8,48645,1,8,0:2:0:0:
504,200,48859,2,0,P|440:240|296:136,1,270.000001029968,2|0,0:0|0:0,0:0:0:0:
468,336,49502,1,8,0:2:0:0:
264,256,49717,1,2,0:0:0:0:
255,288,49824,1,0,0:0:0:0:
246,321,49931,2,0,P|212:304|148:288,1,67.5000002574921,2|0,0:0|0:0,0:0:0:0:
52,104,50145,5,0,0:0:0:0:
0,120,50252,1,0,0:0:0:0:
0,174,50359,1,0,0:0:0:0:
52,191,50467,1,0,0:0:0:0:
83,147,50574,2,0,B|136:136|172:185|172:185|205:135|252:136|252:136|287:185|336:176,1,292.499986610413,8|0,0:0|0:0,0:0:0:0:
329,88,51645,5,6,0:0:0:0:
237,240,51859,2,0,P|249:263|259:294,1,37.5000014305115
312,369,52074,2,0,P|318:338|349:269,1,75.0000028610231,8|2,0:0|0:0,0:0:0:0:
507,238,52395,1,0,0:0:0:0:
507,238,52502,2,0,L|376:230,1,112.500004291535,2|0,0:0|0:0,0:0:0:0:
328,177,52931,2,0,P|322:146|291:77,1,75.0000028610231,10|0,0:0|0:0,0:0:0:0:
406,19,53359,5,2,0:0:0:0:
222,92,53574,2,0,L|176:88,1,37.5000014305115
107,41,53788,2,0,P|89:78|84:118,1,75.0000028610231,8|2,0:0|0:0,0:0:0:0:
31,301,54217,2,0,P|13:264|8:224,1,75.0000028610231,2|0,0:0|0:0,0:0:0:0:
149,184,54645,2,0,L|244:195,1,75.0000028610231,10|0,0:0|0:0,0:0:0:0:
370,342,55074,5,2,0:0:0:0:
425,254,55288,2,0,P|377:237|286:297,1,150.000005722046,0|2,0:0|0:0,0:0:0:0:
184,365,55824,1,0,0:0:0:0:
184,365,55931,2,0,P|200:328|212:281,1,75.0000028610231,2|0,0:0|0:0,0:0:0:0:
243,103,56359,2,0,P|258:136|269:172,1,75.0000028610231,10|0,0:0|0:0,0:0:0:0:
99,290,56788,37,2,0:0:0:0:
0,133,57002,1,0,0:0:0:0:
161,40,57217,5,8,0:0:0:0:
136,162,57431,2,0,L|195:154,1,37.5000014305115,2|0,0:0|0:0,0:0:0:0:
293,35,57645,6,0,P|333:49|393:53,1,75.0000028610231,2|0,0:0|0:0,0:0:0:0:
497,246,57967,1,0,0:0:0:0:
512,263,58074,2,0,P|474:268|439:281,1,75.0000028610231,10|8,0:0|0:0,0:0:0:0:
226,216,58502,37,6,0:0:0:0:
359,153,58717,1,0,0:0:0:0:
395,358,58931,6,0,P|359:345|322:340,1,75.0000028610231,8|2,0:0|0:0,0:0:0:0:
53,259,59359,2,0,P|59:295|73:330,1,75.0000028610231,2|0,0:0|0:0,0:0:0:0:
197,357,59788,2,0,P|225:332|248:303,1,75.0000028610231,10|0,0:0|0:0,0:0:0:0:
342,111,60217,5,2,0:0:0:0:
208,198,60431,2,0,P|170:192|135:180,2,75.0000028610231,0|8|2,0:0|0:0|0:0,0:0:0:0:
437,26,61074,2,0,L|446:151,1,112.500004291535,2|0,0:0|0:0,0:0:0:0:
501,199,61502,2,0,P|492:233|469:279,1,75.0000028610231,10|0,0:0|0:0,0:0:0:0:
365,360,61931,37,2,0:0:0:0:
244,343,62145,2,0,B|160:327|180:378|97:365,1,150.000005722046,0|2,0:0|0:0,0:0:0:0:
35,309,62681,1,0,0:0:0:0:
35,309,62788,2,0,L|23:197,1,112.500004291535,2|0,0:0|0:0,0:0:0:0:
51,122,63217,2,0,P|85:137|142:140,1,75.0000028610231,10|0,0:0|0:0,0:0:0:0:
394,74,63645,5,2,0:0:0:0:
264,5,63859,1,0,0:0:0:0:
184,206,64074,1,8,0:0:0:0:
202,200,64181,1,0,0:0:0:0:
220,194,64288,1,2,0:0:0:0:
238,189,64395,1,0,0:0:0:0:
259,154,64502,6,0,P|312:180|378:238,1,112.500004291535,2|0,0:0|0:0,0:0:0:0:
442,224,64931,2,0,P|389:250|323:308,1,112.500004291535,10|0,0:0|0:0,0:0:0:0:
302,357,65359,37,6,0:0:0:0:
52,251,65574,2,0,L|189:234,1,129.999994049073,2|2,0:0|0:0,0:0:0:0:
287,158,66109,1,0,0:0:0:0:
269,132,66217,6,0,P|227:177|283:320,1,187.5,2|0,0:0|0:0,0:0:0:0:
268,312,66645,1,8,0:0:0:0:
289,36,66859,2,0,P|263:52|215:60,1,62.5,2|0,0:0|0:0,0:0:0:0:
22,22,67074,5,2,0:0:0:0:
208,151,67288,2,0,P|162:127|57:120,1,129.999994049073,2|2,0:0|0:0,0:0:0:0:
289,36,67931,1,2,0:0:0:0:
360,178,68145,1,0,0:0:0:0:
368,192,68252,1,0,0:0:0:0:
376,206,68359,2,0,L|427:195,1,32.4999985122681,8|0,0:0|0:0,0:0:0:0:
300,281,68574,2,0,L|351:270,1,32.4999985122681,2|0,0:0|0:0,0:0:0:0:
242,348,68788,37,2,0:0:0:0:
13,261,69002,2,0,P|66:227|132:214,1,129.999994049073,2|2,0:0|0:0,0:0:0:0:
271,201,69538,1,0,0:0:0:0:
244,218,69645,6,0,P|142:218|60:166,1,187.5,2|0,0:0|0:0,0:0:0:0:
52,150,70074,1,8,0:0:0:0:
288,18,70288,2,0,L|299:83,1,62.5,2|0,0:0|0:0,0:0:0:0:
343,314,70502,5,2,0:0:0:0:
512,104,70717,1,2,0:0:0:0:
491,109,70788,1,0,0:0:0:0:
471,116,70859,1,0,0:0:0:0:
434,104,70931,38,0,P|417:138|409:173,1,64.9999970245363,8|2,0:0|0:0,0:0:0:0:
414,355,71359,38,0,P|399:286|361:221,1,125,2|0,0:0|0:0,0:0:0:0:
288,18,71788,6,0,L|97:34,1,150.000005722046,10|8,0:0|0:0,0:0:0:0:
18,186,72217,5,6,0:0:0:0:
155,361,72431,2,0,P|176:323|159:235,1,129.999994049073,2|2,0:0|0:0,0:0:0:0:
22,94,73074,6,0,B|70:98|70:98|94:120|94:120|159:124,1,125,2|0,0:0|0:0,0:0:0:0:
279,211,73395,1,0,0:0:0:0:
279,211,73502,2,0,B|231:215|231:215|207:237|207:237|142:241,1,125,8|2,0:0|0:0,0:0:0:0:
323,359,73931,6,0,L|335:280,1,64.9999970245363,2|2,0:0|0:0,0:0:0:0:
358,118,74359,1,8,0:0:0:0:
501,188,74574,1,2,0:0:0:0:
501,188,74681,1,0,0:0:0:0:
501,188,74788,2,0,P|482:197|452:200,1,32.4999985122681,2|0,0:0|0:0,0:0:0:0:
391,240,75002,1,0,0:0:0:0:
391,240,75109,1,0,0:0:0:0:
391,240,75217,2,0,P|356:223|301:213,1,64.9999970245363,8|2,0:0|0:0,0:0:0:0:
82,317,75645,37,2,0:0:0:0:
178,191,75859,2,0,L|159:49,1,129.999994049073,2|2,0:0|0:0,0:0:0:0:
34,15,76395,5,0,0:0:0:0:
56,37,76502,2,0,B|99:64|146:38|146:38|198:12|247:44,1,187.5,2|0,0:0|0:0,0:0:0:0:
312,14,76931,2,0,P|275:41|270:144,1,125,8|2,0:0|0:0,0:0:0:0:
385,244,77252,1,0,0:0:0:0:
398,219,77359,6,0,P|367:231|311:232,1,64.9999970245363,2|2,0:0|0:0,0:0:0:0:
114,152,77788,2,0,P|146:155|176:167,1,64.9999970245363,8|2,0:0|0:0,0:0:0:0:
324,339,78217,1,8,0:1:0:0:
275,111,78431,38,0,L|237:115,1,32.4999985122681,8|8,0:1|0:1,0:0:0:0:
0,76,78645,1,8,0:1:0:0:
7,107,78752,1,8,0:1:0:0:
16,138,78859,1,8,0:1:0:0:
25,169,78966,1,8,0:1:0:0:
5,217,79074,38,0,P|74:216|122:260,1,135.000000514984,6|0,0:2|0:0,0:0:0:0:
214,377,79502,1,8,0:2:0:0:
214,377,79717,2,0,P|170:319|252:154,1,270.000001029968,2|0,0:0|0:0,0:0:0:0:
487,112,80359,1,8,0:2:0:0:
283,8,80574,2,0,P|272:41|241:78,1,67.5000002574921,2|0,0:0|0:0,0:0:0:0:
145,118,80788,6,0,L|-3:109,1,135.000000514984,2|0,0:0|0:0,0:0:0:0:
160,279,81217,1,8,0:2:0:0:
160,279,81431,2,0,B|258:284|258:284|310:326|310:326|421:332,1,270.000001029968,2|0,0:0|0:0,0:0:0:0:
361,205,82074,1,8,0:2:0:0:
87,332,82288,53,2,0:0:0:0:
87,332,82395,1,0,0:0:0:0:
87,332,82502,2,0,P|68:281|106:207,1,135.000000514984,2|0,0:0|0:0,0:0:0:0:
263,95,82931,1,8,0:2:0:0:
263,95,83145,2,0,P|204:167|41:136,1,270.000001029968,2|0,0:0|0:0,0:0:0:0:
140,52,83788,1,8,0:2:0:0:
279,254,84002,2,0,L|369:230,1,67.5000002574921,2|0,0:0|0:0,0:0:0:0:
446,288,84217,6,0,B|466:225|466:225|437:138,1,135.000000514984,2|0,0:0|0:0,0:0:0:0:
140,52,84645,1,8,0:2:0:0:
140,52,84859,2,0,B|200:15|265:58|265:58|336:109|412:58,1,270.000001029968,2|0,0:0|0:0,0:0:0:0:
196,143,85502,1,8,0:2:0:0:
151,157,85610,1,0,0:0:0:0:
151,204,85717,1,2,0:0:0:0:
196,219,85824,1,0,0:0:0:0:
223,181,85931,54,0,B|207:324,1,135.000000514984,6|0,0:2|0:0,0:0:0:0:
7,233,86359,1,8,0:2:0:0:
87,49,86574,2,0,P|152:134|319:91,1,270.000001029968,2|0,0:0|0:0,0:0:0:0:
441,0,87217,1,8,0:2:0:0:
329,219,87431,5,2,0:0:0:0:
329,219,87538,1,0,0:0:0:0:
329,219,87645,2,0,P|305:271|340:349,1,135.000000514984,2|0,0:0|0:0,0:0:0:0:
510,138,88074,1,8,0:2:0:0:
316,21,88288,2,0,L|25:47,1,270.000001029968,2|0,0:0|0:0,0:0:0:0:
229,154,88931,1,8,0:2:0:0:
41,311,89145,2,0,P|20:278|9:225,1,67.5000002574921,2|0,0:0|0:0,0:0:0:0:
94,165,89359,54,0,L|245:152,1,135.000000514984,2|0,0:0|0:0,0:0:0:0:
352,354,89788,1,8,0:2:0:0:
503,174,90002,2,0,P|421:144|305:275,1,270.000001029968,2|0,0:0|0:0,0:0:0:0:
114,361,90645,1,8,0:2:0:0:
0,196,90859,2,0,P|33:200|64:212,1,67.5000002574921,2|0,0:0|0:0,0:0:0:0:
167,284,91074,6,0,L|151:136,1,135.000000514984,10|0,0:0|0:0,0:0:0:0:
52,32,91395,1,2,0:0:0:0:
52,32,91502,2,0,P|73:69|112:90,1,67.5000002574921,10|2,0:0|0:0,0:0:0:0:
235,138,91717,2,0,P|277:131|311:102,1,67.5000002574921,2|2,0:0|0:0,0:0:0:0:
359,0,91931,2,0,P|315:55|357:186,1,202.500000772476,10|0,0:0|0:0,0:0:0:0:
343,259,92359,1,8,0:1:0:0:
376,256,92466,1,8,0:1:0:0:
410,254,92573,1,8,0:1:0:0:
444,252,92680,1,8,0:1:0:0:
474,285,92788,54,0,B|490:143,1,135.000000514984,6|0,0:2|0:0,0:0:0:0:
256,192,93217,1,10,0:2:0:0:
371,344,93431,2,0,L|403:60,1,270.000001029968,2|8,0:0|0:2,0:0:0:0:
256,192,94074,1,10,0:2:0:0:
38,285,94288,5,0,0:0:0:0:
38,285,94395,1,0,0:0:0:0:
38,285,94502,2,0,B|22:143,1,135.000000514984,2|0,0:0|0:0,0:0:0:0:
256,192,94931,1,10,0:2:0:0:
141,344,95145,2,0,L|109:60,1,270.000001029968,2|8,0:0|0:2,0:0:0:0:
256,192,95788,1,10,0:2:0:0:
357,25,96002,2,0,P|379:57|425:86,1,67.5000002574921
489,150,96217,54,0,B|474:285,1,135.000000514984,2|0,0:0|0:0,0:0:0:0:
256,192,96645,1,10,0:2:0:0:
141,344,96859,2,0,L|110:75,1,270.000001029968,2|8,0:0|0:2,0:0:0:0:
256,192,97502,1,10,0:2:0:0:
155,25,97717,2,0,P|133:57|87:86,1,67.5000002574921
38,285,97931,6,0,B|22:150,1,135.000000514984,2|0,0:0|0:0,0:0:0:0:
256,192,98359,1,10,0:2:0:0:
371,344,98574,2,0,L|401:75,1,270.000001029968,2|8,0:0|0:2,0:0:0:0:
47,37,99217,1,10,0:2:0:0:
2,51,99325,1,0,0:0:0:0:
2,98,99432,1,0,0:0:0:0:
47,113,99539,1,0,0:0:0:0:
74,75,99646,54,0,B|245:95,1,135.000000514984,6|0,0:2|0:0,0:0:0:0:
472,119,100074,1,10,0:2:0:0:
74,309,100288,2,0,L|341:276,1,270.000001029968,2|8,0:0|0:2,0:0:0:0:
472,119,100931,1,10,0:2:0:0:
74,309,101145,5,0,0:0:0:0:
74,309,101252,1,0,0:0:0:0:
74,309,101359,2,0,B|245:289,1,135.000000514984,2|0,0:0|0:0,0:0:0:0:
472,265,101788,1,10,0:2:0:0:
74,75,102002,2,0,L|341:107,1,270.000001029968,2|8,0:0|0:2,0:0:0:0:
472,265,102645,1,10,0:2:0:0:
329,0,102859,2,0,P|300:15|245:26,1,67.5000002574921
74,75,103074,54,0,B|208:90,1,135.000000514984,2|0,0:0|0:0,0:0:0:0:
472,265,103502,1,10,0:2:0:0:
74,309,103717,2,0,L|341:276,1,270.000001029968,2|8,0:0|0:2,0:0:0:0:
472,119,104359,1,10,0:2:0:0:
238,16,104574,1,0,0:0:0:0:
229,48,104681,1,0,0:0:0:0:
220,81,104788,2,0,P|186:64|122:48,1,67.5000002574921
0,187,105002,5,0,0:0:0:0:
10,239,105109,1,0,0:0:0:0:
63,246,105216,1,0,0:0:0:0:
85,196,105324,1,0,0:0:0:0:
44,160,105431,2,0,B|103:216|178:172|178:172|256:124|316:181,1,292.499986610413
331,202,106502,5,8,0:0:0:0:
285,275,106645,1,0,0:0:0:0:
364,310,106788,1,0,0:0:0:0:
318,383,106931,2,0,L|219:354,1,86.6666626993817,2|0,0:0|0:0,0:0:0:0:
86,366,107359,5,0,0:0:0:0:
128,290,107502,1,0,0:0:0:0:
167,212,107645,1,0,0:0:0:0:
132,132,107788,2,0,L|48:156,1,86.6666626993817,2|0,0:0|0:0,0:0:0:0:
145,19,108217,5,8,0:0:0:0:
202,83,108359,1,0,0:0:0:0:
285,104,108502,1,0,0:0:0:0:
367,78,108645,2,0,P|410:48|441:5,1,86.6666626993817,2|0,0:0|0:0,0:0:0:0:
411,156,109074,2,0,L|389:279,1,86.6666626993817
384,327,109502,37,2,0:0:0:0:
384,327,109645,1,0,0:0:0:0:
384,327,109788,1,0,0:0:0:0:
384,327,109931,2,0,B|319:309|333:365|233:338,1,129.999994049073,8|2,0:0|0:0,0:0:0:0:
142,269,110502,5,0,0:0:0:0:
142,269,110645,1,0,0:0:0:0:
142,269,110788,2,0,L|161:126,1,129.999994049073,0|2,0:0|0:0,0:0:0:0:
288,25,111359,5,0,0:0:0:0:
288,25,111502,1,0,0:0:0:0:
288,25,111645,2,0,P|315:39|357:46,2,43.3333313496908,8|0|0,0:0|0:0|0:0,0:0:0:0:
91,88,112074,2,0,P|64:102|22:109,2,43.3333313496908
148,22,112502,5,2,0:0:0:0:
256,190,112788,1,2,0:0:0:0:
364,362,113074,1,2,0:0:0:0:
508,196,113359,21,8,0:0:0:0:
428,161,113502,1,0,0:0:0:0:
501,198,113645,1,0,0:0:0:0:
421,163,113788,2,0,L|298:178,1,86.6666626993817,2|0,0:0|0:0,0:0:0:0:
88,306,114217,5,0,0:0:0:0:
168,271,114360,1,0,0:0:0:0:
95,308,114503,1,0,0:0:0:0:
175,273,114646,2,0,P|201:309|233:372,1,86.6666626993817,2|0,0:0|0:0,0:0:0:0:
334,173,115074,5,8,0:0:0:0:
301,200,115216,1,0,0:0:0:0:
259,208,115359,1,0,0:0:0:0:
218,194,115502,1,2,0:0:0:0:
177,179,115645,1,0,0:0:0:0:
135,187,115788,1,0,0:0:0:0:
102,215,115931,2,0,P|124:170|134:104,1,86.6666626993817
81,15,116359,2,0,P|94:38|120:67,1,43.3333313496908,2|0,0:0|0:0,0:0:0:0:
188,75,116645,1,0,0:0:0:0:
265,31,116788,38,0,L|318:37,2,43.3333313496908,8|0|0,0:0|0:0|0:0,0:0:0:0:
443,88,117217,2,0,L|390:82,2,43.3333313496908,2|0|0,0:0|0:0|0:0,0:0:0:0:
262,126,117645,2,0,L|315:132,2,43.3333313496908
440,183,118074,2,0,L|387:177,2,43.3333313496908,2|0|0,0:0|0:0|0:0,0:0:0:0:
490,284,118502,5,8,0:0:0:0:
403,273,118645,1,0,0:0:0:0:
316,261,118788,1,0,0:0:0:0:
245,210,118931,2,0,P|225:256|236:297,1,86.6666626993817,2|0,0:0|0:0,0:0:0:0:
187,365,119359,5,0,0:0:0:0:
143,360,119501,1,0,0:0:0:0:
100,356,119644,1,0,0:0:0:0:
18,274,119788,37,2,0:0:0:0:
62,269,119930,1,0,0:0:0:0:
105,265,120073,1,0,0:0:0:0:
161,198,120217,6,0,L|189:98,1,86.6666626993817,8|0,0:0|0:0,0:0:0:0:
0,16,120645,2,0,L|23:99,1,86.6666626993817,2|0,0:0|0:0,0:0:0:0:
232,271,121074,5,0,0:0:0:0:
232,271,121217,1,0,0:0:0:0:
232,271,121359,2,0,L|249:210,1,43.3333313496908,0|2,0:0|0:0,0:0:0:0:
103,17,121645,2,0,L|114:58,1,43.3333313496908
161,198,121931,37,8,0:0:0:0:
244,174,122074,1,0,0:0:0:0:
328,153,122217,1,0,0:0:0:0:
412,138,122359,2,0,P|451:160|501:176,1,86.6666626993817,2|0,0:0|0:0,0:0:0:0:
476,323,122788,5,0,0:0:0:0:
393,299,122931,1,0,0:0:0:0:
309,278,123074,1,0,0:0:0:0:
225,263,123216,2,0,P|186:285|136:301,1,86.6666626993817,2|0,0:0|0:0,0:0:0:0:
41,368,123645,5,8,0:0:0:0:
35,325,123787,1,0,0:0:0:0:
29,282,123930,1,0,0:0:0:0:
106,215,124074,37,2,0:0:0:0:
111,172,124216,1,0,0:0:0:0:
117,129,124359,1,0,0:0:0:0:
58,75,124502,6,0,B|103:71|103:71|134:88|134:88|193:82,1,129.999994049073,8|8,0:0|0:0,0:0:0:0:
412,19,125359,6,0,L|467:12,2,43.3333313496908,2|0|0,0:0|0:0|0:0,0:0:0:0:
299,132,125788,2,0,L|256:137,2,43.3333313496908
385,120,126217,37,8,0:1:0:0:
394,128,126431,1,8,0:1:0:0:
403,136,126645,1,8,0:1:0:0:
412,144,126859,1,8,0:1:0:0:
280,325,127074,5,2,0:0:0:0:
456,253,127288,2,0,L|317:236,1,112.500004291535,2|0,0:0|0:0,0:0:0:0:
281,187,127717,2,0,P|255:196|224:215,1,37.5000014305115,2|0,0:0|0:0,0:0:0:0:
179,370,127931,6,0,B|200:328|200:328|166:230,1,125,2|0,0:0|0:0,0:0:0:0:
24,152,128252,1,0,0:0:0:0:
24,152,128359,2,0,L|169:171,1,125,10|10,0:0|0:0,0:0:0:0:
471,199,128788,1,2,0:0:0:0:
419,44,129002,6,0,B|361:27|320:78|320:78|279:129|217:112,1,225.000008583069,2|0,0:0|0:0,0:0:0:0:
219,112,129431,2,0,P|256:138|299:185,1,75.0000028610231,10|0,0:0|0:0,0:0:0:0:
378,354,129645,2,0,L|411:112,1,225.000008583069,10|0,0:0|0:0,0:0:0:0:
419,44,130074,1,2,0:0:0:0:
