osu file format v14

[General]
AudioFilename: audio.mp3
AudioLeadIn: 0
PreviewTime: 1181
Countdown: 0
SampleSet: Soft
StackLeniency: 0.7
Mode: 0
LetterboxInBreaks: 0
WidescreenStoryboard: 0

[Editor]
DistanceSpacing: 0.3
BeatDivisor: 8
GridSize: 16
TimelineZoom: 1.9

[Metadata]
Title:Temptation
TitleUnicode:Temptation
Artist:M2U
ArtistUnicode:M2U
Creator:Battle
Version:Sinful
Source:
Tags:
BeatmapID:1873115
BeatmapSetID:896552

[Difficulty]
HPDrainRate:5
CircleSize:2
OverallDifficulty:8.7
ApproachRate:9.3
SliderMultiplier:3.59999990463257
SliderTickRate:1

[Events]
//Background and Video events
0,0,"28740684_p0.jpg",0,0
//Break Periods
//Storyboard Layer 0 (Background)
//Storyboard Layer 1 (Fail)
//Storyboard Layer 2 (Pass)
//Storyboard Layer 3 (Foreground)
//Storyboard Sound Samples

[TimingPoints]
1717,428.571428571429,4,2,1,100,1,0
8145,-200,4,2,1,100,0,0
8467,-153.846153846153,4,2,1,5,0,0
8574,-153.846153846154,4,2,1,100,0,0
19931,-200,4,2,1,100,0,0
23145,-66.6666666666667,4,2,1,100,0,0
23574,-83.3333333333333,4,2,1,100,0,0
24217,-100,4,2,1,100,0,0
37717,-100,4,2,1,100,0,1
50359,-200,4,2,1,100,0,0
51431,-100,4,2,1,100,0,0
78859,-100,4,2,1,100,0,1
90859,-100,4,2,1,100,0,0
92574,-66.6666666666667,4,2,1,100,0,1
105217,-200,4,2,1,100,0,0
106288,-133.333333333333,4,2,1,100,0,0
126859,-100,4,2,1,100,0,0
129859,-50,4,2,1,100,0,0

[Colours]
Combo1 : 245,217,129
Combo2 : 126,171,78
Combo3 : 81,73,150
Combo4 : 153,34,52

[HitObjects]
142,206,1288,5,0,0:0:0:0:
281,118,1502,1,0,0:0:0:0:
281,118,1609,1,0,0:0:0:0:
281,118,1717,2,0,P|250:108|150:73,1,89.9999976158143
16,27,1931,2,0,P|60:168|51:209,1,179.999995231629
140,328,2359,1,0,0:0:0:0:
140,328,2467,1,0,0:0:0:0:
140,328,2574,2,0,L|44:346,1,89.9999976158143
270,211,2788,2,0,P|242:312|236:366,1,89.9999976158142
183,55,3002,2,0,P|155:156|149:210,1,89.9999976158142
403,339,3217,1,0,0:0:0:0:
403,339,3324,1,0,0:0:0:0:
403,339,3431,6,0,P|418:232|444:193,1,89.9999976158143
366,51,3645,2,0,B|338:90|345:154|345:154|318:201|206:220,1,179.999995231629
61,62,4074,1,0,0:0:0:0:
61,62,4181,1,0,0:0:0:0:
61,62,4288,2,0,B|130:82|130:82|177:53|250:58,1,179.999995231629
316,225,4609,1,0,0:0:0:0:
316,225,4717,2,0,P|237:173|174:230,1,179.999995231629
84,342,5038,1,0,0:0:0:0:
84,342,5145,6,0,P|71:253|40:184,1,89.9999976158143
27,90,5359,1,0,0:0:0:0:
244,267,5574,2,0,P|202:228|177:210,1,44.9999988079071
265,84,5788,2,0,P|209:86|177:91,1,44.9999988079071
71,270,6002,2,0,B|122:292|122:292|253:265,1,179.999995231629
361,203,6324,1,0,0:0:0:0:
361,203,6431,1,0,0:0:0:0:
256,192,6538,12,0,7931,0:0:0:0:
181,68,8145,6,0,B|182:105|182:105|166:130|166:130|181:151|181:151|184:220,1,134.999996423721
335,188,8574,6,0,P|244:155|175:205,1,175.499987317086
147,293,9002,1,0,0:0:0:0:
356,338,9217,1,0,0:0:0:0:
377,329,9324,1,0,0:0:0:0:
398,320,9431,1,0,0:0:0:0:
253,248,9645,1,0,0:0:0:0:
414,90,9859,2,0,L|405:221,1,116.999991544724
309,35,10181,1,0,0:0:0:0:
309,35,10288,6,0,B|287:92|287:92|300:166,1,116.999991544724
238,384,10717,2,0,P|260:326|228:248,1,116.999991544724
140,172,11038,1,0,0:0:0:0:
146,199,11145,2,0,L|169:330,1,116.999991544724
323,144,11574,2,0,B|231:153|231:153|200:108|119:92,1,175.499987317086
23,13,12002,6,0,B|78:34|78:34|183:-5,1,116.999991544724
261,197,12431,1,0,0:0:0:0:
239,177,12538,1,0,0:0:0:0:
214,162,12645,1,0,0:0:0:0:
186,154,12752,1,0,0:0:0:0:
157,152,12859,2,0,P|140:237|141:275,1,116.999991544724
26,384,13288,2,0,P|23:325|0:199,1,175.499987317086
0,93,13717,6,0,P|69:60|114:49,1,116.999991544724
226,192,14038,1,0,0:0:0:0:
211,201,14145,2,0,P|142:168|119:160,1,58.499995772362
32,288,14359,2,0,P|57:274|84:261,1,58.499995772362
233,77,14574,2,0,P|319:125|380:124,1,116.999991544724
450,98,14895,1,0,0:0:0:0:
450,98,15002,2,0,P|430:159|439:234,1,116.999991544724
408,346,15324,1,0,0:0:0:0:
408,346,15431,5,0,0:0:0:0:
304,233,15645,1,0,0:0:0:0:
203,362,15859,2,0,B|180:319|127:303|127:303|85:316|29:295,1,175.499987317086
12,133,16288,2,0,P|66:168|91:216,1,116.999991544724
185,29,16717,2,0,L|164:149,1,116.999991544724
84,66,17038,1,0,0:0:0:0:
84,66,17145,5,0,0:0:0:0:
246,177,17359,1,0,0:0:0:0:
28,265,17574,2,0,P|87:245|159:244,1,116.999991544724
248,333,17895,1,0,0:0:0:0:
248,333,18002,2,0,P|315:361|369:365,1,116.999991544724
413,136,18431,2,0,P|326:215|363:306,1,175.499987317086
446,250,18859,5,0,0:0:0:0:
281,163,19074,1,0,0:0:0:0:
443,36,19288,2,0,L|425:161,1,116.999991544724
355,308,19609,1,0,0:0:0:0:
366,280,19717,2,0,P|428:254|494:263,1,116.999991544724
442,361,20145,6,0,B|391:302|311:304|311:304|249:376|166:333,1,269.999992847443
95,261,20895,1,0,0:0:0:0:
95,261,21002,2,0,P|154:230|204:241,1,89.9999976158143
210,137,21324,1,0,0:0:0:0:
224,149,21431,2,0,P|268:191|277:208,1,44.9999988079071
299,338,21645,2,0,P|310:286|325:268,1,44.9999988079071
477,190,21859,5,0,0:0:0:0:
406,198,21966,1,0,0:0:0:0:
346,162,22073,1,0,0:0:0:0:
319,97,22180,1,0,0:0:0:0:
414,108,22288,5,0,0:0:0:0:
360,153,22395,1,0,0:0:0:0:
289,156,22502,1,0,0:0:0:0:
231,115,22609,1,0,0:0:0:0:
306,71,22717,5,0,0:0:0:0:
329,137,22824,1,0,0:0:0:0:
308,204,22931,1,0,0:0:0:0:
249,245,23038,1,0,0:0:0:0:
229,138,23145,6,0,B|290:235|290:235|244:394,1,270.000003147125
164,263,23467,1,0,0:0:0:0:
164,263,23574,2,0,L|131:365,1,107.999993843079
80,172,23788,2,0,L|47:274,1,107.999993843079
261,125,24002,6,0,P|113:120|65:51,1,215.999987686158
273,35,24324,1,0,0:0:0:0:
273,35,24431,2,0,L|254:167,1,89.9999976158143
301,287,24645,1,0,0:0:0:0:
309,243,24752,1,0,0:0:0:0:
340,211,24859,2,0,L|475:205,1,89.9999976158143
115,209,25288,2,0,L|-23:203,1,89.9999976158143
180,36,25502,1,0,0:0:0:0:
180,36,25609,1,0,0:0:0:0:
180,36,25717,6,0,P|193:111|187:142,1,89.9999976158143
196,329,25931,2,0,P|241:230|346:212,1,179.999995231629
392,200,26359,2,0,L|284:207,1,89.9999976158143
102,72,26574,2,0,B|192:113|192:113|312:74,1,179.999995231629
391,47,26895,1,0,0:0:0:0:
381,67,27002,2,0,P|361:147|372:179,1,89.9999976158143
512,299,27217,2,0,L|431:241,1,89.9999976158143
237,246,27431,6,0,L|345:244,1,89.9999976158143
158,167,27645,2,0,P|187:267|165:365,1,179.999995231629
160,77,28074,2,0,L|157:179,1,89.9999976158143
121,363,28288,2,0,P|85:344|37:333,1,89.9999976158143
391,363,28717,2,0,P|427:344|475:333,1,89.9999976158143
282,272,28931,1,0,0:0:0:0:
282,272,29038,1,0,0:0:0:0:
282,272,29145,6,0,P|322:271|370:259,1,89.9999976158143
479,105,29359,2,0,L|381:90,1,89.9999976158143
369,100,29520,1,0,0:0:0:0:
350,113,29574,2,0,L|252:98,1,89.9999976158143
72,60,29788,2,0,P|130:23|163:18,1,89.9999976158143
158,352,30002,2,0,P|164:279|167:253,1,89.9999976158143
29,165,30217,2,0,P|50:260|51:287,1,89.9999976158143
161,120,30431,1,0,0:0:0:0:
262,274,30645,1,0,0:0:0:0:
55,314,30859,5,0,0:0:0:0:
348,249,31074,2,0,P|304:261|261:273,1,89.9999976158143
36,228,31502,2,0,P|48:272|60:315,1,89.9999976158143
186,45,31717,6,0,P|147:157|146:227,1,179.999995231629
293,313,32038,1,0,0:0:0:0:
291,285,32145,2,0,B|279:229|266:192,1,89.9999976158143
396,32,32359,2,0,P|351:60|302:72,1,89.9999976158143
145,217,32574,5,0,0:0:0:0:
397,351,32788,2,0,P|410:280|418:250,1,89.9999976158143
267,19,33002,2,0,P|287:86|295:203,1,179.999995231629
79,161,33324,1,0,0:0:0:0:
96,153,33431,6,0,P|160:125|192:120,1,89.9999976158143
343,359,33859,2,0,P|299:347|259:327,1,89.9999976158143
82,122,34074,2,0,P|146:94|178:89,1,89.9999976158143
330,226,34288,5,0,0:0:0:0:
161,384,34502,2,0,B|175:308|153:260|153:260|100:194,1,179.999995231629
281,1,34931,2,0,P|233:75|233:97,1,89.9999976158143
374,274,35145,6,0,L|284:246,1,89.9999976158143
281,1,35574,2,0,P|221:63|217:181,1,179.999995231629
333,125,35895,5,0,0:0:0:0:
333,125,35949,1,0,0:0:0:0:
333,125,36002,2,0,L|348:227,1,89.9999976158143
483,33,36217,2,0,L|468:135,1,89.9999976158143
234,216,36431,1,0,0:0:0:0:
465,334,36645,1,0,0:0:0:0:
308,79,36859,6,0,P|226:162|239:226,1,179.999995231629
327,303,37181,1,0,0:0:0:0:
300,319,37288,2,0,P|225:336|185:329,1,89.9999976158143
109,305,37502,1,0,0:0:0:0:
64,206,37609,1,0,0:0:0:0:
102,104,37717,6,0,P|170:51|216:38,1,89.9999976158143
267,218,37931,2,0,P|199:165|153:152,1,89.9999976158143
311,23,38145,2,0,P|340:113|349:148,1,89.9999976158143
452,342,38359,2,0,B|442:259|442:259|432:199|485:149,1,179.999995231629
233,363,38788,2,0,B|279:372|279:372|372:345,1,89.9999976158143
154,268,39002,2,0,B|181:246|221:250|221:250|273:267|273:267|328:253,1,179.999995231629
385,162,39324,1,0,0:0:0:0:
323,73,39431,6,0,P|279:157|287:200,1,89.9999976158143
154,268,39645,2,0,P|187:359|187:382,1,89.9999976158143
39,155,39859,2,0,P|152:139|188:116,1,89.9999976158143
353,19,40074,2,0,B|290:14|290:14|260:56|216:71|216:71|182:28|113:30,1,269.999992847443
239,202,40502,2,0,P|343:158|402:166,1,89.9999976158143
421,333,40717,2,0,B|351:323|326:272|326:272|306:305|276:321,1,179.999995231629
173,373,41038,1,0,0:0:0:0:
92,275,41145,6,0,P|166:201|206:201,1,89.9999976158143
271,116,41359,2,0,L|254:159,1,44.9999988079071
417,50,41574,2,0,L|400:93,1,44.9999988079071
232,350,41788,2,0,B|229:308|283:287|283:287|312:336|364:340|364:340|413:289|494:343,1,269.999992847443
501,129,42217,2,0,P|472:186|482:239,1,89.9999976158143
305,20,42431,2,0,B|360:62|360:62|389:135|352:193,1,179.999995231629
243,160,42752,1,0,0:0:0:0:
130,142,42859,6,0,P|130:67|160:22,1,89.9999976158143
129,285,43074,2,0,P|69:260|37:244,1,89.9999976158143
281,325,43288,2,0,P|228:373|194:400,1,89.9999976158143
393,202,43502,2,0,B|401:239|386:257|386:257|391:278|425:318|425:318|408:344|412:392,1,179.999995231629
304,168,43824,1,0,0:0:0:0:
317,145,43931,2,0,P|373:109|433:116,1,89.9999976158143
393,202,44145,1,0,0:0:0:0:
304,187,44252,1,0,0:0:0:0:
215,172,44359,1,0,0:0:0:0:
126,157,44466,1,0,0:0:0:0:
39,143,44574,6,0,P|87:77|131:67,1,89.9999976158143
133,255,44788,2,0,P|56:269|-2:278,1,89.9999976158143
259,252,45002,2,0,P|223:344|202:378,1,89.9999976158143
431,212,45217,2,0,B|393:238|390:304|390:304|370:360|292:380,1,179.999995231629
334,121,45645,2,0,P|297:154|340:150,1,89.9999976158143
195,0,45859,2,0,B|222:40|199:91|199:91|178:139|202:200,1,179.999995231629
161,263,46181,1,0,0:0:0:0:
97,328,46288,6,0,P|79:221|105:189,1,89.9999976158143
226,330,46502,2,0,P|244:223|218:191,1,89.9999976158143
29,102,46717,2,0,B|78:124|78:124|184:97,1,89.9999976158143
316,138,46931,2,0,P|229:65|273:-27,1,179.999995231629
457,193,47359,2,0,P|438:255|432:289,1,89.9999976158143
328,384,47574,2,0,P|308:291|214:239,1,179.999995231629
143,180,47895,1,0,0:0:0:0:
159,163,48002,6,0,P|214:130|269:133,1,89.9999976158143
121,273,48217,2,0,L|61:245,1,44.9999988079071
286,340,48431,2,0,L|226:312,1,44.9999988079071
470,280,48645,2,0,L|280:211,1,179.999995231629
184,7,49074,2,0,P|249:59|258:85,1,89.9999976158143
160,269,49288,2,0,B|120:189|120:189|164:92,1,179.999995231629
274,225,49609,1,0,0:0:0:0:
274,225,49717,2,0,L|246:322,1,89.9999976158143
399,185,49931,2,0,L|371:282,1,89.9999976158143
295,130,50145,1,0,0:0:0:0:
404,72,50252,1,0,0:0:0:0:
295,42,50359,6,0,B|208:74|168:27|168:27|163:52|163:52|147:45|147:45|111:100|45:71|45:71|56:96|56:96|41:104|41:104|69:134|63:181,1,404.999989271164
64,264,51431,5,0,0:0:0:0:
236,229,51645,2,0,P|194:151|144:131,1,89.9999976158143
294,324,51859,2,0,P|350:220|347:190,1,89.9999976158143
249,36,52074,2,0,P|310:109|331:118,1,89.9999976158143
473,211,52288,2,0,B|356:159|335:298|183:187,1,269.999992847443
170,65,52717,2,0,P|226:11|334:38,1,179.999995231629
411,60,53038,1,0,0:0:0:0:
381,160,53145,6,0,P|365:217|363:276,1,89.9999976158143
212,383,53359,2,0,P|206:338|193:295,1,89.9999976158143
65,131,53574,2,0,P|51:173|46:218,1,89.9999976158143
181,26,53788,2,0,P|194:68|199:113,1,89.9999976158143
193,295,54002,2,0,P|269:251|354:271,1,179.999995231629
469,188,54324,1,0,0:0:0:0:
441,183,54431,2,0,P|367:115|361:80,1,89.9999976158143
200,4,54645,2,0,P|264:24|313:36,1,89.9999976158143
102,112,54859,1,0,0:0:0:0:
134,345,55074,6,0,B|101:278|146:230|146:230|130:210|130:210|180:204|213:150|201:93,1,269.999992847443
40,207,55502,2,0,L|157:210,1,89.9999976158143
335,43,55717,2,0,P|232:65|215:185,1,179.999995231629
401,193,56038,1,0,0:0:0:0:
381,174,56145,2,0,P|295:134|255:142,1,89.9999976158143
277,327,56359,2,0,P|296:286|298:242,1,89.9999976158143
84,206,56574,6,0,B|58:237|23:260|23:260|127:223|213:267,1,269.999992847443
272,104,57002,2,0,L|256:154,1,44.9999988079071
368,216,57217,2,0,L|352:266,1,44.9999988079071
195,15,57431,2,0,L|155:202,1,179.999995231629
213,272,57752,1,0,0:0:0:0:
303,312,57859,2,0,P|297:217|275:186,1,89.9999976158143
111,344,58074,2,0,P|193:366|229:377,1,89.9999976158143
417,293,58288,5,0,0:0:0:0:
229,147,58502,2,0,P|353:138|405:201,1,179.999995231629
146,197,58931,2,0,P|134:125|147:87,1,89.9999976158143
279,267,59145,2,0,P|258:344|248:386,1,89.9999976158143
430,180,59359,2,0,P|451:257|461:299,1,89.9999976158143
314,0,59574,2,0,B|339:87|339:87|294:125|289:187,1,179.999995231629
61,76,60002,5,0,0:0:0:0:
378,188,60217,2,0,P|290:161|253:151,1,89.9999976158143
61,76,60431,2,0,P|26:175|56:250,1,179.999995231629
142,326,60752,1,0,0:0:0:0:
241,253,60859,2,0,P|317:229|414:260,1,179.999995231629
179,168,61288,2,0,P|259:132|310:131,1,89.9999976158143
471,75,61502,2,0,P|391:39|340:38,1,89.9999976158143
328,334,61717,5,0,0:0:0:0:
156,26,61931,2,0,P|129:122|130:157,1,89.9999976158143
254,173,62145,2,0,P|284:273|280:304,1,89.9999976158143
469,22,62359,1,0,0:0:0:0:
462,33,62467,1,0,0:0:0:0:
457,45,62574,2,0,P|403:125|422:246,1,179.999995231629
489,349,62895,5,0,0:0:0:0:
489,349,63002,2,0,P|510:244|515:218,1,89.9999976158143
286,138,63217,2,0,P|307:243|312:269,1,89.9999976158143
194,354,63431,6,0,B|141:308|144:256|144:256|41:257|17:155,1,269.999992847443
47,80,63859,1,0,0:0:0:0:
128,23,63967,1,0,0:0:0:0:
209,78,64074,1,0,0:0:0:0:
184,173,64181,1,0,0:0:0:0:
248,247,64288,2,0,P|339:271|372:258,1,89.9999976158143
367,71,64502,2,0,P|346:110|344:155,1,89.9999976158143
507,285,64717,2,0,P|472:256|360:401,1,269.999992847443
207,310,65145,5,0,0:0:0:0:
36,60,65359,2,0,L|78:283,1,179.999995231629
214,0,65788,1,0,0:0:0:0:
209,22,65895,1,0,0:0:0:0:
205,49,66002,2,0,P|182:148|180:188,1,89.9999976158143
401,345,66431,2,0,P|392:300|379:257,1,89.9999976158143
158,35,66645,2,0,P|135:134|133:174,1,89.9999976158143
420,140,66859,6,0,P|267:105|250:97,1,89.9999976158143
88,286,67074,2,0,P|188:257|297:276,1,179.999995231629
394,348,67502,1,0,0:0:0:0:
64,180,67717,2,0,P|172:151|284:161,1,179.999995231629
366,60,68038,1,0,0:0:0:0:
339,57,68145,2,0,P|263:30|228:-1,1,89.9999976158143
394,230,68359,2,0,P|433:208|477:198,1,89.9999976158143
288,348,68574,6,0,P|212:321|177:290,1,89.9999976158143
95,22,68788,2,0,P|130:123|130:223,1,179.999995231629
307,382,69217,2,0,P|231:355|196:324,1,89.9999976158143
32,253,69431,2,0,B|138:258|74:207|249:205,1,179.999995231629
367,109,69859,2,0,B|261:114|325:63|150:61,1,179.999995231629
72,26,70181,5,0,0:0:0:0:
72,26,70234,1,0,0:0:0:0:
72,26,70288,2,0,P|91:77|89:134,1,89.9999976158143
192,313,70502,2,0,P|195:268|212:226,1,89.9999976158143
221,217,70663,1,0,0:0:0:0:
231,208,70717,2,0,L|306:205,1,44.9999988079071
97,125,70931,2,0,L|172:122,1,44.9999988079071
285,42,71145,1,0,0:0:0:0:
102,304,71359,2,0,L|209:298,1,89.9999976158143
295,72,71574,2,0,L|188:78,1,89.9999976158143
61,184,71788,1,0,0:0:0:0:
332,208,72002,6,0,B|276:211|276:211|218:180|218:180|127:181,1,179.999995231629
159,180,72645,2,0,P|193:152|238:148,1,89.9999976158143
455,303,72859,2,0,B|336:301|394:364|262:346,1,179.999995231629
239,256,73181,1,0,0:0:0:0:
275,156,73288,2,0,P|341:229|336:271,1,89.9999976158143
204,60,73502,2,0,P|267:35|310:42,1,89.9999976158143
39,114,73717,6,0,P|157:185|125:284,1,179.999995231629
54,324,74145,2,0,P|135:311|173:334,1,89.9999976158143
246,350,74359,1,0,0:0:0:0:
317,260,74467,1,0,0:0:0:0:
230,195,74574,6,0,P|152:127|164:29,1,179.999995231629
350,180,75002,2,0,P|323:215|331:298,1,89.9999976158143
175,291,75217,2,0,P|202:326|194:409,1,89.9999976158143
421,247,75431,5,0,0:0:0:0:
170,54,75645,2,0,B|265:35|244:114|355:80,1,179.999995231629
392,363,76074,2,0,P|334:316|306:314,1,89.9999976158143
175,233,76288,2,0,B|270:252|249:173|360:207,1,179.999995231629
114,95,76717,2,0,B|171:96|206:132|206:132|241:97|324:102,1,179.999995231629
410,114,77038,5,0,0:0:0:0:
410,114,77092,1,0,0:0:0:0:
410,114,77145,2,0,P|449:163|447:238,1,89.9999976158143
329,365,77359,2,0,P|342:281|357:248,1,89.9999976158143
182,301,77574,1,0,0:0:0:0:
345,133,77788,1,0,0:0:0:0:
75,109,78002,2,0,B|169:119|134:49|249:56,1,179.999995231629
345,133,78324,1,0,0:0:0:0:
285,228,78431,5,0,0:0:0:0:
186,172,78538,1,0,0:0:0:0:
98,255,78645,1,0,0:0:0:0:
153,357,78752,1,0,0:0:0:0:
286,335,78859,6,0,B|331:321|331:321|405:346,1,89.9999976158143
512,209,79074,2,0,B|471:222|471:222|426:208,1,89.9999976158143
306,11,79288,2,0,P|358:63|356:114,1,89.9999976158143
152,185,79502,2,0,B|181:217|227:209|227:209|272:161|333:191,1,179.999995231629
84,8,79931,2,0,P|147:71|136:128,1,89.9999976158143
52,249,80145,2,0,B|171:263|104:199|249:212,1,179.999995231629
286,306,80467,1,0,0:0:0:0:
403,314,80574,6,0,P|444:293|465:249,1,89.9999976158143
296,163,80788,2,0,P|328:195|376:201,1,89.9999976158143
394,4,81002,2,0,P|373:45|382:93,1,89.9999976158143
100,123,81217,2,0,B|148:150|181:128|181:128|194:71|259:53,1,179.999995231629
342,235,81645,2,0,P|284:158|233:157,1,89.9999976158143
207,346,81859,2,0,P|178:261|241:269,1,179.999995231629
323,346,82181,1,0,0:0:0:0:
342,235,82288,6,0,L|354:146,1,89.9999976158143
142,86,82502,2,0,L|128:151,1,44.9999988079071
277,14,82717,2,0,L|263:79,1,44.9999988079071
0,199,82931,2,0,B|78:179|126:257|126:257|175:187|252:219,1,269.999992847443
306,332,83359,2,0,P|224:337|191:302,1,89.9999976158143
252,108,83574,2,0,B|308:118|336:186|336:186|459:188,1,179.999995231629
492,129,83895,1,0,0:0:0:0:
457,17,84002,6,0,P|396:66|388:110,1,89.9999976158143
432,264,84217,2,0,P|403:230|395:187,1,89.9999976158143
202,130,84431,2,0,L|316:133,1,89.9999976158143
406,346,84645,2,0,B|372:362|337:346|337:346|321:317|293:304|293:304|256:334|197:308,1,179.999995231629
112,207,84967,1,0,0:0:0:0:
133,193,85074,2,0,P|203:189|245:210,1,89.9999976158143
310,238,85288,1,0,0:0:0:0:
397,198,85395,1,0,0:0:0:0:
388,104,85502,1,0,0:0:0:0:
288,94,85609,1,0,0:0:0:0:
187,89,85717,6,0,P|146:55|136:6,1,89.9999976158143
13,222,85931,2,0,P|54:188|64:139,1,89.9999976158143
181,380,86145,2,0,P|165:291|146:267,1,89.9999976158143
297,112,86359,2,0,B|285:173|238:191|238:191|279:207|288:273,1,179.999995231629
354,25,86788,2,0,P|263:13|232:31,1,89.9999976158143
69,224,87002,2,0,B|177:252|124:155|280:202,1,179.999995231629
317,282,87324,1,0,0:0:0:0:
241,362,87431,6,0,P|205:296|223:257,1,89.9999976158143
390,362,87645,2,0,P|426:296|408:257,1,89.9999976158143
319,169,87859,2,0,L|318:303,1,89.9999976158143
241,79,88074,2,0,P|307:40|404:135,1,179.999995231629
46,159,88502,2,0,P|5:114|5:55,1,89.9999976158143
175,190,88717,2,0,P|106:291|116:345,1,179.999995231629
213,289,89038,1,0,0:0:0:0:
288,353,89145,6,0,P|357:361|403:332,1,89.9999976158143
187,169,89359,2,0,L|179:251,1,44.9999988079071
82,68,89574,2,0,L|74:150,1,44.9999988079071
377,23,89788,2,0,B|309:17|309:17|264:38|264:38|182:29,1,179.999995231629
453,168,90217,2,0,B|442:124|442:124|472:67,1,89.9999976158143
191,220,90432,2,0,B|252:213|252:213|297:234|297:234|365:228,1,179.999995231629
274,93,90752,1,0,0:0:0:0:
274,93,90859,6,0,P|205:124|232:263,1,179.999995231629
263,289,91181,1,0,0:0:0:0:
350,232,91288,1,0,0:0:0:0:
431,305,91395,1,0,0:0:0:0:
512,227,91502,1,0,0:0:0:0:
472,127,91609,1,0,0:0:0:0:
364,139,91717,2,0,B|272:150|272:150|188:78,1,179.999995231629
111,29,92038,5,0,0:0:0:0:
111,29,92092,1,0,0:0:0:0:
111,29,92145,2,0,L|103:135,1,89.9999976158143
21,221,92359,2,0,L|29:327,1,89.9999976158143
142,364,92574,6,0,P|214:333|282:371,1,135.000001573563
372,239,92788,2,0,P|308:257|250:226,1,135.000001573563
175,130,93002,1,0,0:0:0:0:
248,37,93109,1,0,0:0:0:0:
366,71,93217,6,0,P|262:162|352:268,1,270.000003147125
422,308,93645,2,0,P|376:255|293:273,1,135.000001573563
102,379,93859,2,0,B|151:334|246:355|246:355|164:298|162:229,1,270.000003147125
165,143,94181,1,0,0:0:0:0:
315,130,94288,6,0,P|286:147|290:275,1,135.000001573563
436,319,94502,2,0,P|435:285|322:224,1,135.000001573563
214,326,94717,2,0,P|243:342|352:275,1,135.000001573563
335,39,94931,6,0,P|185:46|158:181,1,270.000003147125
372,181,95359,2,0,P|327:133|251:126,1,135.000001573563
100,343,95574,2,0,P|199:356|277:216,1,270.000003147125
261,123,95895,1,0,0:0:0:0:
348,48,96002,6,0,P|384:103|448:118,1,135.000001573563
512,252,96217,2,0,L|425:241,1,67.5000007867814
87,359,96431,2,0,L|174:348,1,67.5000007867814
222,130,96645,6,0,B|177:282|329:220|275:413,1,270.000003147125
130,97,97074,2,0,P|168:43|233:33,1,135.000001573563
432,193,97288,2,0,P|383:212|308:162,1,135.000001573563
389,89,97502,1,0,0:0:0:0:
501,125,97609,1,0,0:0:0:0:
503,260,97717,6,0,P|443:310|364:303,1,135.000001573563
270,65,97931,2,0,P|330:15|409:22,1,135.000001573563
186,248,98145,1,0,0:0:0:0:
415,222,98359,6,0,P|328:153|434:121,1,270.000003147125
120,95,98788,2,0,P|228:90|267:29,1,135.000001573563
169,14,99002,1,0,0:0:0:0:
186,120,99109,1,0,0:0:0:0:
205,226,99217,1,0,0:0:0:0:
224,335,99324,1,0,0:0:0:0:
121,291,99431,6,0,P|53:289|-7:341,1,135.000001573563
83,46,99645,2,0,P|137:84|204:82,1,135.000001573563
301,32,99859,1,0,0:0:0:0:
365,120,99967,1,0,0:0:0:0:
285,203,100074,6,0,B|146:255|184:135|14:202,1,270.000003147125
387,201,100502,2,0,P|362:133|283:109,1,135.000001573563
67,357,100717,2,0,P|186:307|305:368,1,270.000003147125
410,349,101038,1,0,0:0:0:0:
374,247,101145,6,0,P|308:244|265:194,1,135.000001573563
466,67,101359,2,0,P|503:118|472:174,1,135.000001573563
259,61,101574,2,0,P|298:8|364:1,1,135.000001573563
428,275,101788,6,0,B|370:245|362:162|362:162|344:228|284:269,1,270.000003147125
259,81,102217,2,0,P|292:26|364:14,1,135.000001573563
24,201,102431,2,0,B|60:217|104:188|104:188|143:202|169:261|169:261|177:222|219:195,1,270.000003147125
259,81,102752,1,0,0:0:0:0:
367,117,102859,6,0,P|427:153|518:105,1,135.000001573563
501,327,103074,2,0,L|422:317,1,67.5000007867814
121,20,103288,2,0,L|207:29,1,67.5000007867814
18,322,103502,6,0,B|80:299|143:343|143:343|156:278|119:199|119:199|172:241|234:211,1,359.999990463257
292,59,103931,2,0,P|187:100|183:130,1,135.000001573563
374,315,104145,2,0,P|409:240|299:285,1,270.000003147125
278,374,104467,1,0,0:0:0:0:
393,333,104574,6,0,P|411:209|283:210,1,270.000003147125
188,259,104895,1,0,0:0:0:0:
96,193,105002,1,0,0:0:0:0:
148,90,105109,1,0,0:0:0:0:
254,84,105217,6,0,B|295:78|322:90|322:90|353:83|365:65|365:65|423:92|511:79|511:79|449:57|435:21,1,359.999990463257
453,172,106288,6,0,P|414:213|488:288,1,180.000002098084
300,250,106717,2,0,L|339:406,1,90.0000010490418
208,311,107002,1,0,0:0:0:0:
310,58,107145,6,0,L|276:183,1,90.0000010490418
202,70,107431,1,0,0:0:0:0:
418,46,107574,2,0,L|384:171,1,90.0000010490418
310,58,107860,1,0,0:0:0:0:
349,253,108002,6,0,B|506:263,1,90.0000010490418
278,161,108288,1,0,0:0:0:0:
379,49,108431,1,0,0:0:0:0:
281,143,108574,1,0,0:0:0:0:
216,28,108717,1,0,0:0:0:0:
78,132,108859,6,0,P|144:167|161:277,1,180.000002098084
259,15,109288,2,0,P|189:86|195:112,1,90.0000010490418
290,131,109574,1,0,0:0:0:0:
426,40,109717,5,0,0:0:0:0:
309,128,109859,1,0,0:0:0:0:
435,151,110002,1,0,0:0:0:0:
138,146,110145,5,0,0:0:0:0:
255,234,110287,1,0,0:0:0:0:
129,257,110430,1,0,0:0:0:0:
479,81,110574,5,0,0:0:0:0:
340,128,110716,1,0,0:0:0:0:
453,189,110859,1,0,0:0:0:0:
102,188,111002,5,0,0:0:0:0:
240,235,111144,1,0,0:0:0:0:
127,296,111287,1,0,0:0:0:0:
329,40,111431,6,0,P|367:84|368:143,1,90.0000010490418
259,215,111717,1,0,0:0:0:0:
383,141,111859,1,0,0:0:0:0:
235,227,112002,1,0,0:0:0:0:
447,216,112145,1,0,0:0:0:0:
202,240,112288,5,0,0:0:0:0:
362,313,112431,1,0,0:0:0:0:
181,153,112574,1,0,0:0:0:0:
267,306,112717,1,0,0:0:0:0:
223,66,112859,1,0,0:0:0:0:
202,240,113002,1,0,0:0:0:0:
345,40,113145,6,0,L|236:64,1,90.0000010490418
419,122,113431,1,0,0:0:0:0:
346,234,113574,2,0,L|237:210,1,90.0000010490418
420,152,113860,1,0,0:0:0:0:
154,49,114002,6,0,P|177:91|158:148,1,90.0000010490418
62,108,114288,1,0,0:0:0:0:
290,142,114431,2,0,P|283:189|235:224,1,90.0000010490418
170,130,114717,1,0,0:0:0:0:
346,291,114859,6,0,P|313:325|253:325,1,90.0000010490418
255,217,115145,1,0,0:0:0:0:
458,271,115288,2,0,L|433:376,1,90.0000010490418
371,194,115574,1,0,0:0:0:0:
461,49,115717,6,0,P|484:123|459:162,1,90.0000010490418
361,96,116002,1,0,0:0:0:0:
255,163,116145,1,0,0:0:0:0:
362,79,116288,1,0,0:0:0:0:
371,226,116431,1,0,0:0:0:0:
245,60,116574,5,0,0:0:0:0:
192,162,116717,1,0,0:0:0:0:
372,68,116859,1,0,0:0:0:0:
179,186,117002,5,0,0:0:0:0:
232,84,117145,1,0,0:0:0:0:
52,178,117287,1,0,0:0:0:0:
219,118,117431,5,0,0:0:0:0:
166,220,117574,1,0,0:0:0:0:
346,126,117716,1,0,0:0:0:0:
156,250,117859,5,0,0:0:0:0:
209,148,118002,1,0,0:0:0:0:
29,242,118144,1,0,0:0:0:0:
111,371,118288,6,0,L|166:242,1,90.0000010490418
29,242,118574,1,0,0:0:0:0:
209,148,118717,2,0,P|112:140|89:166,1,90.0000010490418
153,270,119002,1,0,0:0:0:0:
298,246,119145,5,0,0:0:0:0:
209,148,119288,1,0,0:0:0:0:
324,43,119431,1,0,0:0:0:0:
235,141,119574,1,0,0:0:0:0:
352,235,119717,1,0,0:0:0:0:
263,137,119860,1,0,0:0:0:0:
388,34,120002,5,0,0:0:0:0:
299,132,120145,1,0,0:0:0:0:
467,72,120288,1,0,0:0:0:0:
273,35,120431,2,0,P|213:76|202:112,1,90.0000010490418
407,193,120717,1,0,0:0:0:0:
299,132,120859,5,0,0:0:0:0:
404,75,121002,1,0,0:0:0:0:
307,266,121145,1,0,0:0:0:0:
285,148,121288,1,0,0:0:0:0:
138,348,121431,1,0,0:0:0:0:
279,274,121574,1,0,0:0:0:0:
135,122,121717,5,0,0:0:0:0:
54,292,121859,1,0,0:0:0:0:
160,226,122002,1,0,0:0:0:0:
101,32,122145,2,0,P|43:91|40:132,1,90.0000010490418
254,168,122431,1,0,0:0:0:0:
121,145,122574,6,0,L|148:259,1,90.0000010490418
21,215,122859,1,0,0:0:0:0:
270,18,123002,2,0,L|243:132,1,90.0000010490418
370,88,123287,1,0,0:0:0:0:
113,122,123431,5,0,0:0:0:0:
270,212,123574,1,0,0:0:0:0:
118,241,123717,1,0,0:0:0:0:
334,116,123859,2,0,P|385:199|377:229,1,90.0000010490418
190,341,124145,1,0,0:0:0:0:
289,232,124288,6,0,L|296:304,1,45.0000005245209
488,61,124717,2,0,L|481:133,1,45.0000005245209
242,220,125145,5,0,0:0:0:0:
362,140,125288,1,0,0:0:0:0:
479,55,125431,1,0,0:0:0:0:
171,48,125574,5,0,0:0:0:0:
255,113,125717,1,0,0:0:0:0:
357,177,125860,1,0,0:0:0:0:
60,190,126002,6,0,L|155:167,1,67.5000007867814
122,357,126217,2,0,L|27:334,1,67.5000007867814
212,253,126431,1,0,0:0:0:0:
225,252,126538,1,0,0:0:0:0:
238,252,126645,1,0,0:0:0:0:
252,251,126752,1,0,0:0:0:0:
265,251,126859,6,0,P|311:301|309:344,1,89.9999976158143
469,32,127074,2,0,P|395:92|406:236,1,179.999995231629
275,160,127395,1,0,0:0:0:0:
178,138,127502,2,0,P|230:77|270:78,1,89.9999976158143
159,236,127717,6,0,L|3:234,1,89.9999976158143
234,33,128038,1,0,0:0:0:0:
234,33,128092,1,0,0:0:0:0:
234,33,128145,2,0,L|389:35,1,89.9999976158143
159,273,128359,2,0,L|3:271,1,89.9999976158143
339,56,128574,6,0,P|289:86|294:175,1,89.9999976158143
382,350,128788,2,0,B|344:262|344:262|387:155,1,179.999995231629
465,190,129217,2,0,L|340:181,1,89.9999976158143
171,19,129431,2,0,L|296:10,1,89.9999976158143
172,39,129859,6,0,L|305:31,1,89.9999976158143
