osu file format v14

[General]
AudioFilename: audio.mp3
AudioLeadIn: 0
PreviewTime: 43536
Countdown: 1
SampleSet: Soft
StackLeniency: 0.7
Mode: 0
LetterboxInBreaks: 0
WidescreenStoryboard: 1

[Editor]
DistanceSpacing: 1
BeatDivisor: 4
GridSize: 8
TimelineZoom: 1

[Metadata]
Title:Suicide
TitleUnicode:Suicide
Artist:M2U
ArtistUnicode:M2U
Creator:defiance
Version:Normal
Source:
Tags:1st soul violinism piano osuskrub
BeatmapID:1557641
BeatmapSetID:732084

[Difficulty]
HPDrainRate:3
CircleSize:3
OverallDifficulty:3
ApproachRate:4.5
SliderMultiplier:1.45
SliderTickRate:1

[Events]
//Background and Video events
0,0,"i-love-mir.jpg",0,0
//Break Periods
//Storyboard Layer 0 (Background)
//Storyboard Layer 1 (Fail)
//Storyboard Layer 2 (Pass)
//Storyboard Layer 3 (Foreground)
//Storyboard Sound Samples

[TimingPoints]
1151,500,3,2,1,20,1,0
1651,500,3,2,1,30,1,0
1651,-142.857142857143,3,2,1,30,0,0
8651,-142.857142857143,3,2,1,40,0,0
9651,-142.857142857143,3,2,1,30,0,0
11401,-142.857142857143,3,2,1,40,0,0
13651,-142.857142857143,3,2,1,45,0,0
14401,-142.857142857143,3,2,1,55,0,0
16151,-142.857142857143,3,2,1,40,0,0
16651,-142.857142857143,3,2,1,50,0,0
19401,-142.857142857143,3,2,1,40,0,0
19651,-142.857142857143,3,2,1,60,0,0
20651,-142.857142857143,3,2,1,50,0,0
20901,-142.857142857143,3,2,1,55,0,0
21401,-142.857142857143,3,2,1,60,0,0
21651,-142.857142857143,3,2,1,30,0,0
22651,-142.857142857143,3,2,1,50,0,0
23401,-142.857142857143,3,2,1,55,0,0
24901,-142.857142857143,3,2,1,65,0,0
26651,-142.857142857143,3,2,1,70,0,0
27651,-142.857142857143,3,2,1,50,0,0
28401,-142.857142857143,3,2,1,50,0,0
29401,-142.857142857143,3,2,1,40,0,0
31651,-142.857142857143,3,2,1,55,0,0
33901,-142.857142857143,3,2,1,65,0,0
35401,-142.857142857143,3,2,1,45,0,0
36151,-142.857142857143,3,2,1,55,0,0
37651,-142.857142857143,3,2,1,50,0,0
43651,-142.857142857143,3,2,1,50,0,0
49901,-142.857142857143,3,2,1,40,0,0
54901,-142.857142857143,3,2,1,65,0,0
55651,-142.857142857143,3,2,1,60,0,0
56651,-142.857142857143,3,2,1,70,0,0
59151,-142.857142857143,3,2,1,50,0,0
62151,-142.857142857143,3,2,1,45,0,0
69151,-142.857142857143,3,2,1,60,0,0
70651,-142.857142857143,3,2,1,55,0,0
72901,-142.857142857143,3,2,1,65,0,0
73651,-142.857142857143,3,2,1,55,0,0
79651,-142.857142857143,3,2,1,40,0,0
91651,-142.857142857143,3,2,1,60,0,0
93151,-142.857142857143,3,2,1,65,0,0
96151,-142.857142857143,3,2,1,70,0,0
97151,-142.857142857143,3,2,1,75,0,0
98401,-142.857142857143,3,2,1,80,0,0
99161,517.241379310345,3,2,1,50,1,0
99161,-142.857142857143,3,2,1,50,0,0
99678,535.714285714286,3,2,1,50,1,0
99945,-142.857142857143,3,2,1,90,0,0
100213,361.44578313253,3,2,1,50,1,0
100213,-200,3,2,1,50,0,0
100574,444.444444444444,3,2,1,50,1,0
101018,631.578947368421,3,2,1,50,1,0
101333,714.285714285714,3,2,1,50,1,0
101690,800,3,2,1,50,1,0
101690,-100,3,2,1,50,0,0
102090,800,3,2,1,40,1,0
102090,-100,3,2,1,40,0,0
102522,983.606557377049,3,2,1,30,1,0
102522,-100,3,2,1,30,0,0
102981,983.606557377049,3,2,1,20,1,0
102981,-100,3,2,1,20,0,0
103472,800,3,2,1,20,1,0

[Colours]
Combo1 : 255,255,128
Combo2 : 128,128,192
Combo3 : 0,128,192

[HitObjects]
374,35,1651,6,0,P|375:82|373:140,1,101.499996902466,2|0,0:0|0:0,0:0:0:0:
353,183,2401,1,2,0:0:0:0:
255,212,2901,2,0,B|193:220|193:220|143:211,2,101.499996902466,2|0|2,0:0|0:0|0:0,0:0:0:0:
302,189,4151,1,2,0:0:0:0:
250,101,4651,6,0,P|206:90|144:99,1,101.499996902466,2|2,0:0|0:0,0:0:0:0:
69,157,5651,1,2,0:0:0:0:
39,254,6151,1,2,0:0:0:0:
175,321,6901,2,0,P|145:325|106:346,2,50.749998451233,0|2|0,0:0|0:0|0:0,0:0:0:0:
225,324,7651,6,0,P|232:278|217:221,1,101.499996902466,2|0,0:0|0:0,0:0:0:0:
268,136,8651,2,0,P|297:131|328:134,1,50.749998451233,2|2,0:0|0:0,0:0:0:0:
399,193,9401,2,0,P|404:222|401:253,1,50.749998451233,2|2,0:0|0:0,0:0:0:0:
375,341,10151,1,0,0:0:0:0:
274,330,10651,6,0,B|244:312|244:312|161:327,1,101.499996902466,2|0,0:0|0:0,0:0:0:0:
130,341,11401,2,0,P|99:348|65:345,2,50.749998451233,2|0|2,0:0|0:0|0:0,0:0:0:0:
154,296,12151,1,2,0:0:0:0:
202,206,12651,1,2,0:0:0:0:
167,110,13151,2,0,P|131:108|103:116,1,50.749998451233,2|0,0:0|0:0,0:0:0:0:
74,140,13651,6,0,P|57:187|74:250,1,101.499996902466,2|0,0:0|0:0,0:0:0:0:
106,267,14401,2,0,L|158:270,1,50.749998451233,2|0,0:0|0:0,0:0:0:0:
257,282,15151,2,0,L|258:218,1,50.749998451233,2|0,0:0|0:0,0:0:0:0:
355,203,15901,2,0,L|361:264,2,50.749998451233,0|2|0,0:0|0:0|0:0,0:0:0:0:
344,153,16651,6,0,P|300:147|226:174,1,101.499996902466,2|2,0:0|0:0,0:0:0:0:
158,213,17651,1,2,0:0:0:0:
94,292,18151,5,2,0:0:0:0:
237,344,18901,2,0,L|187:340,2,50.749998451233,2|0|2,0:0|0:0|0:0,0:0:0:0:
287,345,19651,2,0,P|296:280|285:236,1,101.499996902466,2|0,0:0|0:0,0:0:0:0:
226,165,20651,2,0,P|181:166|153:175,1,50.749998451233,2|2,0:0|0:0,0:0:0:0:
89,114,21401,6,0,P|87:78|94:49,1,50.749998451233,2|0,0:0|0:0,0:0:0:0:
184,28,22151,1,2,0:0:0:0:
274,74,22651,2,0,B|307:89|307:89|383:73,1,101.499996902466,2|0,0:0|0:0,0:0:0:0:
420,63,23401,2,0,P|437:91|428:166,1,101.499996902466,2|0,0:0|0:0,0:0:0:0:
420,207,24151,5,2,0:0:0:0:
320,321,24901,2,0,P|273:309|212:324,1,101.499996902466,2|2,0:0|0:0,0:0:0:0:
174,337,25651,1,2,0:0:0:0:
23,316,26401,1,0,0:0:0:0:
64,286,26651,2,0,L|69:220,1,50.749998451233,2|0,0:0|0:0,0:0:0:0:
111,208,27151,6,0,P|116:158|94:95,1,101.499996902466,2|0,0:0|0:0,0:0:0:0:
94,58,27901,2,0,P|159:51|205:66,1,101.499996902466,2|2,0:0|0:0,0:0:0:0:
229,96,28651,2,0,P|277:105|327:89,1,101.499996902466,2|0,0:0|0:0,0:0:0:0:
351,133,29401,2,0,L|342:199,2,50.749998451233,0|2|0,0:0|0:0|0:0,0:0:0:0:
373,87,30151,2,0,P|423:78|477:101,1,101.499996902466,2|2,0:0|0:0,0:0:0:0:
502,192,31151,1,2,0:0:0:0:
451,280,31651,5,2,0:0:0:0:
299,297,32401,2,0,L|355:307,2,50.749998451233,0|2|0,0:0|0:0|0:0,0:0:0:0:
249,286,33151,2,0,B|244:224|244:224|254:166,1,101.499996902466,2|0,0:0|0:0,0:0:0:0:
253,135,33901,2,0,P|250:90|242:69,2,50.749998451233,2|0|2,0:0|0:0|0:0,0:0:0:0:
288,170,34651,5,2,0:0:0:0:
377,293,35401,2,0,L|314:296,2,50.749998451233,0|2|0,0:0|0:0|0:0,0:0:0:0:
420,266,36151,2,0,P|423:234|415:204,1,50.749998451233,2|0,0:0|0:0,0:0:0:0:
376,188,36651,2,0,P|373:156|381:126,1,50.749998451233,2|0,0:0|0:0,0:0:0:0:
413,102,37151,1,2,0:0:0:0:
323,53,37651,6,0,B|286:44|286:44|210:66,1,101.499996902466,2|2,0:0|0:0,0:0:0:0:
180,85,38401,1,0,0:0:0:0:
152,127,38651,2,0,P|148:158|151:195,1,50.749998451233,2|0,0:0|0:0,0:0:0:0:
152,228,39151,2,0,B|189:244|189:244|258:236,1,101.499996902466,2|2,0:0|0:0,0:0:0:0:
296,216,39901,2,0,B|333:200|333:200|351:202|402:208,1,101.499996902466,2|2,0:0|0:0,0:0:0:0:
442,223,40651,5,2,0:0:0:0:
407,127,41151,2,0,L|341:119,2,50.749998451233,2|0|2,0:0|0:0|0:0,0:0:0:0:
457,134,41901,1,0,0:0:0:0:
495,101,42151,1,2,0:0:0:0:
193,56,43651,6,0,L|85:65,1,101.499996902466,2|0,0:0|0:0,0:0:0:0:
15,130,44651,2,0,L|23:183,1,50.749998451233,2|0,0:0|0:0,0:0:0:0:
62,212,45151,1,0,0:0:0:0:
159,183,45651,2,0,P|163:149|154:115,2,50.749998451233,2|2|2,0:0|0:0|0:0,0:0:0:0:
134,227,46401,1,2,0:0:0:0:
95,258,46651,6,0,P|57:264|28:260,2,50.749998451233,2|0|2,0:0|0:0|0:0,0:0:0:0:
134,290,47401,1,0,0:0:0:0:
175,260,47651,2,0,P|202:257|239:266,1,50.749998451233,2|0,0:0|0:0,0:0:0:0:
269,235,48151,1,2,0:0:0:0:
214,92,48901,1,2,0:0:0:0:
186,49,49151,2,0,P|148:46|119:57,1,50.749998451233,2|0,0:0|0:0,0:0:0:0:
86,58,49651,5,2,0:0:0:0:
43,86,49901,2,0,P|13:179|36:296,1,202.999993804932
75,303,51151,1,2,0:0:0:0:
117,330,51401,2,0,P|210:360|327:337,1,202.999993804932
355,316,52651,5,2,0:0:0:0:
393,282,52901,2,0,P|423:189|400:72,1,202.999993804932
367,54,54151,2,0,P|334:49|266:61,1,101.499996902466,2|0,0:0|0:0,0:0:0:0:
224,87,54901,1,2,0:0:0:0:
256,126,55151,2,0,P|259:170|257:196,1,50.749998451233,2|2,0:0|0:0,0:0:0:0:
241,225,55651,6,0,B|279:233|279:233|350:220,1,101.499996902466,2|0,0:0|0:0,0:0:0:0:
425,165,56651,1,2,0:0:0:0:
480,80,57151,1,0,0:0:0:0:
433,60,57401,2,0,P|380:51|313:64,1,101.499996902466,2|0,0:0|0:0,0:0:0:0:
285,75,58151,1,2,0:0:0:0:
285,176,58651,5,2,0:0:0:0:
204,114,59151,2,0,P|163:112|105:136,1,101.499996902466,2|2,0:0|0:0,0:0:0:0:
51,219,60151,2,0,P|44:270|45:326,1,101.499996902466,2|2,0:0|0:0,0:0:0:0:
141,351,61151,1,2,0:0:0:0:
232,305,61651,6,0,P|281:301|334:326,1,101.499996902466,2|0,0:0|0:0,0:0:0:0:
423,356,62651,1,2,0:0:0:0:
474,268,63151,2,0,L|478:213,1,50.749998451233,0|0,0:0|0:0,0:0:0:0:
460,169,63651,1,2,0:0:0:0:
394,91,64151,1,2,0:0:0:0:
298,57,64651,6,0,B|265:52|265:52|195:71,1,101.499996902466,2|2,0:0|0:0,0:0:0:0:
103,104,65651,1,2,0:0:0:0:
175,174,66151,2,0,L|177:237,1,50.749998451233,2|0,0:0|0:0,0:0:0:0:
146,265,66651,2,0,P|103:271|75:262,2,50.749998451233,2|0|2,0:0|0:0|0:0,0:0:0:0:
194,251,67401,1,0,0:0:0:0:
244,257,67651,6,0,P|298:247|353:265,1,101.499996902466,2|2,0:0|0:0,0:0:0:0:
443,260,68651,2,0,P|448:293|447:318,1,50.749998451233,2|2,0:0|0:0,0:0:0:0:
427,356,69151,2,0,P|360:365|328:359,1,101.499996902466,2|0,0:0|0:0,0:0:0:0:
283,332,69901,2,0,P|286:296|306:269,2,50.749998451233,2|2|0,0:0|0:0|0:0,0:0:0:0:
244,364,70651,6,0,P|205:370|138:343,1,101.499996902466,2|2,0:0|0:0,0:0:0:0:
76,276,71651,2,0,L|85:227,1,50.749998451233,2|0,0:0|0:0,0:0:0:0:
127,198,72151,2,0,P|132:126|119:87,1,101.499996902466,2|0,0:0|0:0,0:0:0:0:
90,60,72901,2,0,P|44:63|18:73,2,50.749998451233,2|2|0,0:0|0:0|0:0,0:0:0:0:
138,45,73651,6,0,P|205:44|239:62,1,101.499996902466,2|2,0:0|0:0,0:0:0:0:
281,78,74401,1,0,0:0:0:0:
305,122,74651,2,0,P|310:165|307:191,1,50.749998451233,2|0,0:0|0:0,0:0:0:0:
316,222,75151,2,0,P|367:236|425:217,1,101.499996902466,2|2,0:0|0:0,0:0:0:0:
455,196,75901,1,0,0:0:0:0:
478,151,76151,2,0,P|477:111|475:82,1,50.749998451233,2|0,0:0|0:0,0:0:0:0:
455,54,76651,6,0,P|397:42|340:59,1,101.499996902466,2|2,0:0|0:0,0:0:0:0:
309,70,77401,1,0,0:0:0:0:
263,91,77651,2,0,P|226:98|203:96,1,50.749998451233,2|0,0:0|0:0,0:0:0:0:
162,91,78151,1,2,0:0:0:0:
367,242,79651,5,2,0:0:0:0:
269,270,80151,2,0,L|265:322,2,50.749998451233,2|0|2,0:0|0:0|0:0,0:0:0:0:
279,169,81151,1,2,0:0:0:0:
287,16,81901,1,2,0:0:0:0:
138,48,82651,5,2,0:0:0:0:
87,136,83151,2,0,L|34:131,2,50.749998451233,2|0|2,0:0|0:0|0:0,0:0:0:0:
137,130,83901,1,0,0:0:0:0:
137,130,84151,1,2,0:0:0:0:
289,131,84901,1,2,0:0:0:0:
202,256,85651,5,2,0:0:0:0:
293,299,86151,2,0,L|287:354,2,50.749998451233,2|0|2,0:0|0:0|0:0,0:0:0:0:
317,254,86901,1,0,0:0:0:0:
317,254,87151,6,0,P|323:209|321:150,1,101.499996902466,2|2,0:0|0:0,0:0:0:0:
261,70,88151,2,0,L|321:65,1,50.749998451233,2|0,0:0|0:0,0:0:0:0:
359,50,88651,2,0,P|363:12|360:-12,2,50.749998451233,2|0|0,0:0|0:0|0:0,0:0:0:0:
392,88,89401,2,0,P|430:92|454:89,2,50.749998451233,2|0|0,0:0|0:0|0:0,0:0:0:0:
345,109,90151,5,2,0:0:0:0:
218,194,90901,2,0,L|164:188,2,50.749998451233,0|2|0,0:0|0:0|0:0,0:0:0:0:
268,190,91651,2,0,P|286:250|276:361,1,152.249995353699,2|0,0:0|0:0,0:0:0:0:
233,351,92651,2,0,L|166:357,1,50.749998451233,2|0,0:0|0:0,0:0:0:0:
135,335,93151,6,0,P|120:284|130:221,1,101.499996902466,2|2,0:0|0:0,0:0:0:0:
144,189,93901,1,0,0:0:0:0:
168,144,94151,2,0,P|170:97|163:72,1,50.749998451233,2|0,0:0|0:0,0:0:0:0:
197,51,94651,2,0,P|230:47|268:51,1,50.749998451233,2|0,0:0|0:0,0:0:0:0:
293,69,95151,1,2,0:0:0:0:
321,111,95401,1,0,0:0:0:0:
346,154,95651,2,0,P|348:197|341:219,1,50.749998451233,2|0,0:0|0:0,0:0:0:0:
333,253,96151,6,0,P|384:268|442:239,1,101.499996902466,2|2,0:0|0:0,0:0:0:0:
471,160,97151,1,2,0:0:0:0:
400,86,97651,2,0,L|405:34,2,50.749998451233,2|0|0,0:0|0:0|0:0,0:0:0:0:
373,128,98401,2,0,L|378:180,2,50.749998451233,2|0|0,0:0|0:0|0:0,0:0:0:0:
337,91,99161,6,0,P|280:77|226:93,1,101.499996902466,2|0,0:0|0:0,0:0:0:0:
197,114,99945,2,0,P|170:127|132:128,1,50.749998451233,2|2,0:0|0:0,0:0:0:0:
33,106,100574,1,2,0:0:0:0:
256,192,101018,12,0,103472,0:0:0:0:
