osu file format v14

[General]
AudioFilename: audio.mp3
AudioLeadIn: 0
PreviewTime: 24151
Countdown: 0
SampleSet: Soft
StackLeniency: 0.4
Mode: 0
LetterboxInBreaks: 0
WidescreenStoryboard: 0

[Editor]
DistanceSpacing: 1.5
BeatDivisor: 4
GridSize: 32
TimelineZoom: 1.8

[Metadata]
Title:Suicide
TitleUnicode:Suicide
Artist:M2U
ArtistUnicode:M2U
Creator:Sakura Blossom
Version:Misfortune
Source:
Tags:Sakura Style, Sakura Blossom, M2U, Suicide, Misfortune
BeatmapID:1991927
BeatmapSetID:954078

[Difficulty]
HPDrainRate:4
CircleSize:4.3
OverallDifficulty:6
ApproachRate:8
SliderMultiplier:1.85
SliderTickRate:1

[Events]
//Background and Video events
0,0,"waifu2.jpeg",0,0
//Break Periods
//Storyboard Layer 0 (Background)
//Storyboard Layer 1 (Fail)
//Storyboard Layer 2 (Pass)
//Storyboard Layer 3 (Foreground)
//Storyboard Sound Samples

[TimingPoints]
1151,500,3,2,1,25,1,0
1651,500,3,2,1,25,1,0
1651,-142.857142857143,3,2,1,25,0,0
14401,-200,3,2,1,25,0,0
14432,-200,3,2,1,5,0,0
14651,-200,3,2,1,25,0,0
15182,-200,3,2,1,5,0,0
15401,-200,3,2,1,25,0,0
16151,-142.857142857143,3,2,1,25,0,0
19651,-400,3,2,1,25,0,0
20651,-142.857142857143,3,2,1,25,0,0
22651,-400,3,2,1,25,0,0
24088,-142.857142857143,3,2,1,25,0,0
36651,-200,3,2,1,25,0,0
37651,-142.857142857143,3,2,1,25,0,0
42151,-1000,3,2,1,15,0,0
43401,-1000,3,2,1,5,0,0
43651,-400,3,2,1,25,0,0
44651,-142.857142857143,3,2,1,25,0,0
56682,-200,3,2,1,5,0,0
57401,-142.857142857143,3,2,1,25,0,0
57432,-142.857142857143,3,2,1,5,0,0
58151,-400,3,2,1,5,0,0
58401,-142.857142857143,3,2,1,5,0,0
59151,-142.857142857143,3,2,1,15,0,0
62151,-142.857142857143,3,2,1,30,0,0
70651,-200,3,2,1,25,0,0
72151,-142.857142857143,3,2,1,25,0,0
78151,-200,3,2,1,15,0,0
79651,-100,3,2,1,40,0,1
91651,-142.857142857143,3,2,1,40,0,1
99161,517.241379310345,3,2,1,40,1,1
99678,535.714285714286,3,2,1,40,1,1
99678,-100,3,2,1,27,0,0
99945,-100,3,2,1,27,0,0
100213,361.44578313253,3,2,1,27,1,0
100213,-200,3,2,1,27,0,0
100574,444.444444444444,3,2,1,27,1,0
100907,-200,3,2,1,15,0,0
101018,631.578947368421,3,2,1,15,1,0
101333,714.285714285714,3,2,1,14,1,0
101690,800,3,2,1,13,1,0
102090,800,3,2,1,12,1,0
102522,983.606557377049,3,2,1,11,1,0
102981,983.606557377049,3,2,1,10,1,0
103472,800,3,2,1,5,1,0

[Colours]
Combo1 : 128,255,128
Combo2 : 0,255,255
Combo3 : 255,128,192
Combo4 : 255,255,128

[HitObjects]
402,191,1526,6,0,L|402:156,2,23.125,2|0|2,0:0|0:0|0:0,0:0:0:0:
349,261,2151,1,2,0:0:0:0:
271,217,2401,2,0,P|259:262|267:298,1,64.7499980239869,2|0,0:0|0:0,0:0:0:0:
264,292,2901,5,2,0:0:0:0:
231,306,3401,1,2,0:0:0:0:
186,294,3901,5,2,0:0:0:0:
127,238,4151,1,2,0:0:0:0:
86,138,4401,1,2,0:0:0:0:
256,32,4651,5,2,0:0:0:0:
321,73,5151,1,2,0:0:0:0:
399,139,5651,5,2,0:0:0:0:
312,146,5901,1,2,0:0:0:0:
412,268,6151,5,2,0:0:0:0:
294,216,6901,1,2,0:0:0:0:
399,139,7151,1,2,0:0:0:0:
412,268,7401,1,2,0:0:0:0:
312,334,7588,1,2,0:0:0:0:
308,328,7651,6,0,B|302:269|302:269|300:261|300:261|292:203,1,113.312496541977,2|0,0:0|0:0,0:0:0:0:
201,212,8401,1,2,0:0:0:0:
191,80,8651,1,2,0:0:0:0:
257,128,8901,2,0,P|301:132|334:140,1,64.7499980239869,2|0,0:0|0:0,0:0:0:0:
270,51,9401,5,2,0:0:0:0:
342,75,9651,2,0,L|319:140,1,64.7499980239869,2|0,0:0|0:0,0:0:0:0:
393,160,10151,2,0,L|397:224,1,64.7499980239869,2|0,0:0|0:0,0:0:0:0:
431,316,10588,1,2,0:0:0:0:
426,312,10651,6,0,B|384:321|350:301|350:301|320:313|302:344,1,129.499996047974,2|0,0:0|0:0,0:0:0:0:
231,369,11401,1,2,0:0:0:0:
151,345,11651,1,2,0:0:0:0:
72,321,11901,1,2,0:0:0:0:
10,363,12151,5,2,0:0:0:0:
7,346,12651,1,2,0:0:0:0:
22,268,13151,5,2,0:0:0:0:
101,209,13401,1,2,0:0:0:0:
188,244,13651,2,0,P|188:180|150:129,1,129.499996047974,2|0,0:0|0:0,0:0:0:0:
344,34,14401,6,0,L|342:44,1,5.78125,2|0,0:0|0:0,0:0:0:0:
276,70,14651,1,2,0:0:0:0:
340,107,15151,6,0,L|337:117,1,5.78125,2|0,0:0|0:0,0:0:0:0:
276,145,15401,1,2,0:0:0:0:
344,180,15901,5,2,0:0:0:0:
242,211,16151,1,2,0:0:0:0:
130,161,16401,1,2,0:0:0:0:
204,21,16651,6,0,P|210:57|211:96,1,72.8437477769852,2|0,0:0|0:0,0:0:0:0:
242,211,16984,1,2,0:0:0:0:
247,218,17067,1,2,0:0:0:0:
252,223,17151,2,0,P|273:241|318:258,1,64.7499980239869,2|0,0:0|0:0,0:0:0:0:
383,340,17651,5,2,0:0:0:0:
441,276,17901,1,2,0:0:0:0:
316,255,18151,5,2,0:0:0:0:
227,164,18838,1,2,0:0:0:0:
222,156,18901,2,0,B|212:118|212:118|211:91,1,64.7499980239869,2|0,0:0|0:0,0:0:0:0:
138,28,19401,1,2,0:0:0:0:
39,35,19651,6,0,P|43:60|52:82,1,46.25,2|0,0:0|0:0,0:0:0:0:
30,158,20401,1,2,0:0:0:0:
222,156,20651,1,2,0:0:0:0:
260,229,20901,1,2,0:0:0:0:
395,253,21401,5,2,0:0:0:0:
423,176,21651,1,2,0:0:0:0:
239,66,21901,1,2,0:0:0:0:
311,27,22151,2,0,B|351:23|351:23|387:26,1,64.7499980239869,2|0,0:0|0:0,0:0:0:0:
423,176,22651,6,0,L|433:223,1,46.25,2|0,0:0|0:0,0:0:0:0:
354,227,23401,2,0,L|343:273,1,46.25,2|0,0:0|0:0,0:0:0:0:
423,176,24088,1,2,0:0:0:0:
427,167,24151,6,0,P|425:128|411:93,1,64.7499980239869,2|0,0:0|0:0,0:0:0:0:
422,23,24651,1,2,0:0:0:0:
296,99,24838,2,0,L|283:107,1,16.1874995059967,2|0,0:0|0:0,0:0:0:0:
249,41,25401,1,2,0:0:0:0:
137,11,25651,5,2,0:0:0:0:
91,74,26401,1,2,0:0:0:0:
99,216,26651,1,2,0:0:0:0:
23,130,26901,1,2,0:0:0:0:
246,230,27151,1,2,0:0:0:0:
241,241,27651,5,2,0:0:0:0:
339,134,27901,1,2,0:0:0:0:
380,204,28401,1,2,0:0:0:0:
222,156,28651,6,0,B|200:128|200:128|189:89,2,64.7499980239869,2|0|2,0:0|0:0|0:0,0:0:0:0:
261,252,29401,1,2,0:0:0:0:
228,346,29651,1,2,0:0:0:0:
135,302,29901,1,2,0:0:0:0:
168,208,30151,6,0,L|175:139,1,64.7499980239869,2|0,0:0|0:0,0:0:0:0:
110,137,30651,6,0,L|174:143,1,64.7499980239869,2|0,0:0|0:0,0:0:0:0:
116,72,31151,6,0,L|109:136,1,64.7499980239869,2|0,0:0|0:0,0:0:0:0:
180,65,31651,6,0,L|115:71,1,64.7499980239869,2|0,0:0|0:0,0:0:0:0:
174,143,32401,5,2,0:0:0:0:
252,82,32651,1,0,0:0:0:0:
267,177,32901,1,2,0:0:0:0:
115,71,33151,6,0,B|97:41|97:41|67:21,2,64.7499980239869,2|0|0,0:0|0:0|0:0,0:0:0:0:
43,103,33838,6,0,L|55:128,1,16.1874995059967,2|0,0:0|0:0,0:0:0:0:
133,229,34151,1,2,0:0:0:0:
300,233,34401,1,2,0:0:0:0:
354,316,34651,1,2,0:0:0:0:
441,52,35401,5,2,0:0:0:0:
473,136,35651,1,2,0:0:0:0:
267,62,35901,1,2,0:0:0:0:
209,139,36088,1,2,0:0:0:0:
204,147,36151,2,0,L|174:205,1,64.7499980239869,2|0,0:0|0:0,0:0:0:0:
110,271,36651,6,0,L|99:216,1,46.25,2|0,0:0|0:0,0:0:0:0:
176,335,37151,2,0,L|187:280,1,46.25,2|0,0:0|0:0,0:0:0:0:
253,234,37651,5,2,0:0:0:0:
334,226,37901,1,2,0:0:0:0:
415,218,38151,1,2,0:0:0:0:
376,297,38401,5,2,0:0:0:0:
334,226,38651,1,2,0:0:0:0:
293,156,38901,1,2,0:0:0:0:
415,218,39088,1,2,0:0:0:0:
417,206,39151,6,0,B|421:156|421:156|461:130|462:79,1,129.499996047974,2|2,0:0|0:0,0:0:0:0:
386,84,39901,2,0,B|337:57|337:57|327:47|327:47|271:24,1,129.499996047974,2|2,0:0|0:0,0:0:0:0:
125,50,40651,5,2,0:3:0:0:
121,111,40901,1,2,0:0:0:0:
82,80,41151,1,2,0:3:0:0:
114,83,41401,1,2,0:0:0:0:
88,129,41651,1,2,0:3:0:0:
118,128,41901,1,2,0:0:0:0:
106,182,42151,2,0,L|102:229,1,46.25,4|0,0:0|0:0,0:0:0:0:
241,227,43588,5,2,0:0:0:0:
241,218,43651,2,0,P|254:184|263:170,1,46.25,2|0,0:0|0:0,0:0:0:0:
238,67,44651,6,0,B|259:81|297:69|297:69|330:88|363:75,1,129.499996047974,2|0,0:0|0:0,0:0:0:0:
382,178,45401,1,0,0:0:0:0:
402,262,45651,1,2,0:0:0:0:
175,191,45901,1,2,0:0:0:0:
250,129,46151,2,0,B|246:89|246:89|228:42,1,64.7499980239869,4|2,3:0|3:0,3:0:0:0:
144,102,46651,6,0,L|161:14,1,64.7499980239869,2|0,0:0|0:0,0:0:0:0:
78,179,47151,2,0,L|56:92,1,64.7499980239869,2|0,0:0|0:0,0:0:0:0:
122,294,47651,1,2,0:0:0:0:
175,191,47901,1,2,0:0:0:0:
297,73,48151,6,0,L|295:161,1,64.7499980239869,2|0,0:0|0:0,0:0:0:0:
338,208,48651,1,2,0:0:0:0:
334,306,48901,1,2,0:0:0:0:
236,302,49151,1,2,0:0:0:0:
240,204,49401,1,2,0:0:0:0:
334,306,49651,2,0,L|413:322,1,64.7499980239869
429,251,50151,5,4,3:2:0:0:
331,291,50401,1,2,0:0:0:0:
320,122,50651,1,4,3:2:0:0:
360,221,50901,1,2,0:0:0:0:
421,138,51151,6,0,L|424:65,1,64.7499980239869,2|0,0:0|0:0,0:0:0:0:
314,110,51651,5,4,3:2:0:0:
216,70,51901,1,2,0:0:0:0:
205,239,52151,1,4,3:2:0:0:
245,140,52401,1,2,0:0:0:0:
148,175,52651,6,0,L|101:220,1,64.7499980239869,2|0,0:0|0:0,0:0:0:0:
214,246,53151,5,4,3:2:0:0:
254,344,53401,1,2,0:0:0:0:
85,355,53651,1,4,3:2:0:0:
184,315,53901,1,2,0:0:0:0:
98,259,54151,6,0,L|112:189,1,64.7499980239869,2|0,0:0|0:0,0:0:0:0:
224,239,54651,5,2,0:0:0:0:
323,279,54901,1,4,3:2:0:0:
154,268,55151,1,2,0:0:0:0:
244,130,55401,1,4,3:2:0:0:
328,87,55651,6,0,L|318:167,1,64.7499980239869,2|0,0:0|0:0,0:0:0:0:
396,156,56151,2,0,L|420:232,1,64.7499980239869,2|0,0:0|0:0,0:0:0:0:
473,145,56651,6,0,L|471:137,1,8.09374975299836,2|0,0:0|0:0,0:0:0:0:
490,59,56901,2,0,L|442:72,1,46.25,2|0,0:0|0:0,0:0:0:0:
390,142,57401,6,0,L|384:136,1,8.09374975299836,2|0,0:0|0:0,0:0:0:0:
307,113,57651,2,0,L|352:65,1,64.7499980239869,2|0,0:0|0:0,0:0:0:0:
236,197,58088,1,2,0:0:0:0:
235,188,58151,2,0,L|225:166,1,23.125,2|0,0:0|0:0,0:0:0:0:
132,112,58651,5,2,0:0:0:0:
103,202,59151,6,4,L|77:167,1,32.3749990119934,0|0,0:0|0:0,0:0:0:0:
183,201,59401,2,0,L|188:164,1,32.3749990119934
145,266,59651,6,0,L|176:275,1,32.3749990119934
249,239,59901,2,0,L|285:241,1,32.3749990119934
250,314,60151,2,0,L|277:330,1,32.3749990119934
357,314,60401,2,0,L|391:326,1,32.3749990119934
439,264,60651,6,0,L|455:291,1,32.3749990119934
431,187,60901,2,0,L|446:158,1,32.3749990119934
369,226,61151,2,0,L|336:226,1,32.3749990119934
256,177,61401,2,0,L|296:161,1,32.3749990119934
341,42,61651,5,4,0:0:0:0:
228,46,62151,6,0,L|155:33,1,64.7499980239869,2|0,0:0|0:0,0:0:0:0:
171,108,62588,1,2,0:0:0:0:
163,110,62651,2,0,L|89:116,1,64.7499980239869,2|0,0:0|0:0,0:0:0:0:
129,188,63151,2,0,L|64:224,1,64.7499980239869,2|0,0:0|0:0,0:0:0:0:
140,274,63651,5,2,0:0:0:0:
282,266,63901,1,2,0:0:0:0:
196,342,64151,1,2,0:0:0:0:
261,199,64401,1,2,0:0:0:0:
199,137,64651,2,0,L|205:63,1,64.7499980239869,2|0,0:0|0:0,0:0:0:0:
277,103,65151,2,0,L|313:38,1,64.7499980239869,2|0,0:0|0:0,0:0:0:0:
466,35,65651,1,2,0:0:0:0:
372,85,65901,1,2,0:0:0:0:
465,140,66151,6,0,L|497:204,1,64.7499980239869,2|0,0:0|0:0,0:0:0:0:
395,198,66651,5,2,0:0:0:0:
337,275,66901,1,2,0:0:0:0:
188,194,67151,1,2,0:0:0:0:
220,278,67401,1,2,0:0:0:0:
310,215,67651,6,0,L|336:273,1,64.7499980239869,2|0,0:0|0:0,0:0:0:0:
395,198,68151,5,2,0:0:0:0:
479,230,68401,1,2,0:0:0:0:
398,81,68651,1,2,0:0:0:0:
475,23,68901,1,2,0:0:0:0:
395,198,69151,6,0,L|262:185,1,129.499996047974,2|0,0:0|0:0,0:0:0:0:
147,206,69901,5,2,0:0:0:0:
51,125,70151,1,2,0:0:0:0:
205,115,70651,6,0,P|243:157|272:195,1,92.5,2|2,0:0|0:0,0:0:0:0:
256,268,71401,1,2,0:0:0:0:
256,356,71651,1,2,0:0:0:0:
332,312,71901,1,2,0:0:0:0:
376,236,72151,6,0,L|397:174,1,64.7499980239869,2|0,0:0|0:0,0:0:0:0:
256,268,72651,1,2,0:0:0:0:
300,192,72901,1,2,0:0:0:0:
212,192,73151,2,0,L|125:173,1,64.7499980239869,2|0,0:0|0:0,0:0:0:0:
200,117,73651,2,0,L|135:84,1,64.7499980239869,2|0,0:0|0:0,0:0:0:0:
54,80,74151,5,2,0:0:0:0:
69,171,74401,1,2,0:0:0:0:
0,244,74651,1,2,0:0:0:0:
12,302,74901,1,2,0:0:0:0:
3,381,75088,5,2,0:0:0:0:
14,380,75151,2,0,L|89:385,1,64.7499980239869,2|0,0:0|0:0,0:0:0:0:
147,349,75651,2,0,L|183:295,1,64.7499980239869,2|0,0:0|0:0,0:0:0:0:
241,240,76151,2,0,L|269:298,1,64.7499980239869,2|0,0:0|0:0,0:0:0:0:
358,302,76651,5,2,0:0:0:0:
341,336,76901,1,2,0:0:0:0:
356,354,77151,5,2,0:0:0:0:
352,365,77401,5,2,0:0:0:0:
364,377,77651,6,0,L|439:372,1,64.7499980239869,2|0,0:0|0:0,0:0:0:0:
493,240,78151,6,0,L|496:227,2,11.5625,2|0|0,0:0|0:0|0:0,0:0:0:0:
167,93,79651,6,0,B|168:143|168:143|174:163|174:163|168:180|168:180|166:283,1,185,2|2,0:0|0:0,0:0:0:0:
291,337,80401,1,2,0:0:0:0:
166,276,80651,1,2,0:0:0:0:
290,337,81151,6,0,B|316:241|267:243|298:147,1,185,2|0,0:0|0:0,0:0:0:0:
388,203,81901,5,2,0:0:0:0:
295,154,82526,5,2,0:0:0:0:
295,154,82588,1,2,0:0:0:0:
295,154,82651,2,0,B|222:148|187:91|187:91|151:95|129:84,1,185,2|2,0:0|0:0,0:0:0:0:
34,123,83401,5,2,0:0:0:0:
34,255,83651,1,2,0:0:0:0:
148,189,83901,1,2,0:0:0:0:
34,123,84151,6,0,B|76:72|143:80|143:80|173:118|211:113,1,185,2|0,0:0|0:0,0:0:0:0:
34,255,84901,1,2,0:0:0:0:
148,189,85651,6,0,B|161:224|154:262|154:262|219:291|247:349,1,185,2|2,0:0|0:0,0:0:0:0:
321,277,86401,1,2,0:0:0:0:
290,153,86651,1,2,0:0:0:0:
343,210,86901,1,2,0:0:0:0:
354,292,87151,5,2,0:0:0:0:
359,203,87401,2,0,L|374:107,1,92.5,2|0,0:0|0:0,0:0:0:0:
346,36,88151,5,2,0:0:0:0:
266,94,88401,1,2,0:0:0:0:
168,124,88651,5,2,0:0:0:0:
136,173,88901,1,2,0:0:0:0:
145,199,89151,1,2,0:0:0:0:
128,227,89401,5,2,0:0:0:0:
146,308,89651,1,2,0:0:0:0:
211,374,89901,1,2,0:0:0:0:
276,242,90151,5,2,0:0:0:0:
290,250,90901,1,2,0:0:0:0:
148,242,91151,1,2,0:0:0:0:
234,318,91401,1,2,0:0:0:0:
134,95,91651,2,0,P|197:108|263:135,1,129.499996047974,2|0,0:0|0:0,0:0:0:0:
381,96,92401,1,2,0:0:0:0:
376,190,92651,1,2,0:0:0:0:
466,299,92901,1,2,0:0:0:0:
366,282,93088,5,2,0:0:0:0:
357,280,93151,2,0,L|281:267,1,64.7499980239869,2|0,0:0|0:0,0:0:0:0:
164,245,93651,1,2,0:3:0:0:
103,241,93901,1,2,0:0:0:0:
134,202,94151,1,2,0:3:0:0:
131,234,94401,1,2,0:0:0:0:
49,178,94651,6,0,L|58:103,1,64.7499980239869,2|0,0:0|0:0,0:0:0:0:
112,32,95151,1,2,0:3:0:0:
188,37,95401,1,2,0:0:0:0:
149,85,95651,1,2,0:3:0:0:
153,45,95901,1,2,0:0:0:0:
225,143,96151,6,0,B|263:82|288:111|323:57,1,129.499996047974,2|2,0:0|0:0,0:0:0:0:
428,38,96901,1,2,0:3:0:0:
434,130,97151,1,2,0:0:0:0:
493,84,97401,1,2,0:3:0:0:
321,60,97651,6,0,L|326:130,1,64.7499980239869,2|0,0:0|0:0,0:0:0:0:
373,190,98151,1,2,0:0:0:0:
225,143,98401,1,2,0:0:0:0:
287,200,98651,2,0,L|273:273,1,64.7499980239869,2|0,0:0|0:0,0:0:0:0:
384,281,99161,6,0,L|372:189,1,92.5
470,225,99678,1,2,0:0:0:0:
453,321,99945,5,2,0:0:0:0:
388,369,100213,2,0,L|288:358,1,92.5,2|2,0:0|0:0,0:0:0:0:
188,218,100907,6,0,L|179:208,2,11.5625
317,177,101333,5,0,0:0:0:0:
268,109,101690,5,0,0:0:0:0:
188,135,102090,5,0,0:0:0:0:
188,218,102522,5,0,0:0:0:0:
268,244,102981,5,0,0:0:0:0:
317,177,103472,6,0,L|332:175,3,11.5625
