osu file format v14

[General]
AudioFilename: audio.mp3
AudioLeadIn: 0
PreviewTime: 22081
Countdown: 0
SampleSet: Soft
StackLeniency: 0.7
Mode: 3
LetterboxInBreaks: 0
SpecialStyle: 0
WidescreenStoryboard: 1

[Editor]
DistanceSpacing: 1.6
BeatDivisor: 4
GridSize: 8
TimelineZoom: 1.3

[Metadata]
Title:Stellar
TitleUnicode:Stellar
Artist:M2U
ArtistUnicode:M2U
Creator:mufugai
Version:mufu
Source:Deemo
Tags:NICODE SQUAR SQUARE MUSIQ Rayark Hans Diversity. BEST ALBUM
BeatmapID:1977889
BeatmapSetID:946995

[Difficulty]
HPDrainRate:6
CircleSize:4
OverallDifficulty:9
ApproachRate:9
SliderMultiplier:1.52
SliderTickRate:2

[Events]
//Background and Video events
0,0,"stellar.jpg",0,0
//Break Periods
//Storyboard Layer 0 (Background)
//Storyboard Layer 1 (Fail)
//Storyboard Layer 2 (Pass)
//Storyboard Layer 3 (Foreground)
//Storyboard Sound Samples

[TimingPoints]
564,300,3,2,1,55,1,0
22165,-100,3,2,1,55,0,1
36005,-100,3,2,1,55,0,0
50995,-100,3,2,1,55,0,1
64764,-100,3,2,1,55,0,0
79764,-100,3,2,1,55,0,1
93880,-100,3,2,1,55,0,0

[Colours]
Combo1 : 252,223,109
Combo2 : 89,147,234
Combo3 : 101,189,237
Combo4 : 255,194,128

[HitObjects]
320,192,564,128,0,864:0:0:0:0:
64,192,864,128,0,939:0:0:0:0:
320,192,1426,1,0,0:0:0:0:
448,192,1464,128,0,1764:0:0:0:0:
64,192,1764,128,0,1839:0:0:0:0:
192,192,2064,1,0,0:0:0:0:
448,192,2214,1,0,0:0:0:0:
320,192,2364,1,0,0:0:0:0:
64,192,2364,128,0,2664:0:0:0:0:
192,192,2664,1,0,0:0:0:0:
448,192,2664,1,0,0:0:0:0:
192,192,3264,128,0,3564:0:0:0:0:
320,192,3264,128,0,3564:0:0:0:0:
64,192,3564,1,0,0:0:0:0:
448,192,3564,128,0,3864:0:0:0:0:
320,192,3864,128,0,4164:0:0:0:0:
192,192,4164,1,0,0:0:0:0:
64,192,4164,128,0,4464:0:0:0:0:
320,192,4464,1,0,0:0:0:0:
448,192,4464,128,0,5064:0:0:0:0:
192,192,4614,1,0,0:0:0:0:
64,192,4764,1,0,0:0:0:0:
192,192,4914,1,0,0:0:0:0:
320,192,5064,1,0,0:0:0:0:
64,192,5064,128,0,5364:0:0:0:0:
192,192,5364,128,0,5964:0:0:0:0:
320,192,5514,1,0,0:0:0:0:
448,192,5664,1,0,0:0:0:0:
64,192,5814,1,0,0:0:0:0:
320,192,5964,1,0,0:0:0:0:
64,192,5964,128,0,6264:0:0:0:0:
448,192,6114,1,0,0:0:0:0:
192,192,6264,128,0,6564:0:0:0:0:
320,192,6264,1,0,0:0:0:0:
64,192,6414,1,0,0:0:0:0:
320,192,6564,1,0,0:0:0:0:
448,192,6564,128,0,6864:0:0:0:0:
64,192,6864,128,0,7764:0:0:0:0:
320,192,6864,128,0,7764:0:0:0:0:
192,192,7764,1,0,0:0:0:0:
448,192,7764,1,0,0:0:0:0:
64,192,8064,128,0,8364:0:0:0:0:
192,192,8364,128,0,8664:0:0:0:0:
448,192,8664,1,0,0:0:0:0:
320,192,8664,128,0,8964:0:0:0:0:
448,192,8964,128,0,9264:0:0:0:0:
320,192,9264,128,0,9564:0:0:0:0:
192,192,9564,128,0,9864:0:0:0:0:
64,192,9564,1,0,0:0:0:0:
64,192,9864,128,0,10164:0:0:0:0:
448,192,9864,128,0,10014:0:0:0:0:
320,192,10164,128,0,10464:0:0:0:0:
192,192,10464,128,0,10764:0:0:0:0:
64,192,10464,1,0,0:0:0:0:
320,192,10764,128,0,11064:0:0:0:0:
448,192,11064,128,0,11364:0:0:0:0:
64,192,11064,128,0,11214:0:0:0:0:
192,192,11364,128,0,11664:0:0:0:0:
320,192,11364,1,0,0:0:0:0:
320,192,11664,128,0,11964:0:0:0:0:
64,192,11664,128,0,11814:0:0:0:0:
448,192,11964,128,0,12264:0:0:0:0:
192,192,12264,1,0,0:0:0:0:
320,192,12264,128,0,12564:0:0:0:0:
64,192,12564,128,0,12864:0:0:0:0:
448,192,12564,128,0,12714:0:0:0:0:
192,192,12864,128,0,13164:0:0:0:0:
448,192,13164,128,0,13464:0:0:0:0:
64,192,13164,128,0,13314:0:0:0:0:
192,192,13464,128,0,13764:0:0:0:0:
320,192,13464,128,0,13764:0:0:0:0:
64,192,13764,128,0,14064:0:0:0:0:
192,192,14064,1,0,0:0:0:0:
448,192,14064,128,0,14364:0:0:0:0:
320,192,14064,1,0,0:0:0:0:
64,192,14364,128,0,14664:0:0:0:0:
320,192,14364,128,0,14664:0:0:0:0:
192,192,14664,128,0,14964:0:0:0:0:
448,192,14664,128,0,14964:0:0:0:0:
64,192,14964,128,0,15264:0:0:0:0:
320,192,14964,1,0,0:0:0:0:
192,192,15264,128,0,15564:0:0:0:0:
320,192,15264,1,0,0:0:0:0:
448,192,15414,1,0,0:0:0:0:
64,192,15564,1,0,0:0:0:0:
320,192,15564,1,0,0:0:0:0:
448,192,15601,1,0,0:0:0:0:
64,192,15639,1,0,0:0:0:0:
192,192,15676,1,0,0:0:0:0:
320,192,15714,1,0,0:0:0:0:
448,192,15751,1,0,0:0:0:0:
64,192,15789,1,0,0:0:0:0:
192,192,15826,1,0,0:0:0:0:
320,192,15864,1,0,0:0:0:0:
448,192,15864,128,0,16164:0:0:0:0:
64,192,16164,128,0,16464:0:0:0:0:
192,192,16464,128,0,16764:0:0:0:0:
448,192,16764,128,0,17064:0:0:0:0:
320,192,16764,1,0,0:0:0:0:
320,192,17064,128,0,17364:0:0:0:0:
64,192,17064,128,0,17214:0:0:0:0:
192,192,17364,128,0,17664:0:0:0:0:
448,192,17364,128,0,17664:0:0:0:0:
64,192,17664,128,0,17964:0:0:0:0:
320,192,17664,1,0,0:0:0:0:
320,192,17814,1,0,0:0:0:0:
448,192,17889,1,0,0:0:0:0:
192,192,17964,128,0,18264:0:0:0:0:
320,192,17964,1,0,0:0:0:0:
64,192,18114,1,0,0:0:0:0:
448,192,18264,128,0,18564:0:0:0:0:
320,192,18264,1,0,0:0:0:0:
64,192,18414,1,0,0:0:0:0:
192,192,18564,1,0,0:0:0:0:
320,192,18564,128,0,18864:0:0:0:0:
64,192,18714,128,0,18864:0:0:0:0:
448,192,18864,128,0,19164:0:0:0:0:
192,192,18939,1,0,0:0:0:0:
64,192,19014,1,0,0:0:0:0:
192,192,19089,1,0,0:0:0:0:
64,192,19164,128,0,19464:0:0:0:0:
320,192,19314,128,0,19464:0:0:0:0:
192,192,19464,1,0,0:0:0:0:
448,192,19464,128,0,19614:0:0:0:0:
320,192,19614,128,0,19764:0:0:0:0:
192,192,19764,128,0,20064:0:0:0:0:
64,192,19764,1,0,0:0:0:0:
448,192,19839,1,0,0:0:0:0:
320,192,19914,1,0,0:0:0:0:
64,192,20064,128,0,20364:0:0:0:0:
320,192,20214,1,0,0:0:0:0:
192,192,20364,1,0,0:0:0:0:
448,192,20364,128,0,20664:0:0:0:0:
192,192,20514,1,0,0:0:0:0:
320,192,20532,1,0,0:0:0:0:
192,192,20664,128,0,21264:0:0:0:0:
320,192,20814,128,0,20889:0:0:0:0:
64,192,20964,128,0,21039:0:0:0:0:
448,192,21114,1,0,0:0:0:0:
64,192,21264,1,0,0:0:0:0:
320,192,21264,128,0,21564:0:0:0:0:
448,192,21414,128,0,21489:0:0:0:0:
192,192,21564,128,0,21714:0:0:0:0:
64,192,21714,128,0,21864:0:0:0:0:
320,192,21864,128,0,22014:0:0:0:0:
448,192,22014,128,0,22164:0:0:0:0:
64,192,22164,1,0,0:0:0:0:
320,192,22164,128,0,22464:0:0:0:0:
192,192,22314,1,0,0:0:0:0:
64,192,22464,1,0,0:0:0:0:
448,192,22464,128,0,22764:0:0:0:0:
192,192,22614,1,0,0:0:0:0:
320,192,22764,1,0,0:0:0:0:
64,192,22764,128,0,23214:0:0:0:0:
192,192,22914,1,0,0:0:0:0:
320,192,23064,1,0,0:0:0:0:
448,192,23064,128,0,23364:0:0:0:0:
192,192,23214,1,0,0:0:0:0:
64,192,23364,1,0,0:0:0:0:
320,192,23364,128,0,23664:0:0:0:0:
192,192,23514,1,0,0:0:0:0:
448,192,23664,1,0,0:0:0:0:
192,192,23664,128,0,24114:0:0:0:0:
64,192,23814,1,0,0:0:0:0:
320,192,23964,1,0,0:0:0:0:
448,192,23964,128,0,24264:0:0:0:0:
64,192,24114,1,0,0:0:0:0:
320,192,24264,1,0,0:0:0:0:
64,192,24264,128,0,24564:0:0:0:0:
448,192,24414,1,0,0:0:0:0:
192,192,24414,1,0,0:0:0:0:
320,192,24564,1,0,0:0:0:0:
448,192,24564,128,0,25014:0:0:0:0:
192,192,24714,1,0,0:0:0:0:
64,192,24714,1,0,0:0:0:0:
320,192,24864,1,0,0:0:0:0:
192,192,24864,128,0,25164:0:0:0:0:
64,192,25014,1,0,0:0:0:0:
320,192,25164,1,0,0:0:0:0:
64,192,25164,128,0,25464:0:0:0:0:
448,192,25314,1,0,0:0:0:0:
320,192,25464,1,0,0:0:0:0:
192,192,25464,128,0,25914:0:0:0:0:
448,192,25614,1,0,0:0:0:0:
64,192,25764,1,0,0:0:0:0:
320,192,25764,128,0,26064:0:0:0:0:
448,192,25914,1,0,0:0:0:0:
192,192,26064,1,0,0:0:0:0:
64,192,26064,128,0,26364:0:0:0:0:
448,192,26214,1,0,0:0:0:0:
320,192,26364,1,0,0:0:0:0:
448,192,26364,128,0,26814:0:0:0:0:
192,192,26514,1,0,0:0:0:0:
64,192,26664,1,0,0:0:0:0:
320,192,26664,128,0,26964:0:0:0:0:
192,192,26814,1,0,0:0:0:0:
64,192,26964,1,0,0:0:0:0:
192,192,26964,128,0,27264:0:0:0:0:
448,192,27114,1,0,0:0:0:0:
320,192,27264,1,0,0:0:0:0:
64,192,27264,128,0,27714:0:0:0:0:
192,192,27414,1,0,0:0:0:0:
320,192,27564,1,0,0:0:0:0:
448,192,27564,128,0,27864:0:0:0:0:
192,192,27714,1,0,0:0:0:0:
192,192,27864,1,0,0:0:0:0:
320,192,27864,128,0,28164:0:0:0:0:
64,192,28014,1,0,0:0:0:0:
448,192,28014,1,0,0:0:0:0:
448,192,28164,1,0,0:0:0:0:
192,192,28164,128,0,28614:0:0:0:0:
64,192,28314,1,0,0:0:0:0:
320,192,28314,1,0,0:0:0:0:
448,192,28464,1,0,0:0:0:0:
64,192,28464,128,0,28764:0:0:0:0:
320,192,28614,1,0,0:0:0:0:
320,192,28764,1,0,0:0:0:0:
448,192,28764,128,0,29064:0:0:0:0:
192,192,28914,1,0,0:0:0:0:
64,192,29064,1,0,0:0:0:0:
320,192,29064,128,0,29514:0:0:0:0:
448,192,29214,1,0,0:0:0:0:
192,192,29214,1,0,0:0:0:0:
64,192,29364,1,0,0:0:0:0:
192,192,29364,128,0,29664:0:0:0:0:
448,192,29514,1,0,0:0:0:0:
320,192,29664,1,0,0:0:0:0:
64,192,29664,128,0,29964:0:0:0:0:
448,192,29814,1,0,0:0:0:0:
192,192,29964,1,0,0:0:0:0:
320,192,29964,128,0,30414:0:0:0:0:
448,192,30114,1,0,0:0:0:0:
64,192,30264,1,0,0:0:0:0:
192,192,30264,128,0,30564:0:0:0:0:
64,192,30414,1,0,0:0:0:0:
448,192,30564,1,0,0:0:0:0:
320,192,30564,128,0,30864:0:0:0:0:
64,192,30714,1,0,0:0:0:0:
192,192,30864,1,0,0:0:0:0:
64,192,30864,128,0,31314:0:0:0:0:
448,192,31014,1,0,0:0:0:0:
192,192,31164,1,0,0:0:0:0:
320,192,31164,128,0,31464:0:0:0:0:
448,192,31314,1,0,0:0:0:0:
192,192,31464,1,0,0:0:0:0:
448,192,31464,128,0,31764:0:0:0:0:
320,192,31614,1,0,0:0:0:0:
64,192,31614,1,0,0:0:0:0:
64,192,31764,1,0,0:0:0:0:
192,192,31764,128,0,32214:0:0:0:0:
320,192,31914,1,0,0:0:0:0:
448,192,31914,1,0,0:0:0:0:
448,192,32064,1,0,0:0:0:0:
64,192,32064,128,0,32364:0:0:0:0:
320,192,32214,1,0,0:0:0:0:
448,192,32364,1,0,0:0:0:0:
320,192,32364,128,0,32664:0:0:0:0:
64,192,32514,1,0,0:0:0:0:
448,192,32664,1,0,0:0:0:0:
192,192,32664,128,0,33114:0:0:0:0:
320,192,32814,1,0,0:0:0:0:
64,192,32964,1,0,0:0:0:0:
320,192,32964,128,0,33264:0:0:0:0:
448,192,33114,1,0,0:0:0:0:
64,192,33264,1,0,0:0:0:0:
448,192,33264,128,0,33564:0:0:0:0:
192,192,33414,1,0,0:0:0:0:
64,192,33564,1,0,0:0:0:0:
192,192,33564,128,0,34014:0:0:0:0:
320,192,33714,1,0,0:0:0:0:
64,192,33864,1,0,0:0:0:0:
448,192,33864,128,0,34164:0:0:0:0:
320,192,34014,1,0,0:0:0:0:
64,192,34164,1,0,0:0:0:0:
320,192,34164,128,0,34464:0:0:0:0:
192,192,34314,1,0,0:0:0:0:
64,192,34464,1,0,0:0:0:0:
192,192,34464,128,0,34914:0:0:0:0:
448,192,34614,1,0,0:0:0:0:
64,192,34764,1,0,0:0:0:0:
320,192,34764,128,0,35064:0:0:0:0:
448,192,34914,1,0,0:0:0:0:
64,192,35064,1,0,0:0:0:0:
192,192,35064,128,0,35364:0:0:0:0:
448,192,35214,1,0,0:0:0:0:
320,192,35214,1,0,0:0:0:0:
64,192,35364,1,0,0:0:0:0:
320,192,35364,128,0,35514:0:0:0:0:
192,192,35514,1,0,0:0:0:0:
448,192,35514,128,0,35664:0:0:0:0:
64,192,35514,1,0,0:0:0:0:
320,192,35664,1,0,0:0:0:0:
64,192,35664,128,0,35964:0:0:0:0:
192,192,35814,128,0,35964:0:0:0:0:
320,192,35964,1,0,0:0:0:0:
448,192,36114,1,0,0:0:0:0:
64,192,36189,1,0,0:0:0:0:
192,192,36226,1,0,0:0:0:0:
320,192,36264,1,0,0:0:0:0:
448,192,36301,1,0,0:0:0:0:
64,192,36339,1,0,0:0:0:0:
192,192,36376,1,0,0:0:0:0:
320,192,36414,1,0,0:0:0:0:
320,192,36564,1,0,0:0:0:0:
448,192,36564,128,0,36864:0:0:0:0:
64,192,36864,128,0,37164:0:0:0:0:
320,192,36864,128,0,37164:0:0:0:0:
192,192,37164,128,0,37464:0:0:0:0:
448,192,37314,1,0,0:0:0:0:
64,192,37464,1,0,0:0:0:0:
320,192,37464,128,0,37764:0:0:0:0:
448,192,37614,1,0,0:0:0:0:
192,192,37764,128,0,37914:0:0:0:0:
448,192,37764,128,0,38064:0:0:0:0:
64,192,37914,128,0,38064:0:0:0:0:
192,192,38064,128,0,38364:0:0:0:0:
320,192,38214,1,0,0:0:0:0:
64,192,38364,1,0,0:0:0:0:
448,192,38364,128,0,38664:0:0:0:0:
320,192,38514,1,0,0:0:0:0:
192,192,38664,1,0,0:0:0:0:
64,192,38814,1,0,0:0:0:0:
192,192,38964,1,0,0:0:0:0:
320,192,38964,1,0,0:0:0:0:
448,192,39114,1,0,0:0:0:0:
320,192,39189,1,0,0:0:0:0:
448,192,39264,1,0,0:0:0:0:
64,192,39264,1,0,0:0:0:0:
192,192,39564,128,0,39864:0:0:0:0:
64,192,39864,128,0,40164:0:0:0:0:
448,192,40014,1,0,0:0:0:0:
320,192,40164,1,0,0:0:0:0:
192,192,40164,128,0,40464:0:0:0:0:
320,192,40464,128,0,40614:0:0:0:0:
64,192,40464,1,0,0:0:0:0:
448,192,40614,128,0,40764:0:0:0:0:
64,192,40764,1,0,0:0:0:0:
192,192,40764,128,0,41064:0:0:0:0:
320,192,41064,1,0,0:0:0:0:
448,192,41064,1,0,0:0:0:0:
64,192,41064,128,0,41514:0:0:0:0:
192,192,41214,1,0,0:0:0:0:
320,192,41364,1,0,0:0:0:0:
448,192,41514,1,0,0:0:0:0:
320,192,41514,128,0,41964:0:0:0:0:
192,192,41664,1,0,0:0:0:0:
448,192,41814,1,0,0:0:0:0:
64,192,41964,1,0,0:0:0:0:
192,192,41964,1,0,0:0:0:0:
448,192,42114,1,0,0:0:0:0:
192,192,42264,1,0,0:0:0:0:
64,192,42264,128,0,42564:0:0:0:0:
320,192,42414,1,0,0:0:0:0:
448,192,42489,1,0,0:0:0:0:
320,192,42564,1,0,0:0:0:0:
192,192,42714,1,0,0:0:0:0:
64,192,42864,1,0,0:0:0:0:
448,192,42864,128,0,43164:0:0:0:0:
192,192,43014,1,0,0:0:0:0:
320,192,43164,1,0,0:0:0:0:
192,192,43164,128,0,43764:0:0:0:0:
64,192,43314,1,0,0:0:0:0:
448,192,43464,1,0,0:0:0:0:
320,192,43464,128,0,43764:0:0:0:0:
64,192,43614,1,0,0:0:0:0:
448,192,43764,1,0,0:0:0:0:
64,192,43839,1,0,0:0:0:0:
192,192,43914,1,0,0:0:0:0:
448,192,43914,1,0,0:0:0:0:
320,192,44064,128,0,44664:0:0:0:0:
64,192,44214,128,0,44664:0:0:0:0:
192,192,44364,1,0,0:0:0:0:
448,192,44439,1,0,0:0:0:0:
192,192,44514,1,0,0:0:0:0:
448,192,44589,1,0,0:0:0:0:
192,192,44664,128,0,44964:0:0:0:0:
448,192,44814,1,0,0:0:0:0:
64,192,44964,128,0,45264:0:0:0:0:
448,192,45264,1,0,0:0:0:0:
192,192,45414,1,0,0:0:0:0:
320,192,45564,1,0,0:0:0:0:
64,192,45564,1,0,0:0:0:0:
448,192,45714,1,0,0:0:0:0:
320,192,45864,1,0,0:0:0:0:
192,192,45864,128,0,46464:0:0:0:0:
448,192,46014,1,0,0:0:0:0:
64,192,46164,1,0,0:0:0:0:
320,192,46314,128,0,46464:0:0:0:0:
64,192,46464,128,0,46614:0:0:0:0:
448,192,46464,128,0,47064:0:0:0:0:
192,192,46614,128,0,46764:0:0:0:0:
320,192,46764,128,0,46914:0:0:0:0:
64,192,46914,128,0,47064:0:0:0:0:
192,192,47064,1,0,0:0:0:0:
320,192,47064,128,0,47364:0:0:0:0:
64,192,47214,1,0,0:0:0:0:
448,192,47364,1,0,0:0:0:0:
192,192,47364,128,0,47664:0:0:0:0:
64,192,47364,1,0,0:0:0:0:
64,192,47514,1,0,0:0:0:0:
448,192,47664,128,0,47814:0:0:0:0:
320,192,47814,1,0,0:0:0:0:
64,192,47814,128,0,47964:0:0:0:0:
192,192,47964,128,0,48264:0:0:0:0:
320,192,48114,1,0,0:0:0:0:
64,192,48264,1,0,0:0:0:0:
448,192,48264,1,0,0:0:0:0:
320,192,48264,1,0,0:0:0:0:
320,192,48414,128,0,48564:0:0:0:0:
448,192,48564,128,0,48714:0:0:0:0:
192,192,48714,1,0,0:0:0:0:
64,192,48714,128,0,48864:0:0:0:0:
320,192,48864,128,0,49014:0:0:0:0:
192,192,49014,128,0,49164:0:0:0:0:
64,192,49164,1,0,0:0:0:0:
448,192,49164,1,0,0:0:0:0:
320,192,49164,1,0,0:0:0:0:
192,192,49314,1,0,0:0:0:0:
320,192,49314,1,0,0:0:0:0:
64,192,49464,128,0,49614:0:0:0:0:
320,192,49614,1,0,0:0:0:0:
448,192,49614,1,0,0:0:0:0:
448,192,49764,1,0,0:0:0:0:
192,192,49764,1,0,0:0:0:0:
320,192,49914,1,0,0:0:0:0:
192,192,50064,1,0,0:0:0:0:
64,192,50064,1,0,0:0:0:0:
448,192,50064,1,0,0:0:0:0:
320,192,50214,1,0,0:0:0:0:
448,192,50364,1,0,0:0:0:0:
64,192,50364,128,0,50664:0:0:0:0:
192,192,50364,1,0,0:0:0:0:
448,192,50514,1,0,0:0:0:0:
320,192,50514,1,0,0:0:0:0:
192,192,50664,1,0,0:0:0:0:
448,192,50664,1,0,0:0:0:0:
320,192,50664,128,0,50964:0:0:0:0:
192,192,50964,1,0,0:0:0:0:
64,192,50964,1,0,0:0:0:0:
448,192,50964,128,0,51264:0:0:0:0:
192,192,51114,1,0,0:0:0:0:
64,192,51264,128,0,51564:0:0:0:0:
320,192,51264,1,0,0:0:0:0:
192,192,51414,1,0,0:0:0:0:
192,192,51564,128,0,52014:0:0:0:0:
448,192,51564,1,0,0:0:0:0:
320,192,51714,1,0,0:0:0:0:
448,192,51864,128,0,52164:0:0:0:0:
64,192,51864,1,0,0:0:0:0:
320,192,52014,1,0,0:0:0:0:
320,192,52164,128,0,52464:0:0:0:0:
64,192,52164,1,0,0:0:0:0:
192,192,52314,1,0,0:0:0:0:
192,192,52464,128,0,52914:0:0:0:0:
448,192,52464,1,0,0:0:0:0:
64,192,52614,1,0,0:0:0:0:
448,192,52764,128,0,53064:0:0:0:0:
320,192,52764,1,0,0:0:0:0:
64,192,52914,1,0,0:0:0:0:
64,192,53064,128,0,53364:0:0:0:0:
320,192,53064,1,0,0:0:0:0:
192,192,53214,1,0,0:0:0:0:
320,192,53214,1,0,0:0:0:0:
192,192,53364,128,0,53814:0:0:0:0:
448,192,53364,1,0,0:0:0:0:
64,192,53514,1,0,0:0:0:0:
320,192,53514,1,0,0:0:0:0:
320,192,53664,128,0,53964:0:0:0:0:
448,192,53664,1,0,0:0:0:0:
64,192,53814,1,0,0:0:0:0:
448,192,53964,128,0,54264:0:0:0:0:
192,192,53964,1,0,0:0:0:0:
64,192,54114,1,0,0:0:0:0:
192,192,54264,128,0,54714:0:0:0:0:
320,192,54264,1,0,0:0:0:0:
448,192,54414,1,0,0:0:0:0:
64,192,54564,128,0,54864:0:0:0:0:
320,192,54564,1,0,0:0:0:0:
448,192,54714,1,0,0:0:0:0:
320,192,54864,128,0,55164:0:0:0:0:
192,192,54864,1,0,0:0:0:0:
64,192,55014,1,0,0:0:0:0:
448,192,55164,128,0,55614:0:0:0:0:
192,192,55164,1,0,0:0:0:0:
64,192,55314,1,0,0:0:0:0:
64,192,55464,128,0,55764:0:0:0:0:
320,192,55464,1,0,0:0:0:0:
192,192,55614,1,0,0:0:0:0:
192,192,55764,128,0,56064:0:0:0:0:
448,192,55764,1,0,0:0:0:0:
320,192,55914,1,0,0:0:0:0:
320,192,56064,128,0,56514:0:0:0:0:
64,192,56064,1,0,0:0:0:0:
448,192,56214,1,0,0:0:0:0:
448,192,56364,128,0,56664:0:0:0:0:
192,192,56364,1,0,0:0:0:0:
64,192,56514,1,0,0:0:0:0:
192,192,56664,128,0,56964:0:0:0:0:
320,192,56664,1,0,0:0:0:0:
64,192,56814,1,0,0:0:0:0:
320,192,56814,1,0,0:0:0:0:
320,192,56964,128,0,57414:0:0:0:0:
448,192,56964,1,0,0:0:0:0:
192,192,57114,1,0,0:0:0:0:
64,192,57114,1,0,0:0:0:0:
64,192,57264,128,0,57564:0:0:0:0:
448,192,57264,1,0,0:0:0:0:
192,192,57414,1,0,0:0:0:0:
448,192,57414,1,0,0:0:0:0:
192,192,57564,128,0,57864:0:0:0:0:
448,192,57564,1,0,0:0:0:0:
64,192,57714,1,0,0:0:0:0:
320,192,57864,128,0,58314:0:0:0:0:
448,192,57864,1,0,0:0:0:0:
64,192,58014,1,0,0:0:0:0:
448,192,58164,128,0,58464:0:0:0:0:
192,192,58164,1,0,0:0:0:0:
64,192,58314,1,0,0:0:0:0:
64,192,58464,128,0,58764:0:0:0:0:
192,192,58464,1,0,0:0:0:0:
320,192,58614,1,0,0:0:0:0:
192,192,58764,128,0,59214:0:0:0:0:
448,192,58764,1,0,0:0:0:0:
64,192,58914,1,0,0:0:0:0:
320,192,59064,128,0,59364:0:0:0:0:
448,192,59064,1,0,0:0:0:0:
64,192,59214,1,0,0:0:0:0:
64,192,59364,128,0,59664:0:0:0:0:
448,192,59364,1,0,0:0:0:0:
192,192,59514,1,0,0:0:0:0:
448,192,59664,128,0,60114:0:0:0:0:
320,192,59664,1,0,0:0:0:0:
192,192,59814,1,0,0:0:0:0:
192,192,59964,128,0,60264:0:0:0:0:
64,192,59964,1,0,0:0:0:0:
320,192,60114,1,0,0:0:0:0:
64,192,60264,128,0,60564:0:0:0:0:
448,192,60264,1,0,0:0:0:0:
320,192,60414,1,0,0:0:0:0:
320,192,60564,128,0,61014:0:0:0:0:
192,192,60564,1,0,0:0:0:0:
448,192,60714,1,0,0:0:0:0:
448,192,60864,128,0,61164:0:0:0:0:
64,192,60864,1,0,0:0:0:0:
192,192,61014,1,0,0:0:0:0:
192,192,61164,128,0,61464:0:0:0:0:
64,192,61164,1,0,0:0:0:0:
320,192,61314,1,0,0:0:0:0:
64,192,61464,128,0,61914:0:0:0:0:
448,192,61464,1,0,0:0:0:0:
320,192,61614,1,0,0:0:0:0:
320,192,61764,128,0,62064:0:0:0:0:
192,192,61764,1,0,0:0:0:0:
448,192,61914,1,0,0:0:0:0:
448,192,62064,128,0,62364:0:0:0:0:
192,192,62064,1,0,0:0:0:0:
64,192,62214,1,0,0:0:0:0:
64,192,62364,128,0,62814:0:0:0:0:
320,192,62364,1,0,0:0:0:0:
192,192,62514,1,0,0:0:0:0:
320,192,62664,128,0,62964:0:0:0:0:
448,192,62664,1,0,0:0:0:0:
192,192,62814,1,0,0:0:0:0:
448,192,62964,128,0,63264:0:0:0:0:
64,192,62964,1,0,0:0:0:0:
192,192,63114,1,0,0:0:0:0:
192,192,63264,128,0,63714:0:0:0:0:
320,192,63264,1,0,0:0:0:0:
64,192,63414,1,0,0:0:0:0:
64,192,63564,128,0,63864:0:0:0:0:
448,192,63564,1,0,0:0:0:0:
320,192,63714,1,0,0:0:0:0:
320,192,63864,128,0,64164:0:0:0:0:
448,192,63864,1,0,0:0:0:0:
192,192,64014,1,0,0:0:0:0:
448,192,64164,128,0,64314:0:0:0:0:
64,192,64164,1,0,0:0:0:0:
192,192,64314,128,0,64464:0:0:0:0:
320,192,64314,1,0,0:0:0:0:
64,192,64464,128,0,64764:0:0:0:0:
448,192,64464,1,0,0:0:0:0:
320,192,64764,1,0,0:0:0:0:
320,192,64914,1,0,0:0:0:0:
192,192,65064,128,0,65364:0:0:0:0:
64,192,65364,1,0,0:0:0:0:
448,192,65364,128,0,65664:0:0:0:0:
320,192,65664,128,0,65964:0:0:0:0:
64,192,65814,1,0,0:0:0:0:
192,192,65964,1,0,0:0:0:0:
448,192,66114,1,0,0:0:0:0:
64,192,66264,1,0,0:0:0:0:
320,192,66264,128,0,66564:0:0:0:0:
448,192,66564,1,0,0:0:0:0:
192,192,66564,128,0,66714:0:0:0:0:
64,192,66714,1,0,0:0:0:0:
448,192,66864,1,0,0:0:0:0:
320,192,67014,1,0,0:0:0:0:
192,192,67164,128,0,67464:0:0:0:0:
64,192,67464,128,0,67764:0:0:0:0:
320,192,67614,1,0,0:0:0:0:
448,192,67764,1,0,0:0:0:0:
320,192,67914,1,0,0:0:0:0:
64,192,68064,1,0,0:0:0:0:
192,192,68064,128,0,68364:0:0:0:0:
320,192,68364,1,0,0:0:0:0:
448,192,68514,1,0,0:0:0:0:
64,192,68664,1,0,0:0:0:0:
320,192,68814,1,0,0:0:0:0:
192,192,68964,1,0,0:0:0:0:
448,192,68964,128,0,69264:0:0:0:0:
320,192,69264,1,0,0:0:0:0:
64,192,69414,1,0,0:0:0:0:
192,192,69564,1,0,0:0:0:0:
448,192,69714,1,0,0:0:0:0:
320,192,69864,1,0,0:0:0:0:
64,192,69864,128,0,70164:0:0:0:0:
192,192,70164,1,0,0:0:0:0:
320,192,70314,1,0,0:0:0:0:
448,192,70464,1,0,0:0:0:0:
192,192,70614,1,0,0:0:0:0:
64,192,70764,1,0,0:0:0:0:
320,192,70764,128,0,71064:0:0:0:0:
192,192,71064,128,0,71364:0:0:0:0:
64,192,71364,1,0,0:0:0:0:
320,192,71514,1,0,0:0:0:0:
448,192,71664,1,0,0:0:0:0:
192,192,71664,128,0,71814:0:0:0:0:
64,192,71814,128,0,71964:0:0:0:0:
320,192,71964,1,0,0:0:0:0:
448,192,71964,128,0,72114:0:0:0:0:
192,192,72114,128,0,72264:0:0:0:0:
320,192,72264,1,0,0:0:0:0:
64,192,72264,128,0,72414:0:0:0:0:
448,192,72414,128,0,72564:0:0:0:0:
320,192,72564,1,0,0:0:0:0:
192,192,72564,1,0,0:0:0:0:
64,192,72714,1,0,0:0:0:0:
448,192,72864,128,0,73164:0:0:0:0:
192,192,73014,1,0,0:0:0:0:
64,192,73164,1,0,0:0:0:0:
192,192,73314,1,0,0:0:0:0:
320,192,73464,1,0,0:0:0:0:
64,192,73464,128,0,73764:0:0:0:0:
448,192,73614,1,0,0:0:0:0:
192,192,73764,1,0,0:0:0:0:
320,192,73764,1,0,0:0:0:0:
448,192,73914,128,0,74064:0:0:0:0:
64,192,74064,128,0,74214:0:0:0:0:
192,192,74214,128,0,74364:0:0:0:0:
320,192,74364,1,0,0:0:0:0:
448,192,74364,1,0,0:0:0:0:
64,192,74514,1,0,0:0:0:0:
320,192,74664,128,0,75264:0:0:0:0:
192,192,74814,1,0,0:0:0:0:
64,192,74964,1,0,0:0:0:0:
448,192,75114,1,0,0:0:0:0:
64,192,75264,1,0,0:0:0:0:
192,192,75264,128,0,75864:0:0:0:0:
448,192,75414,1,0,0:0:0:0:
320,192,75564,1,0,0:0:0:0:
64,192,75714,1,0,0:0:0:0:
448,192,75864,128,0,76464:0:0:0:0:
320,192,76014,1,0,0:0:0:0:
192,192,76164,1,0,0:0:0:0:
64,192,76164,1,0,0:0:0:0:
320,192,76164,1,0,0:0:0:0:
192,192,76314,1,0,0:0:0:0:
192,192,76464,128,0,76764:0:0:0:0:
320,192,76614,1,0,0:0:0:0:
64,192,76764,128,0,77064:0:0:0:0:
320,192,77064,1,0,0:0:0:0:
192,192,77064,1,0,0:0:0:0:
448,192,77214,1,0,0:0:0:0:
448,192,77364,1,0,0:0:0:0:
320,192,77514,1,0,0:0:0:0:
192,192,77664,1,0,0:0:0:0:
64,192,77814,1,0,0:0:0:0:
192,192,77964,1,0,0:0:0:0:
320,192,77964,1,0,0:0:0:0:
448,192,77964,1,0,0:0:0:0:
64,192,78114,1,0,0:0:0:0:
448,192,78114,1,0,0:0:0:0:
320,192,78264,128,0,78414:0:0:0:0:
64,192,78414,1,0,0:0:0:0:
192,192,78414,1,0,0:0:0:0:
192,192,78564,1,0,0:0:0:0:
448,192,78564,1,0,0:0:0:0:
448,192,78714,1,0,0:0:0:0:
64,192,78714,1,0,0:0:0:0:
320,192,78714,1,0,0:0:0:0:
320,192,78864,1,0,0:0:0:0:
192,192,78864,128,0,79164:0:0:0:0:
448,192,79014,1,0,0:0:0:0:
320,192,79164,1,0,0:0:0:0:
448,192,79164,1,0,0:0:0:0:
64,192,79164,1,0,0:0:0:0:
320,192,79314,5,0,0:0:0:0:
448,192,79314,1,0,0:0:0:0:
192,192,79464,1,0,0:0:0:0:
64,192,79464,1,0,0:0:0:0:
320,192,79614,1,0,0:0:0:0:
448,192,79764,5,0,0:0:0:0:
64,192,79764,128,0,80064:0:0:0:0:
192,192,79864,1,0,0:0:0:0:
320,192,79964,1,0,0:0:0:0:
192,192,80064,5,0,0:0:0:0:
448,192,80064,128,0,80364:0:0:0:0:
320,192,80164,1,0,0:0:0:0:
192,192,80264,1,0,0:0:0:0:
64,192,80364,1,0,0:0:0:0:
320,192,80364,128,0,80764:0:0:0:0:
192,192,80464,1,0,0:0:0:0:
64,192,80564,1,0,0:0:0:0:
448,192,80664,1,0,0:0:0:0:
192,192,80664,128,0,80964:0:0:0:0:
64,192,80764,1,0,0:0:0:0:
448,192,80864,1,0,0:0:0:0:
320,192,80964,1,0,0:0:0:0:
64,192,80964,128,0,81264:0:0:0:0:
448,192,81064,1,0,0:0:0:0:
192,192,81164,1,0,0:0:0:0:
448,192,81264,1,0,0:0:0:0:
320,192,81264,128,0,81664:0:0:0:0:
192,192,81364,1,0,0:0:0:0:
64,192,81464,1,0,0:0:0:0:
192,192,81564,1,0,0:0:0:0:
448,192,81564,128,0,81864:0:0:0:0:
64,192,81664,1,0,0:0:0:0:
192,192,81764,5,0,0:0:0:0:
320,192,81864,1,0,0:0:0:0:
64,192,81864,128,0,82164:0:0:0:0:
192,192,81964,1,0,0:0:0:0:
448,192,82064,1,0,0:0:0:0:
192,192,82164,1,0,0:0:0:0:
320,192,82164,128,0,82564:0:0:0:0:
448,192,82264,1,0,0:0:0:0:
192,192,82364,1,0,0:0:0:0:
448,192,82464,1,0,0:0:0:0:
64,192,82464,128,0,82764:0:0:0:0:
192,192,82564,1,0,0:0:0:0:
448,192,82664,1,0,0:0:0:0:
320,192,82764,1,0,0:0:0:0:
192,192,82764,128,0,82914:0:0:0:0:
448,192,82864,1,0,0:0:0:0:
320,192,82914,128,0,83064:0:0:0:0:
64,192,82964,1,0,0:0:0:0:
448,192,83064,1,0,0:0:0:0:
64,192,83064,128,0,83464:0:0:0:0:
192,192,83164,1,0,0:0:0:0:
320,192,83264,1,0,0:0:0:0:
192,192,83364,1,0,0:0:0:0:
448,192,83364,128,0,83664:0:0:0:0:
320,192,83464,1,0,0:0:0:0:
192,192,83564,1,0,0:0:0:0:
64,192,83664,1,0,0:0:0:0:
320,192,83664,128,0,83964:0:0:0:0:
192,192,83764,5,0,0:0:0:0:
448,192,83864,1,0,0:0:0:0:
64,192,83964,1,0,0:0:0:0:
192,192,83964,128,0,84364:0:0:0:0:
448,192,84064,1,0,0:0:0:0:
320,192,84164,1,0,0:0:0:0:
448,192,84264,1,0,0:0:0:0:
64,192,84264,128,0,84564:0:0:0:0:
320,192,84364,1,0,0:0:0:0:
448,192,84464,1,0,0:0:0:0:
192,192,84564,1,0,0:0:0:0:
320,192,84564,128,0,84864:0:0:0:0:
448,192,84664,1,0,0:0:0:0:
64,192,84764,1,0,0:0:0:0:
192,192,84864,1,0,0:0:0:0:
448,192,84864,128,0,85264:0:0:0:0:
64,192,84964,1,0,0:0:0:0:
320,192,85064,1,0,0:0:0:0:
64,192,85164,1,0,0:0:0:0:
192,192,85164,128,0,85464:0:0:0:0:
320,192,85264,1,0,0:0:0:0:
64,192,85364,1,0,0:0:0:0:
320,192,85464,1,0,0:0:0:0:
448,192,85464,128,0,85614:0:0:0:0:
64,192,85564,1,0,0:0:0:0:
320,192,85614,128,0,85764:0:0:0:0:
192,192,85664,1,0,0:0:0:0:
64,192,85764,5,0,0:0:0:0:
192,192,85764,128,0,85914:0:0:0:0:
320,192,85864,1,0,0:0:0:0:
64,192,85914,128,0,86164:0:0:0:0:
448,192,85964,1,0,0:0:0:0:
192,192,86064,1,0,0:0:0:0:
448,192,86064,128,0,86364:0:0:0:0:
320,192,86164,1,0,0:0:0:0:
192,192,86264,1,0,0:0:0:0:
320,192,86364,1,0,0:0:0:0:
192,192,86364,128,0,86514:0:0:0:0:
64,192,86464,1,0,0:0:0:0:
320,192,86514,128,0,86664:0:0:0:0:
448,192,86564,1,0,0:0:0:0:
64,192,86664,1,0,0:0:0:0:
192,192,86764,1,0,0:0:0:0:
448,192,86764,1,0,0:0:0:0:
64,192,86864,1,0,0:0:0:0:
320,192,86964,1,0,0:0:0:0:
192,192,86964,128,0,87264:0:0:0:0:
448,192,87064,1,0,0:0:0:0:
64,192,87164,1,0,0:0:0:0:
448,192,87264,1,0,0:0:0:0:
320,192,87264,128,0,87564:0:0:0:0:
64,192,87364,1,0,0:0:0:0:
192,192,87464,1,0,0:0:0:0:
64,192,87564,1,0,0:0:0:0:
448,192,87564,128,0,87964:0:0:0:0:
192,192,87664,1,0,0:0:0:0:
320,192,87764,5,0,0:0:0:0:
192,192,87864,1,0,0:0:0:0:
64,192,87864,128,0,88164:0:0:0:0:
320,192,87964,1,0,0:0:0:0:
192,192,88064,1,0,0:0:0:0:
320,192,88164,1,0,0:0:0:0:
448,192,88164,128,0,88464:0:0:0:0:
192,192,88264,1,0,0:0:0:0:
64,192,88364,1,0,0:0:0:0:
192,192,88464,1,0,0:0:0:0:
320,192,88464,128,0,88864:0:0:0:0:
64,192,88564,1,0,0:0:0:0:
448,192,88664,1,0,0:0:0:0:
64,192,88764,1,0,0:0:0:0:
192,192,88764,128,0,89064:0:0:0:0:
448,192,88864,5,0,0:0:0:0:
64,192,88964,1,0,0:0:0:0:
448,192,89064,1,0,0:0:0:0:
320,192,89064,128,0,89364:0:0:0:0:
64,192,89164,1,0,0:0:0:0:
448,192,89264,1,0,0:0:0:0:
192,192,89364,1,0,0:0:0:0:
64,192,89364,128,0,89764:0:0:0:0:
448,192,89464,1,0,0:0:0:0:
192,192,89564,1,0,0:0:0:0:
448,192,89664,1,0,0:0:0:0:
320,192,89664,128,0,89964:0:0:0:0:
192,192,89764,5,0,0:0:0:0:
448,192,89864,1,0,0:0:0:0:
192,192,89964,1,0,0:0:0:0:
64,192,89964,128,0,90264:0:0:0:0:
448,192,90064,1,0,0:0:0:0:
320,192,90164,1,0,0:0:0:0:
192,192,90264,1,0,0:0:0:0:
448,192,90264,128,0,90664:0:0:0:0:
320,192,90364,1,0,0:0:0:0:
64,192,90464,1,0,0:0:0:0:
192,192,90564,1,0,0:0:0:0:
320,192,90564,128,0,90864:0:0:0:0:
64,192,90664,1,0,0:0:0:0:
192,192,90764,1,0,0:0:0:0:
448,192,90864,1,0,0:0:0:0:
64,192,90864,128,0,91164:0:0:0:0:
192,192,90964,1,0,0:0:0:0:
448,192,91064,1,0,0:0:0:0:
320,192,91164,1,0,0:0:0:0:
192,192,91164,128,0,91564:0:0:0:0:
448,192,91264,1,0,0:0:0:0:
320,192,91364,1,0,0:0:0:0:
64,192,91464,1,0,0:0:0:0:
448,192,91464,128,0,91764:0:0:0:0:
320,192,91564,1,0,0:0:0:0:
192,192,91664,1,0,0:0:0:0:
64,192,91764,5,0,0:0:0:0:
320,192,91764,128,0,92064:0:0:0:0:
192,192,91864,1,0,0:0:0:0:
448,192,91964,1,0,0:0:0:0:
192,192,92064,1,0,0:0:0:0:
64,192,92064,128,0,92464:0:0:0:0:
448,192,92164,1,0,0:0:0:0:
320,192,92264,1,0,0:0:0:0:
448,192,92364,1,0,0:0:0:0:
192,192,92364,128,0,92664:0:0:0:0:
320,192,92464,1,0,0:0:0:0:
448,192,92564,1,0,0:0:0:0:
64,192,92664,1,0,0:0:0:0:
320,192,92664,128,0,92964:0:0:0:0:
448,192,92764,1,0,0:0:0:0:
192,192,92864,1,0,0:0:0:0:
448,192,92964,1,0,0:0:0:0:
64,192,92964,128,0,93114:0:0:0:0:
320,192,93064,1,0,0:0:0:0:
192,192,93114,128,0,93364:0:0:0:0:
448,192,93164,1,0,0:0:0:0:
320,192,93264,128,0,93864:0:0:0:0:
64,192,93564,1,0,0:0:0:0:
192,192,93714,1,0,0:0:0:0:
448,192,93864,1,0,0:0:0:0:
64,192,93864,128,0,94464:0:0:0:0:
192,192,94164,1,0,0:0:0:0:
320,192,94464,1,0,0:0:0:0:
448,192,94614,128,0,94764:0:0:0:0:
192,192,94764,128,0,94914:0:0:0:0:
64,192,94914,128,0,95064:0:0:0:0:
448,192,95064,1,0,0:0:0:0:
320,192,95064,128,0,95364:0:0:0:0:
192,192,95364,128,0,95664:0:0:0:0:
64,192,95514,128,0,95964:0:0:0:0:
448,192,95664,1,0,0:0:0:0:
320,192,95814,1,0,0:0:0:0:
192,192,95964,128,0,96264:0:0:0:0:
448,192,96264,1,0,0:0:0:0:
64,192,96564,1,0,0:0:0:0:
320,192,96714,1,0,0:0:0:0:
192,192,96864,128,0,97164:0:0:0:0:
448,192,97164,128,0,97464:0:0:0:0:
320,192,97464,128,0,97764:0:0:0:0:
192,192,97764,128,0,98064:0:0:0:0:
64,192,97764,1,0,0:0:0:0:
320,192,98064,1,0,0:0:0:0:
448,192,98064,1,0,0:0:0:0:
64,192,98214,1,0,0:0:0:0:
192,192,98364,1,0,0:0:0:0:
320,192,98514,1,0,0:0:0:0:
448,192,98664,128,0,99264:0:0:0:0:
320,192,98964,128,0,99264:0:0:0:0:
192,192,99114,1,0,0:0:0:0:
64,192,99264,1,0,0:0:0:0:
192,192,99264,128,0,99564:0:0:0:0:
448,192,99414,1,0,0:0:0:0:
64,192,99564,128,0,99864:0:0:0:0:
320,192,99714,1,0,0:0:0:0:
448,192,99864,128,0,100164:0:0:0:0:
192,192,99864,1,0,0:0:0:0:
320,192,100014,1,0,0:0:0:0:
64,192,100164,1,0,0:0:0:0:
192,192,100164,128,0,100464:0:0:0:0:
320,192,100314,1,0,0:0:0:0:
448,192,100464,128,0,101364:0:0:0:0:
320,192,100764,128,0,101064:0:0:0:0:
64,192,101064,128,0,101364:0:0:0:0:
192,192,101364,128,0,101664:0:0:0:0:
320,192,101664,1,0,0:0:0:0:
448,192,101964,128,0,102564:0:0:0:0:
64,192,102264,1,0,0:0:0:0:
320,192,102564,128,0,103164:0:0:0:0:
192,192,102864,128,0,103464:0:0:0:0:
64,192,103164,128,0,103764:0:0:0:0:
320,192,103464,128,0,103989:0:0:0:0:
448,192,103764,128,0,104964:0:0:0:0:
192,192,103989,128,0,104364:0:0:0:0:
64,192,104364,128,0,104664:0:0:0:0:
320,192,104764,1,0,0:0:0:0:
192,192,104839,1,0,0:0:0:0:
64,192,104914,1,0,0:0:0:0:
320,192,104964,128,0,105864:0:0:0:0:
