osu file format v14

[General]
AudioFilename: audio.mp3
AudioLeadIn: 0
PreviewTime: 22164
Countdown: 0
SampleSet: Soft
StackLeniency: 0.7
Mode: 0
LetterboxInBreaks: 0
WidescreenStoryboard: 1

[Editor]
Bookmarks: 36564,43464,50964,65364,79764,101364
DistanceSpacing: 1.6
BeatDivisor: 12
GridSize: 8
TimelineZoom: 3.499999

[Metadata]
Title:Stellar
TitleUnicode:Stellar
Artist:M2U
ArtistUnicode:M2U
Creator:Ultima Fox
Version:defiance's Insane
Source:Deemo
Tags:defiance nicode rayark
BeatmapID:1643844
BeatmapSetID:773043

[Difficulty]
HPDrainRate:5.5
CircleSize:4
OverallDifficulty:8
ApproachRate:9
SliderMultiplier:1.6
SliderTickRate:1

[Events]
//Background and Video events
0,0,"bg from spectators map.jpg",0,0
//Break Periods
2,65564,71064
//Storyboard Layer 0 (Background)
//Storyboard Layer 1 (Fail)
//Storyboard Layer 2 (Pass)
//Storyboard Layer 3 (Foreground)
//Storyboard Sound Samples

[TimingPoints]
564,300,3,2,1,37,1,0
564,-111.111111111111,3,2,1,37,0,0
864,-200,3,2,1,37,0,0
1464,-111.111111111111,3,2,1,37,0,0
1764,-200,3,2,1,37,0,0
2364,-111.111111111111,3,2,1,37,0,0
2664,-200,3,2,1,37,0,0
3264,-111.111111111111,3,2,1,37,0,0
4464,-142.857142857143,3,2,1,37,0,0
4764,-111.111111111111,3,2,1,37,0,0
5289,-111.111111111111,3,2,1,5,0,0
5364,-111.111111111111,3,2,1,37,0,0
6864,-142.857142857143,3,2,1,37,0,0
7614,-142.857142857143,3,2,1,5,0,0
7689,-166.666666666667,3,2,1,21,0,0
7764,-166.666666666667,3,2,1,37,0,0
10914,-166.666666666667,3,2,1,5,0,0
11064,-166.666666666667,3,2,1,37,0,0
11814,-166.666666666667,3,2,1,5,0,0
11964,-166.666666666667,3,2,1,37,0,0
12714,-166.666666666667,3,2,1,5,0,0
12864,-166.666666666667,3,2,1,37,0,0
14139,-166.666666666667,3,2,1,5,0,0
14364,-166.666666666667,3,2,1,37,0,0
14439,-166.666666666667,3,2,1,5,0,0
14664,-166.666666666667,3,2,1,37,0,0
14739,-166.666666666667,3,2,1,5,0,0
14964,-166.666666666667,3,2,1,37,0,0
20364,-133.333333333333,3,2,1,55,0,0
20664,-111.111111111111,3,2,1,55,0,0
21564,-90.9090909090908,3,2,1,55,0,0
22164,-125,3,2,1,55,0,1
22389,-125,3,2,1,5,0,1
22464,-90.9090909090909,3,2,1,55,0,1
23064,-125,3,2,1,55,0,1
23289,-125,3,2,1,5,0,1
23364,-125,3,2,1,55,0,1
24189,-125,3,2,1,5,0,1
24264,-125,3,2,1,55,0,1
25089,-125,3,2,1,5,0,1
25164,-90.9090909090909,3,2,1,55,0,1
25764,-125,3,2,1,55,0,1
25989,-125,3,2,1,5,0,1
26064,-90.9090909090909,3,2,1,55,0,1
26664,-125,3,2,1,55,0,1
26889,-125,3,2,1,5,0,1
26964,-90.9090909090909,3,2,1,55,0,1
27564,-125,3,2,1,55,0,1
27789,-125,3,2,1,5,0,1
27864,-125,3,2,1,55,0,1
28689,-125,3,2,1,5,0,1
28764,-125,3,2,1,55,0,1
29589,-125,3,2,1,5,0,1
29664,-90.9090909090909,3,2,1,55,0,1
29889,-90.9090909090909,3,2,1,5,0,1
29964,-90.9090909090909,3,2,1,55,0,1
30189,-90.9090909090909,3,2,1,5,0,1
30264,-125,3,2,1,55,0,1
30489,-125,3,2,1,5,0,1
30564,-90.9090909090909,3,2,1,55,0,1
30789,-90.9090909090909,3,2,1,5,0,1
30864,-90.9090909090909,3,2,1,55,0,1
31089,-90.9090909090909,3,2,1,5,0,1
31164,-125,3,2,1,55,0,1
31389,-125,3,2,1,5,0,1
31464,-125,3,2,1,55,0,1
32289,-125,3,2,1,5,0,1
32364,-90.9090909090909,3,2,1,55,0,1
32589,-90.9090909090909,3,2,1,5,0,1
32664,-90.9090909090909,3,2,1,55,0,1
32889,-90.9090909090909,3,2,1,5,0,1
32964,-125,3,2,1,55,0,1
33189,-125,3,2,1,5,0,1
33264,-90.9090909090909,3,2,1,55,0,1
33489,-90.9090909090909,3,2,1,5,0,1
33564,-90.9090909090909,3,2,1,55,0,1
33789,-90.9090909090909,3,2,1,5,0,1
33864,-125,3,2,1,55,0,1
34089,-125,3,2,1,5,0,1
34164,-90.9090909090909,3,2,1,55,0,1
34389,-90.9090909090909,3,2,1,5,0,1
34464,-90.9090909090909,3,2,1,55,0,1
34689,-90.9090909090909,3,2,1,5,0,1
34764,-125,3,2,1,55,0,1
34989,-125,3,2,1,5,0,1
35064,-125,3,2,1,55,0,1
35664,-125,3,2,1,55,0,1
36564,-142.857142857143,3,2,1,55,0,0
49314,-111.111111111111,3,2,1,55,0,0
50964,-125,3,2,1,55,0,1
51189,-125,3,2,1,5,0,1
51264,-90.9090909090909,3,2,1,55,0,1
51864,-125,3,2,1,55,0,1
52089,-125,3,2,1,5,0,1
52164,-90.9090909090909,3,2,1,55,0,1
52764,-125,3,2,1,55,0,1
52989,-125,3,2,1,5,0,1
53064,-90.9090909090909,3,2,1,55,0,1
53664,-125,3,2,1,55,0,1
53889,-125,3,2,1,5,0,1
53964,-125,3,2,1,55,0,1
54789,-125,3,2,1,5,0,1
54864,-90.9090909090909,3,2,1,55,0,1
55464,-125,3,2,1,55,0,1
55689,-125,3,2,1,5,0,1
55764,-125,3,2,1,55,0,1
56589,-125,3,2,1,5,0,1
56664,-125,3,2,1,55,0,1
57489,-125,3,2,1,5,0,1
57564,-90.9090909090909,3,2,1,55,0,1
58164,-125,3,2,1,55,0,1
58389,-125,3,2,1,5,0,1
58464,-90.9090909090909,3,2,1,55,0,1
58689,-90.9090909090909,3,2,1,5,0,1
58764,-90.9090909090909,3,2,1,55,0,1
58989,-90.9090909090909,3,2,1,5,0,1
59064,-125,3,2,1,55,0,1
59289,-125,3,2,1,5,0,1
59364,-90.9090909090909,3,2,1,55,0,1
59589,-90.9090909090909,3,2,1,5,0,1
59664,-90.9090909090909,3,2,1,55,0,1
59889,-90.9090909090909,3,2,1,5,0,1
59964,-125,3,2,1,55,0,1
60189,-125,3,2,1,5,0,1
60264,-125,3,2,1,55,0,1
61089,-125,3,2,1,5,0,1
61164,-90.9090909090909,3,2,1,55,0,1
61389,-90.9090909090909,3,2,1,5,0,1
61464,-90.9090909090909,3,2,1,55,0,1
61689,-90.9090909090909,3,2,1,5,0,1
61764,-125,3,2,1,55,0,1
61989,-125,3,2,1,5,0,1
62064,-90.9090909090909,3,2,1,55,0,1
62289,-90.9090909090909,3,2,1,5,0,1
62364,-90.9090909090909,3,2,1,55,0,1
62589,-90.9090909090909,3,2,1,5,0,1
62664,-125,3,2,1,55,0,1
62889,-125,3,2,1,5,0,1
62964,-90.9090909090909,3,2,1,55,0,1
63189,-90.9090909090909,3,2,1,5,0,1
63264,-90.9090909090909,3,2,1,55,0,1
63489,-90.9090909090909,3,2,1,5,0,1
63564,-125,3,2,1,55,0,1
63789,-125,3,2,1,5,0,1
63864,-125,3,2,1,55,0,1
64464,-166.666666666667,3,2,1,55,0,1
64914,-166.666666666667,3,2,1,5,0,1
65064,-166.666666666667,3,2,1,55,0,1
65364,-125,3,2,1,55,0,0
71664,-166.666666666667,3,2,1,55,0,0
71964,-142.857142857143,3,2,1,55,0,0
72264,-125,3,2,1,55,0,0
72564,-142.857142857143,3,2,1,55,0,0
78114,-111.111111111111,3,2,1,55,0,0
79764,-125,3,2,1,55,0,1
79989,-125,3,2,1,5,0,1
80064,-100,3,2,1,55,0,1
81564,-125,3,2,1,55,0,1
81789,-125,3,2,1,5,0,1
81864,-100,3,2,1,55,0,1
86064,-125,3,2,1,55,0,1
86289,-125,3,2,1,5,0,1
86364,-100,3,2,1,55,0,1
86964,-125,3,2,1,55,0,1
87189,-125,3,2,1,5,0,1
87264,-100,3,2,1,55,0,1
87864,-125,3,2,1,55,0,1
88089,-125,3,2,1,5,0,1
88164,-100,3,2,1,55,0,1
88764,-125,3,2,1,55,0,1
88989,-125,3,2,1,5,0,1
89064,-125,3,2,1,55,0,1
89889,-125,3,2,1,5,0,1
89964,-100,3,2,1,55,0,1
90564,-125,3,2,1,55,0,1
90789,-125,3,2,1,5,0,1
90864,-100,3,2,1,55,0,1
91464,-125,3,2,1,55,0,1
91689,-125,3,2,1,5,0,1
91764,-100,3,2,1,55,0,1
92364,-125,3,2,1,55,0,1
92589,-125,3,2,1,5,0,1
92664,-125,3,2,1,55,0,1
93264,-400,3,2,1,55,0,1
94164,-125,3,2,1,37,0,0
94464,-200,3,2,1,37,0,0
95064,-125,3,2,1,37,0,0
95364,-200,3,2,1,37,0,0
95964,-125,3,2,1,37,0,0
96264,-200,3,2,1,37,0,0
96864,-125,3,2,1,37,0,0
98064,-153.846153846154,3,2,1,37,0,0
98664,-125,3,2,1,37,0,0
98889,-125,3,2,1,5,0,0
98964,-125,3,2,1,37,0,0
100464,-153.846153846154,3,2,1,37,0,0
101214,-153.846153846154,3,2,1,5,0,0
101364,-181.818181818182,3,2,1,37,0,0
103464,-333.333333333333,3,2,1,37,0,0
104764,-100,3,2,1,37,0,0
104964,-666.666666666667,3,2,1,37,0,0
105864,-416.666666666667,3,2,1,32,0,0
106764,-416.666666666667,3,2,1,27,0,0
107664,-416.666666666667,3,2,1,22,0,0
108564,-416.666666666667,3,2,1,17,0,0
109464,-500,3,2,1,5,0,0

[Colours]
Combo1 : 189,86,83
Combo2 : 250,253,198
Combo3 : 100,121,206
Combo4 : 169,122,148

[HitObjects]
23,186,564,6,0,P|62:198|108:188,1,71.9999978027344,2|0,0:0|0:0,0:0:0:0:
200,276,864,2,0,P|143:271|90:317,1,120,0|0,0:0|0:0,0:0:0:0:
268,321,1464,6,0,P|280:277|272:227,1,71.9999978027344,0|0,0:0|0:0,0:0:0:0:
184,144,1764,2,0,P|172:180|175:196,1,40,0|0,0:0|0:0,0:0:0:0:
192,267,2064,1,0,0:0:0:0:
268,321,2214,1,0,0:0:0:0:
353,273,2364,6,0,P|360:233|354:190,1,71.9999978027344,2|0,0:0|0:0,0:0:0:0:
146,153,2664,2,0,P|187:167|233:161,1,80,0|0,0:0|0:0,0:0:0:0:
283,89,3114,1,0,0:0:0:0:
419,154,3264,6,0,P|378:140|332:143,1,71.9999978027344,2|0,0:0|0:0,0:0:0:0:
157,237,3564,2,0,P|198:251|241:244,1,71.9999978027344,2|0,0:0|0:0,0:0:0:0:
392,258,3864,2,0,P|351:244|310:250,1,71.9999978027344,2|0,0:0|0:0,0:0:0:0:
285,384,4164,6,0,P|276:336|279:284,1,71.9999978027344,2|0,0:0|0:0,0:0:0:0:
143,313,4464,2,0,P|200:289|229:225,1,111.999996582031,2|0,0:0|0:0,0:0:0:0:
227,165,4914,1,0,0:0:0:0:
327,263,5064,2,0,P|395:280|450:261,1,107.999996704102,2|0,0:0|0:0,0:0:0:0:
453,255,5364,6,0,P|474:211|476:159,1,71.9999978027344,0|0,0:0|0:0,0:0:0:0:
491,71,5664,2,0,P|447:92|397:91,1,71.9999978027344,0|0,0:0|0:0,0:0:0:0:
257,122,5964,2,0,P|315:114|394:185,1,143.999995605469,0|2,0:0|0:0,0:0:0:0:
382,159,6414,1,0,0:0:0:0:
424,94,6564,1,2,0:0:0:0:
376,25,6714,1,0,0:0:0:0:
296,12,6864,6,0,B|263:70|293:120|293:120|264:160|264:160|301:203|275:270,1,279.999991455078,2|0,0:0|0:0,0:0:0:0:
275,307,7689,1,0,0:0:0:0:
275,307,7764,6,0,P|221:321|164:302,1,95.9999970703126,2|0,0:0|0:0,0:0:0:0:
131,220,8364,1,0,0:0:0:0:
64,312,8664,5,0,0:0:0:0:
186,139,8964,1,0,0:0:0:0:
271,346,9264,1,0,0:0:0:0:
380,156,9564,5,2,0:0:0:0:
236,227,9864,1,0,0:0:0:0:
95,305,10164,1,0,0:0:0:0:
145,120,10464,5,0,0:0:0:0:
231,250,10764,2,0,L|238:211,1,23.9999992675781,0|0,0:0|0:0,0:0:0:0:
370,147,11064,1,0,0:0:0:0:
281,17,11364,5,2,0:0:0:0:
204,137,11664,2,0,L|242:119,1,23.9999992675781,0|0,0:0|0:0,0:0:0:0:
370,147,11964,1,0,0:0:0:0:
322,321,12264,5,0,0:0:0:0:
500,191,12564,2,0,L|494:222,1,23.9999992675781,0|0,0:0|0:0,0:0:0:0:
447,346,12864,1,0,0:0:0:0:
345,178,13164,5,2,0:0:0:0:
206,34,13464,1,0,0:0:0:0:
127,219,13764,1,0,0:0:0:0:
271,339,14064,6,0,L|268:363,1,23.9999992675781,2|0,0:0|0:0,0:0:0:0:
243,199,14364,6,0,L|247:223,1,23.9999992675781,2|0,0:0|0:0,0:0:0:0:
329,93,14664,6,0,L|326:117,1,23.9999992675781,2|0,0:0|0:0,0:0:0:0:
466,27,14964,6,0,P|449:84|450:108,1,71.9999978027344,2|0,0:0|0:0,0:0:0:0:
478,153,15264,2,0,P|439:147|416:150,1,47.9999985351563,2|0,0:0|0:0,0:0:0:0:
243,209,15564,1,0,0:0:0:0:
268,217,15639,1,0,0:0:0:0:
295,219,15714,1,0,0:0:0:0:
321,214,15789,1,0,0:0:0:0:
347,208,15864,6,0,P|355:157|347:94,1,95.9999970703126,2|2,0:0|0:0,0:0:0:0:
256,2,16464,1,0,0:0:0:0:
351,112,16764,5,2,0:0:0:0:
95,121,17064,1,2,0:0:0:0:
233,325,17364,1,0,0:0:0:0:
414,114,17664,6,0,P|416:155|411:182,1,47.9999985351563,2|0,0:0|0:0,0:0:0:0:
334,252,17889,1,0,0:0:0:0:
334,252,17964,2,0,P|372:252|388:257,1,47.9999985351563,2|0,0:0|0:0,0:0:0:0:
249,156,18264,2,0,P|211:156|195:162,1,47.9999985351563,2|0,0:0|0:0,0:0:0:0:
23,289,18564,6,0,P|79:297|125:275,1,95.9999970703126,2|0,0:0|0:0,0:0:0:0:
68,162,19014,1,2,0:0:0:0:
67,180,19089,1,0,0:0:0:0:
66,198,19164,1,0,0:0:0:0:
203,254,19314,1,0,0:0:0:0:
280,101,19464,6,0,P|266:137|266:167,1,47.9999985351563,2|0,0:0|0:0,0:0:0:0:
338,198,19764,2,0,P|352:234|351:263,1,47.9999985351563,0|2,0:0|0:0,0:0:0:0:
308,324,20064,1,0,0:0:0:0:
236,224,20214,1,0,0:0:0:0:
159,306,20364,6,0,L|152:372,1,60.0000022888184,2|0,0:0|0:0,0:0:0:0:
74,189,20664,2,0,L|81:266,1,71.9999978027344,0|2,0:0|0:0,0:0:0:0:
179,88,20964,2,0,L|172:165,1,71.9999978027344,0|0,0:0|0:0,0:0:0:0:
374,142,21264,6,0,P|334:150|285:133,1,71.9999978027344,2|0,0:0|0:0,0:0:0:0:
244,42,21564,1,2,0:0:0:0:
221,221,21714,1,0,0:0:0:0:
305,144,21864,1,2,0:0:0:0:
363,293,22014,1,0,0:0:0:0:
270,290,22164,6,0,B|307:303|307:303|385:290,1,96,4|0,1:2|0:0,0:0:0:0:
416,249,22464,2,0,B|395:290|395:290|405:339,1,88.000002685547,2|0,0:0|0:0,0:0:0:0:
305,144,22764,2,0,B|326:103|326:103|316:54,1,88.000002685547,2|0,0:0|0:0,0:0:0:0:
61,202,23064,6,0,P|118:212|173:196,1,96,8|0,0:0|0:0,0:0:0:0:
220,166,23364,2,0,P|207:209|213:250,1,64,2|0,0:0|0:0,0:0:0:0:
141,315,23664,1,2,0:0:0:0:
141,315,23814,1,0,0:0:0:0:
248,333,23964,6,0,P|304:338|357:302,1,96,0|0,1:0|0:0,0:0:0:0:
391,339,24264,2,0,P|382:296|392:250,1,64,2|0,0:0|1:0,0:0:0:0:
392,182,24564,1,2,0:0:0:0:
392,182,24714,1,0,1:0:0:0:
184,112,24864,6,0,P|231:104|293:136,1,96,8|0,0:0|0:0,0:0:0:0:
318,148,25164,2,0,P|329:89|315:42,1,88.000002685547,2|0,0:0|0:0,0:0:0:0:
487,160,25464,2,0,P|476:219|487:262,1,88.000002685547,2|0,0:0|0:0,0:0:0:0:
304,290,25764,6,0,P|264:277|191:291,1,96,0|0,1:0|0:0,0:0:0:0:
173,316,26064,2,0,P|133:329|62:310,1,88.000002685547,2|0,0:0|0:0,0:0:0:0:
190,192,26364,2,0,B|199:144|199:144|180:72,1,88.000002685547,2|0,0:0|0:0,0:0:0:0:
401,33,26664,6,0,P|357:38|292:17,1,96,8|0,0:0|0:0,0:0:0:0:
236,0,26964,2,0,P|264:40|273:112,1,88.000002685547,2|0,0:0|0:0,0:0:0:0:
327,242,27264,2,0,P|355:201|368:131,1,88.000002685547,2|0,0:0|0:0,0:0:0:0:
218,351,27564,6,0,L|228:228,1,96,0|0,1:0|0:0,0:0:0:0:
165,226,27864,2,0,P|201:222|245:190,1,64,2|0,0:0|1:0,0:0:0:0:
293,112,28164,1,2,0:0:0:0:
293,112,28314,1,0,1:0:0:0:
169,0,28464,6,0,P|178:38|162:98,1,96,8|0,0:0|0:0,0:0:0:0:
141,129,28764,1,2,0:0:0:0:
263,44,28914,1,0,0:0:0:0:
81,46,29064,1,2,0:0:0:0:
261,146,29214,1,0,0:0:0:0:
51,247,29364,6,0,P|36:287|47:345,1,96,4|0,1:2|0:0,0:0:0:0:
24,383,29664,2,0,P|77:363|161:374,1,132.00000402832,2|0,0:0|0:0,0:0:0:0:
262,355,29964,2,0,P|209:375|125:364,1,132.00000402832,2|0,0:0|0:0,0:0:0:0:
143,295,30264,6,0,P|144:236|181:183,1,96,8|0,0:0|0:0,0:0:0:0:
243,129,30564,2,0,P|190:149|106:138,1,132.00000402832,2|0,0:0|0:0,0:0:0:0:
5,157,30864,2,0,P|58:137|142:148,1,132.00000402832,2|0,0:0|0:0,0:0:0:0:
139,102,31164,6,0,P|140:43|177:-10,1,96,0|0,1:0|0:0,0:0:0:0:
199,23,31464,2,0,P|232:29|281:18,1,64,2|0,0:0|1:0,0:0:0:0:
318,107,31764,1,2,0:0:0:0:
318,107,31914,1,0,1:0:0:0:
220,199,32064,6,0,P|233:247|229:297,1,96,8|0,0:0|0:0,0:0:0:0:
169,343,32364,2,0,P|236:336|299:368,1,132.00000402832,2|0,0:0|0:0,0:0:0:0:
406,354,32664,2,0,P|339:361|276:329,1,132.00000402832,2|0,0:0|0:0,0:0:0:0:
250,288,32964,6,0,P|242:241|259:184,1,96,0|0,1:0|0:0,0:0:0:0:
296,172,33264,2,0,P|312:114|291:40,1,132.00000402832,2|0,0:0|0:0,0:0:0:0:
347,2,33564,2,0,P|295:15|190:-14,1,132.00000402832,2|0,0:0|0:0,0:0:0:0:
138,18,33864,6,0,L|148:142,1,96,8|0,0:0|0:0,0:0:0:0:
188,153,34164,2,0,L|44:170,1,132.00000402832,2|0,0:0|0:0,0:0:0:0:
14,173,34464,2,0,P|1:238|12:313,1,132.00000402832,2|0,0:0|0:0,0:0:0:0:
39,346,34764,6,0,P|95:353|157:333,1,96,0|0,1:0|0:0,0:0:0:0:
167,319,35064,1,0,0:0:0:0:
209,202,35214,1,0,1:0:0:0:
84,255,35364,1,0,0:0:0:0:
81,121,35514,1,0,1:0:0:0:
212,30,35664,6,0,P|217:79|213:112,1,64,8|0,0:0|0:0,0:0:0:0:
312,194,35964,2,0,P|307:145|311:112,1,64,0|0,0:0|0:0,0:0:0:0:
395,9,36264,2,0,P|400:58|396:91,1,64,2|0,0:0|0:0,0:0:0:0:
446,145,36489,1,0,0:0:0:0:
446,145,36564,6,0,P|439:213|447:255,1,111.999996582031,4|2,1:2|0:0,0:0:0:0:
390,320,37014,1,0,0:0:0:0:
316,362,37164,2,0,L|252:369,1,55.9999982910157,2|0,0:0|0:0,0:0:0:0:
172,338,37464,6,0,P|168:294|173:270,1,55.9999982910157,2|0,0:0|0:0,0:0:0:0:
97,215,37764,2,0,P|137:233|155:249,1,55.9999982910157,2|0,0:0|0:0,0:0:0:0:
246,213,38064,2,0,P|209:238|186:246,1,55.9999982910157,2|0,0:0|0:0,0:0:0:0:
167,139,38364,6,0,P|156:80|168:19,1,111.999996582031,0|2,1:0|0:0,0:0:0:0:
265,48,38814,1,0,0:0:0:0:
347,115,38964,2,0,P|351:154|341:194,1,55.9999982910157,0|0,0:0|0:0,0:0:0:0:
316,250,39189,1,0,0:0:0:0:
316,250,39264,6,0,P|352:245|388:248,1,55.9999982910157,2|0,0:0|0:0,0:0:0:0:
458,202,39564,2,0,P|476:148|454:84,1,111.999996582031,2|2,0:0|0:0,0:0:0:0:
288,59,40164,6,0,P|326:67|395:41,1,111.999996582031,0|2,1:0|0:0,0:0:0:0:
383,140,40614,1,0,0:0:0:0:
315,195,40764,2,0,L|310:265,1,55.9999982910157,0|0,0:0|0:0,0:0:0:0:
199,353,41064,6,0,L|207:280,1,55.9999982910157,2|0,0:0|0:0,0:0:0:0:
159,236,41289,1,0,0:0:0:0:
159,236,41364,1,0,0:0:0:0:
238,185,41514,1,0,0:0:0:0:
106,132,41664,1,2,0:0:0:0:
241,83,41814,1,0,0:0:0:0:
125,40,41964,6,0,P|72:35|9:69,1,111.999996582031,0|2,1:0|0:0,0:0:0:0:
30,166,42414,1,0,0:0:0:0:
39,186,42489,1,0,0:0:0:0:
48,206,42564,2,0,L|41:288,1,55.9999982910157,0|0,0:0|0:0,0:0:0:0:
80,349,42864,5,0,0:0:0:0:
158,268,43014,1,0,0:0:0:0:
219,364,43164,2,0,P|254:367|283:356,1,55.9999982910157,2|0,0:0|0:0,0:0:0:0:
397,297,43464,2,0,P|362:294|333:305,1,55.9999982910157,2|0,0:0|0:0,0:0:0:0:
245,212,43764,6,0,P|245:172|250:135,1,55.9999982910157,4|0,1:2|0:0,0:0:0:0:
194,55,44064,2,0,P|150:66|74:46,1,111.999996582031,2|0,0:0|0:0,0:0:0:0:
38,126,44514,1,0,0:0:0:0:
47,146,44589,1,0,0:0:0:0:
56,166,44664,2,0,L|49:248,1,55.9999982910157,2|0,0:0|0:0,0:0:0:0:
203,139,44964,2,0,L|210:221,1,55.9999982910157,2|0,0:0|0:0,0:0:0:0:
144,275,45264,1,0,0:0:0:0:
212,351,45414,1,0,0:0:0:0:
310,244,45564,6,0,P|348:244|382:249,1,55.9999982910157,0|0,1:0|0:0,0:0:0:0:
420,154,45864,5,2,0:0:0:0:
465,288,46014,2,0,L|472:215,1,55.9999982910157,0|0,0:0|0:0,0:0:0:0:
422,168,46314,5,2,0:0:0:0:
455,305,46464,2,0,L|469:233,1,55.9999982910157,0|0,0:0|0:0,0:0:0:0:
424,183,46764,5,2,0:0:0:0:
445,322,46914,2,0,L|464:252,1,55.9999982910157,0|0,0:0|0:0,0:0:0:0:
424,197,47214,5,2,0:0:0:0:
432,337,47364,2,0,L|457:269,1,55.9999982910157,0|0,1:0|0:0,0:0:0:0:
348,279,47664,1,0,0:0:0:0:
275,360,47814,1,2,0:0:0:0:
183,348,47964,1,2,0:0:0:0:
183,348,48039,1,0,0:0:0:0:
183,348,48114,1,0,0:0:0:0:
248,245,48264,6,0,L|248:170,1,55.9999982910157,2|0,0:0|0:0,0:0:0:0:
172,112,48564,2,0,L|172:187,1,55.9999982910157,2|0,0:0|0:0,0:0:0:0:
113,49,48864,1,2,0:0:0:0:
248,87,49014,1,2,0:0:0:0:
94,184,49164,5,0,1:0:0:0:
199,13,49314,1,8,0:0:0:0:
208,22,49614,5,8,0:0:0:0:
299,160,49764,1,0,1:0:0:0:
299,160,49914,1,0,1:0:0:0:
359,38,50064,6,0,P|396:31|457:47,1,71.9999978027344,8|0,0:0|0:0,0:0:0:0:
467,106,50289,1,0,0:0:0:0:
467,106,50364,1,8,0:0:0:0:
372,191,50514,1,8,0:0:0:0:
493,266,50664,2,0,L|495:191,1,71.9999978027344,0|0,1:0|0:0,0:0:0:0:
375,333,50964,6,0,P|326:330|272:362,1,96,4|0,1:2|0:0,0:0:0:0:
240,366,51264,2,0,P|232:302|239:251,1,88.000002685547,2|0,0:0|0:0,0:0:0:0:
104,168,51564,2,0,P|163:193|204:224,1,88.000002685547,2|0,0:0|0:0,0:0:0:0:
45,362,51864,6,0,L|52:242,1,96,8|0,0:0|0:0,0:0:0:0:
26,229,52164,2,0,P|17:183|43:120,1,88.000002685547,2|0,0:0|0:0,0:0:0:0:
100,4,52464,2,0,P|109:50|83:113,1,88.000002685547,2|0,0:0|0:0,0:0:0:0:
195,169,52764,6,0,P|232:176|297:150,1,96,0|0,1:0|0:0,0:0:0:0:
320,144,53064,2,0,P|328:89|318:48,1,88.000002685547,2|0,0:0|1:0,0:0:0:0:
417,9,53364,1,2,0:0:0:0:
417,9,53514,1,0,1:0:0:0:
475,108,53664,6,0,L|483:213,1,96,8|0,0:0|0:0,0:0:0:0:
491,252,53964,2,0,P|449:245|410:258,1,64,2|0,0:0|0:0,0:0:0:0:
219,337,54264,2,0,P|261:344|300:331,1,64,2|0,0:0|0:0,0:0:0:0:
366,139,54564,6,0,P|341:190|340:241,1,96,4|0,1:2|0:0,0:0:0:0:
325,256,54864,2,0,P|281:265|234:250,1,88.000002685547,2|0,0:0|0:0,0:0:0:0:
162,174,55164,1,2,0:0:0:0:
162,174,55314,1,0,0:0:0:0:
230,7,55464,6,0,P|240:56|221:119,1,96,8|0,0:0|0:0,0:0:0:0:
235,136,55764,2,0,P|272:141|317:126,1,64,2|0,0:0|0:0,0:0:0:0:
404,242,56064,2,0,P|367:237|322:252,1,64,2|0,0:0|0:0,0:0:0:0:
180,350,56364,6,0,P|241:342|290:360,1,96,0|0,1:0|0:0,0:0:0:0:
314,354,56664,2,0,P|318:318|301:271,1,64,2|0,0:0|1:0,0:0:0:0:
245,214,56964,1,2,0:0:0:0:
245,214,57114,1,0,1:0:0:0:
89,283,57264,6,0,P|81:235|97:181,1,96,8|0,0:0|0:0,0:0:0:0:
112,145,57564,1,2,0:0:0:0:
173,235,57714,1,0,0:0:0:0:
5,217,57864,1,2,0:0:0:0:
173,235,58014,1,0,1:2:0:0:
276,163,58164,6,0,P|288:209|277:257,1,96,4|0,1:2|0:0,0:0:0:0:
259,298,58464,2,0,B|323:313|323:313|394:297,1,132.00000402832,2|0,0:0|0:0,0:0:0:0:
503,301,58764,2,0,B|439:286|439:286|368:302,1,132.00000402832,2|0,0:0|0:0,0:0:0:0:
366,225,59064,6,0,P|354:179|365:131,1,96,8|0,0:0|0:0,0:0:0:0:
398,76,59364,2,0,B|334:91|334:91|263:75,1,132.00000402832,2|0,0:0|0:0,0:0:0:0:
154,79,59664,2,0,B|218:64|218:64|289:80,1,132.00000402832,2|0,0:0|0:0,0:0:0:0:
280,113,59964,6,0,P|289:159|270:228,1,96,0|0,1:0|0:0,0:0:0:0:
264,241,60264,2,0,P|221:252|183:241,1,64,2|0,0:0|1:0,0:0:0:0:
115,175,60564,1,2,0:0:0:0:
115,175,60714,1,0,1:0:0:0:
142,328,60864,6,0,L|263:330,1,96,8|0,0:0|0:0,0:0:0:0:
302,341,61164,2,0,B|287:277|287:277|303:206,1,132.00000402832,2|0,0:0|0:0,0:0:0:0:
299,97,61464,2,0,B|314:161|314:161|298:232,1,132.00000402832,2|0,0:0|0:0,0:0:0:0:
217,254,61764,6,0,P|179:264|119:247,1,96,4|0,1:2|0:0,0:0:0:0:
94,215,62064,2,0,P|56:205|0:221,1,88.000002685547,2|0,0:0|0:0,0:0:0:0:
108,100,62364,2,0,P|140:111|196:95,1,88.000002685547,2|0,0:0|0:0,0:0:0:0:
303,9,62664,6,0,B|324:56|324:56|315:110,1,96,8|0,0:0|0:0,0:0:0:0:
306,143,62964,2,0,P|356:159|414:142,1,88.000002685547,2|0,0:0|0:0,0:0:0:0:
507,73,63264,2,0,L|504:175,1,88.000002685547,2|0,0:0|0:0,0:0:0:0:
432,291,63564,6,0,P|376:286|321:315,1,96,0|0,1:0|0:0,0:0:0:0:
305,326,63864,2,0,P|260:334|221:322,1,64,2|0,0:0|1:0,0:0:0:0:
139,275,64164,1,2,0:0:0:0:
139,275,64314,1,0,1:0:0:0:
232,78,64464,6,0,B|255:175|194:168|218:270,1,191.999994140625,8|0,0:0|0:0,0:0:0:0:
232,354,65214,1,0,0:0:0:0:
232,354,65364,1,2,0:0:0:0:
50,46,71664,6,0,L|43:109,1,47.9999985351563,2|0,0:0|0:0,0:0:0:0:
137,101,71964,2,0,L|141:177,1,55.9999982910157,2|0,0:0|0:0,0:0:0:0:
236,41,72264,2,0,L|232:129,1,64,2|0,0:0|0:0,0:0:0:0:
262,193,72564,6,0,P|306:200|341:193,1,55.9999982910157,2|0,0:0|0:0,0:0:0:0:
409,154,72864,2,0,P|398:218|404:280,1,111.999996582031,2|0,0:0|0:0,0:0:0:0:
347,333,73314,1,0,0:0:0:0:
246,284,73464,6,0,P|216:283|181:289,1,55.9999982910157,2|0,0:0|0:0,0:0:0:0:
66,362,73764,2,0,P|81:304|72:231,1,111.999996582031,2|0,0:0|0:0,0:0:0:0:
34,180,74214,1,0,0:0:0:0:
144,197,74364,6,0,P|186:200|219:192,1,55.9999982910157,2|0,0:0|0:0,0:0:0:0:
310,136,74664,2,0,P|268:139|235:131,1,55.9999982910157,0|2,0:0|0:0,0:0:0:0:
183,61,74964,1,0,0:0:0:0:
183,61,75114,1,0,0:0:0:0:
286,17,75264,5,2,0:0:0:0:
389,53,75414,1,0,0:0:0:0:
389,53,75489,1,0,0:0:0:0:
389,53,75564,2,0,L|378:115,1,55.9999982910157,0|2,0:0|0:0,0:0:0:0:
449,177,75864,2,0,L|460:239,1,55.9999982910157,0|0,0:0|0:0,0:0:0:0:
432,354,76164,6,0,P|376:338|321:357,1,111.999996582031,0|0,1:0|0:0,0:0:0:0:
261,292,76614,1,2,0:0:0:0:
331,192,76764,2,0,L|336:262,1,55.9999982910157,0|0,0:0|0:0,0:0:0:0:
191,176,77064,5,8,0:0:0:0:
191,176,77214,1,0,0:0:0:0:
263,121,77364,2,0,L|265:57,1,55.9999982910157,0|0,0:0|0:0,0:0:0:0:
367,18,77664,2,0,L|365:82,1,55.9999982910157,0|0,0:0|0:0,0:0:0:0:
439,166,77964,5,0,1:0:0:0:
255,215,78114,1,8,0:0:0:0:
268,228,78414,5,8,0:0:0:0:
384,351,78564,1,0,1:0:0:0:
384,351,78714,1,0,1:0:0:0:
421,184,78864,6,0,L|427:86,1,71.9999978027344,8|0,0:0|0:0,0:0:0:0:
484,58,79089,1,0,0:0:0:0:
484,58,79164,1,8,0:0:0:0:
326,123,79314,1,8,0:0:0:0:
414,268,79464,2,0,L|329:277,1,71.9999978027344,0|0,1:0|0:0,0:0:0:0:
197,298,79764,6,0,L|206:206,1,85.3333333333333,4|0,1:2|0:0,0:0:0:0:
127,169,80064,2,0,P|186:165|229:128,1,106.666666666667,2|0,0:0|0:0,0:0:0:0:
287,92,80364,2,0,P|346:96|389:133,1,106.666666666667,2|0,0:0|0:0,0:0:0:0:
414,203,80664,6,0,L|404:350,1,120,8|0,0:0|0:0,0:0:0:0:
453,371,80964,2,0,P|407:352|319:382,1,106.666666666667,2|0,0:0|0:0,0:0:0:0:
280,331,81264,2,0,P|234:350|146:320,1,106.666666666667,2|0,0:0|0:0,0:0:0:0:
114,289,81564,6,0,P|105:239|119:173,1,96,0|0,1:0|0:0,0:0:0:0:
138,157,81864,2,0,P|140:114|134:78,1,80,2|0,0:0|1:0,0:0:0:0:
60,11,82164,1,2,0:0:0:0:
60,11,82314,1,0,1:0:0:0:
221,73,82464,6,0,B|279:84|279:84|361:60,1,120,8|0,0:0|0:0,0:0:0:0:
379,51,82764,2,0,L|376:160,1,80,2|0,0:0|0:0,0:0:0:0:
451,256,83064,2,0,L|448:147,1,80,2|0,0:0|0:0,0:0:0:0:
349,244,83364,6,0,P|295:251|237:231,1,106.666666666667,4|0,1:2|0:0,0:0:0:0:
188,179,83664,2,0,L|199:73,1,106.666666666667,2|0,0:2|0:0,0:0:0:0:
141,20,83964,2,0,P|88:12|18:55,1,106.666666666667,2|0,0:2|0:0,0:0:0:0:
53,121,84264,6,0,P|68:174|49:247,1,106.666666666667,8|0,0:0|0:0,0:0:0:0:
95,289,84564,2,0,L|208:289,1,106.666666666667,2|0,0:0|0:0,0:0:0:0:
258,342,84864,2,0,L|371:342,1,106.666666666667,2|0,0:0|0:0,0:0:0:0:
430,301,85164,6,0,P|421:248|444:173,1,120,0|0,1:0|0:0,0:0:0:0:
463,146,85464,2,0,P|470:102|457:51,1,80,2|0,0:0|1:0,0:0:0:0:
377,3,85764,1,2,0:0:0:0:
377,3,85914,1,0,1:0:0:0:
277,181,86064,6,0,P|286:133|277:84,1,96,8|0,0:0|0:0,0:0:0:0:
236,68,86364,2,0,P|194:73|154:67,1,80,2|0,0:0|0:0,0:0:0:0:
0,149,86664,2,0,P|42:154|82:148,1,80,0|0,0:0|1:0,0:0:0:0:
203,178,86964,6,0,P|212:222|205:271,1,85.3333333333333,4|0,1:2|0:0,0:0:0:0:
177,355,87264,2,0,L|295:355,1,106.666666666667,2|0,0:0|0:0,0:0:0:0:
373,337,87564,2,0,P|364:280|384:226,1,106.666666666667,2|0,0:0|0:0,0:0:0:0:
468,188,87864,6,0,P|476:144|456:81,1,85.3333333333333,8|0,0:0|0:0,0:0:0:0:
398,51,88164,2,0,B|344:38|344:38|276:64,1,106.666666666667,2|0,0:0|0:0,0:0:0:0:
239,107,88464,2,0,B|185:120|185:120|117:94,1,106.666666666667,2|0,0:0|0:0,0:0:0:0:
63,52,88764,2,0,L|68:170,1,96,0|0,1:0|0:0,0:0:0:0:
68,192,89064,6,0,P|104:201|157:191,1,64,2|0,0:0|1:0,0:0:0:0:
231,266,89364,1,2,0:0:0:0:
231,266,89514,1,0,1:0:0:0:
339,111,89664,2,0,L|341:225,1,96,8|0,0:0|0:0,0:0:0:0:
343,246,89964,2,0,P|386:253|447:236,1,80,2|0,0:0|0:0,0:0:0:0:
272,352,90264,2,0,P|229:345|168:362,1,80,2|0,0:0|0:0,0:0:0:0:
68,286,90564,6,0,L|68:187,1,85.3333333333333,4|0,1:2|0:0,0:0:0:0:
108,120,90864,2,0,P|162:111|242:140,1,106.666666666667,2|0,0:0|0:0,0:0:0:0:
269,179,91164,2,0,P|323:188|403:159,1,106.666666666667,2|0,0:0|0:0,0:0:0:0:
462,108,91464,6,0,L|461:213,1,96,8|0,0:0|0:0,0:0:0:0:
454,253,91764,2,0,P|411:258|363:243,1,80,2|0,0:0|0:0,0:0:0:0:
207,277,92064,2,0,P|250:282|298:267,1,80,2|0,0:0|0:0,0:0:0:0:
336,165,92364,6,0,P|343:103|331:48,1,96,0|0,1:0|0:0,0:0:0:0:
316,40,92664,2,0,P|266:37|228:45,1,64,2|0,0:0|1:0,0:0:0:0:
163,84,92964,1,2,0:0:0:0:
163,84,93114,1,0,1:0:0:0:
223,250,93264,6,0,L|230:165,1,80,8|0,0:0|0:0,0:0:0:0:
252,46,94164,6,0,P|291:58|335:45,1,64,2|0,0:0|0:0,0:0:0:0:
429,136,94464,2,0,P|372:131|319:177,1,120,0|0,0:0|0:0,0:0:0:0:
303,248,95064,6,0,P|310:285|307:328,1,64,2|0,0:0|0:0,0:0:0:0:
167,381,95364,2,0,L|171:327,1,40,0|0,0:0|0:0,0:0:0:0:
177,250,95664,1,0,0:0:0:0:
101,196,95814,1,0,0:0:0:0:
22,249,95964,6,0,P|15:284|19:333,1,64,2|0,0:0|0:0,0:0:0:0:
101,196,96264,2,0,P|109:137|88:75,1,120,0|0,0:0|0:0,0:0:0:0:
192,41,96864,6,0,L|268:37,1,64,2|0,0:0|0:0,0:0:0:0:
372,118,97164,2,0,L|296:114,1,64,2|0,0:0|0:0,0:0:0:0:
192,196,97464,2,0,L|268:192,1,64,2|0,0:0|0:0,0:0:0:0:
381,237,97764,6,0,P|337:242|314:266,1,64,2|0,0:0|0:0,0:0:0:0:
178,344,98064,2,0,P|233:350|284:323,1,103.999995239258,0|0,0:0|0:0,0:0:0:0:
322,253,98514,1,0,0:0:0:0:
422,353,98664,6,0,L|410:246,1,96,2|0,0:0|0:0,0:0:0:0:
454,230,98964,2,0,L|461:158,1,64,2|0,0:0|0:0,0:0:0:0:
357,47,99264,2,0,L|364:119,1,64,2|0,0:0|0:0,0:0:0:0:
285,193,99564,6,0,P|227:202|164:166,1,128,0|2,0:0|0:0,0:0:0:0:
145,78,100014,1,0,0:0:0:0:
77,158,100164,2,0,L|71:226,1,64,2|0,0:0|0:0,0:0:0:0:
89,323,100464,6,0,B|86:398|131:400|165:383|197:341|219:294|171:221,1,259.999988098145,2|0,0:0|0:0,0:0:0:0:
262,330,101364,5,2,0:0:0:0:
357,250,101664,1,0,0:0:0:0:
357,134,102264,5,2,0:0:0:0:
277,229,102564,1,0,0:0:0:0:
186,227,102864,1,0,0:0:0:0:
142,195,103164,1,2,0:0:0:0:
124,166,103464,2,0,L|123:115,1,47.9999985351563,0|0,0:0|0:0,0:0:0:0:
133,109,104064,6,0,L|132:61,1,47.9999985351563,2|0,0:0|0:0,0:0:0:0:
223,6,104764,6,0,L|182:2,2,40
260,18,104964,6,0,L|258:378,1,359.999989013672,2|0,0:0|0:0,0:0:0:0:
