osu file format v14

[General]
AudioFilename: audio.mp3
AudioLeadIn: 0
PreviewTime: 22164
Countdown: 0
SampleSet: Soft
StackLeniency: 0.7
Mode: 0
LetterboxInBreaks: 0
WidescreenStoryboard: 1

[Editor]
Bookmarks: 36564,43464,50964,65364,79764,101364
DistanceSpacing: 1
BeatDivisor: 4
GridSize: 8
TimelineZoom: 2.4

[Metadata]
Title:Stellar
TitleUnicode:Stellar
Artist:M2U
ArtistUnicode:M2U
Creator:Ultima Fox
Version:Normal
Source:Deemo
Tags:defiance nicode rayark
BeatmapID:1625483
BeatmapSetID:773043

[Difficulty]
HPDrainRate:4
CircleSize:3.2
OverallDifficulty:4
ApproachRate:5
SliderMultiplier:0.9
SliderTickRate:1

[Events]
//Background and Video events
0,0,"bg from spectators map.jpg",0,0
//Break Periods
2,65564,70464
//Storyboard Layer 0 (Background)
//Storyboard Layer 1 (Fail)
//Storyboard Layer 2 (Pass)
//Storyboard Layer 3 (Foreground)
//Storyboard Sound Samples

[TimingPoints]
564,300,3,2,1,37,1,0
22164,-100,3,2,1,55,0,1
36564,-100,3,2,1,55,0,0
50964,-100,3,2,1,55,0,1
65364,-100,3,2,1,55,0,0
79764,-100,3,2,1,55,0,1
94164,-100,3,2,1,37,0,0
104964,-125,3,2,1,37,0,0
105864,-125,3,2,1,32,0,0
106764,-125,3,2,1,27,0,0
107664,-125,3,2,1,22,0,0
108564,-125,3,2,1,17,0,0
109464,-125,3,2,1,5,0,0

[Colours]
Combo1 : 189,86,83
Combo2 : 250,253,198
Combo3 : 100,121,206
Combo4 : 169,122,148

[HitObjects]
180,344,564,6,0,L|290:353,1,90,2|0,0:0|0:0,0:0:0:0:
389,216,1464,2,0,L|279:225,1,90,0|0,0:0|0:0,0:0:0:0:
216,188,2064,1,0,0:0:0:0:
291,139,2364,6,0,L|380:131,2,90,2|0|0,0:0|0:0|0:0,0:0:0:0:
216,188,3264,2,0,P|175:186|121:171,1,90,2|2,0:0|0:0,0:0:0:0:
72,102,3864,1,2,0:0:0:0:
28,180,4164,6,0,L|37:282,1,90,2|2,0:0|0:0,0:0:0:0:
192,359,5064,2,0,P|196:307|204:258,1,90,2|0,0:0|0:0,0:0:0:0:
271,212,5664,1,0,0:0:0:0:
292,299,5964,6,0,L|393:300,2,90,0|2|2,0:0|0:0|0:0,0:0:0:0:
201,269,6864,2,0,B|112:243|112:305|7:279,1,180,2|0,0:0|0:0,0:0:0:0:
2,195,7764,5,2,0:0:0:0:
2,195,8064,2,0,L|8:93,1,90,0|0,0:0|0:0,0:0:0:0:
67,37,8664,2,0,P|108:34|159:61,1,90,0|0,0:0|0:0,0:0:0:0:
181,139,9264,1,0,0:0:0:0:
240,71,9564,6,0,L|349:76,2,90,2|0|0,0:0|0:0|0:0,0:0:0:0:
181,139,10464,2,0,P|173:191|185:241,1,90,0|0,0:0|0:0,0:0:0:0:
321,338,11364,6,0,L|331:240,2,90,2|0|0,0:0|0:0|0:0,0:0:0:0:
239,376,12264,2,0,P|189:381|137:359,1,90,0|0,0:0|0:0,0:0:0:0:
106,290,12864,1,0,0:0:0:0:
162,220,13164,6,0,L|152:126,2,90,2|0|0,0:0|0:0|0:0,0:0:0:0:
233,274,14064,1,2,0:0:0:0:
322,265,14364,1,2,0:0:0:0:
411,257,14664,1,2,0:0:0:0:
500,245,14964,6,0,L|509:146,1,90,2|2,0:0|0:0,0:0:0:0:
453,84,15564,2,0,P|420:79|397:82,1,45,0|0,0:0|0:0,0:0:0:0:
372,107,15864,2,0,P|339:119|269:111,1,90,2|2,0:0|0:0,0:0:0:0:
228,46,16464,1,0,0:0:0:0:
174,118,16764,6,0,L|169:225,2,90,2|2|0,0:0|0:0|0:0,0:0:0:0:
85,101,17664,2,0,L|80:208,1,90,2|2,0:0|0:0,0:0:0:0:
184,338,18564,6,0,P|233:345|286:333,1,90,2|0,0:0|0:0,0:0:0:0:
308,255,19164,1,0,0:0:0:0:
391,289,19464,2,0,L|386:381,2,90,2|0|0,0:0|0:0|0:0,0:0:0:0:
459,230,20364,6,0,L|454:140,1,90,2|0,0:0|0:0,0:0:0:0:
387,79,20964,1,0,0:0:0:0:
314,132,21264,1,2,0:0:0:0:
238,83,21564,2,0,L|233:28,2,45,2|0|2,0:0|0:0|0:0,0:0:0:0:
204,166,22164,6,0,L|199:260,1,90,4|2,1:2|0:0,0:0:0:0:
259,322,22764,1,2,0:0:0:0:
333,270,23064,1,8,0:0:0:0:
403,326,23364,2,0,L|409:375,2,45,2|0|2,0:0|0:0|0:0,0:0:0:0:
333,270,23964,6,0,L|336:174,1,90,0|2,1:0|0:0,0:0:0:0:
307,144,24414,2,0,P|262:132|209:145,1,90,0|0,1:0|1:0,0:0:0:0:
190,173,24864,1,8,0:0:0:0:
123,112,25164,2,0,L|29:115,1,90,2|2,0:0|0:0,0:0:0:0:
2,199,25764,5,0,1:0:0:0:
70,257,26064,2,0,L|65:308,2,45,2|0|2,0:0|0:0|0:0,0:0:0:0:
151,217,26664,2,0,L|144:114,1,90,8|2,0:0|0:0,0:0:0:0:
201,57,27264,1,2,0:0:0:0:
259,125,27564,6,0,P|305:134|348:123,1,90,0|2,1:0|0:0,0:0:0:0:
375,89,28014,2,0,P|421:80|464:91,1,90,0|0,1:0|1:0,0:0:0:0:
488,126,28464,1,8,0:0:0:0:
509,213,28764,2,0,L|503:314,1,90,2|2,0:0|0:0,0:0:0:0:
475,337,29214,1,0,0:0:0:0:
433,355,29364,6,0,P|387:362|340:353,1,90,4|2,1:2|0:0,0:0:0:0:
297,277,29964,1,2,0:0:0:0:
249,353,30264,2,0,L|151:358,1,90,8|2,0:0|0:0,0:0:0:0:
69,360,30864,1,2,0:0:0:0:
117,284,31164,6,0,L|124:194,1,90,0|2,1:0|0:0,0:0:0:0:
156,163,31614,2,0,L|149:73,1,90,0|0,1:0|1:0,0:0:0:0:
128,33,32064,1,8,0:0:0:0:
212,0,32364,1,2,0:0:0:0:
261,75,32664,1,2,0:0:0:0:
333,21,32964,6,0,L|431:19,1,90,0|2,1:0|0:0,0:0:0:0:
498,67,33564,1,2,0:0:0:0:
440,136,33864,2,0,P|433:187|440:243,1,90,8|2,0:0|0:0,0:0:0:0:
493,294,34464,1,2,0:0:0:0:
422,350,34764,6,0,P|369:358|328:345,1,90,0|0,1:0|0:0,0:0:0:0:
308,311,35214,2,0,P|255:303|214:316,1,90,0|0,1:0|1:0,0:0:0:0:
193,348,35664,1,8,0:0:0:0:
134,279,35964,2,0,L|131:168,1,90,0|2,0:0|0:0,0:0:0:0:
184,116,36564,6,0,P|217:105|279:112,1,90,4|2,1:2|0:0,0:0:0:0:
330,176,37164,2,0,L|326:226,2,45,2|0|2,0:0|0:0|0:0,0:0:0:0:
401,121,37764,2,0,L|395:22,1,90,2|2,0:0|0:0,0:0:0:0:
483,49,38364,6,0,L|488:138,1,90,0|2,1:0|0:0,0:0:0:0:
429,206,38964,2,0,L|425:267,2,45,0|0|2,0:0|0:0|0:0,0:0:0:0:
401,121,39564,1,2,0:0:0:0:
330,176,39864,1,2,0:0:0:0:
273,105,40164,6,0,L|176:103,2,90,0|2|0,1:0|0:0|0:0,0:0:0:0:
336,40,41064,2,0,L|433:38,2,90,2|0|2,0:0|0:0|0:0,0:0:0:0:
273,105,41964,6,0,L|176:103,1,90,0|2,1:0|0:0,0:0:0:0:
114,43,42564,2,0,L|118:-3,2,45,0|0|0,0:0|0:0|0:0,0:0:0:0:
54,110,43164,2,0,L|64:211,1,90,2|2,0:0|0:0,0:0:0:0:
107,277,43764,5,4,1:2:0:0:
170,213,44064,2,0,B|260:197|260:256|361:227,1,180,2|2,0:0|0:0,0:0:0:0:
421,278,44964,2,0,P|434:236|420:178,1,90,2|0,0:0|0:0,0:0:0:0:
350,142,45564,5,0,1:0:0:0:
429,100,45864,2,0,P|363:53|271:98,1,180,2|0,0:0|0:0,0:0:0:0:
251,173,46764,2,0,P|252:215|256:238,2,45,2|0|0,0:0|0:0|0:0,0:0:0:0:
188,108,47364,6,0,L|79:112,1,90,0|0,1:0|0:0,0:0:0:0:
62,138,47814,1,2,0:0:0:0:
38,176,47964,2,0,P|30:226|38:274,1,90,2|2,0:0|0:0,0:0:0:0:
98,328,48564,2,0,L|196:332,1,90,2|2,0:0|0:0,0:0:0:0:
269,293,49164,5,0,1:0:0:0:
302,262,49314,2,0,P|310:209|295:158,1,90,8|8,0:0|0:0,0:0:0:0:
215,152,49764,2,0,L|157:154,2,45,0|0|8,1:0|1:0|0:0,0:0:0:0:
281,90,50364,2,0,L|339:92,2,45,8|8|0,0:0|0:0|1:0,0:0:0:0:
203,59,50964,6,0,L|103:62,1,90,4|2,1:2|0:0,0:0:0:0:
56,131,51564,1,2,0:0:0:0:
116,197,51864,1,8,0:0:0:0:
54,262,52164,2,0,L|3:259,2,45,2|0|2,0:0|0:0|0:0,0:0:0:0:
119,323,52764,6,0,L|213:320,1,90,0|2,1:0|0:0,0:0:0:0:
241,288,53214,2,0,L|335:285,1,90,0|0,1:0|1:0,0:0:0:0:
370,263,53664,1,8,0:0:0:0:
439,320,53964,2,0,P|456:288|448:223,1,90,2|2,0:0|0:0,0:0:0:0:
385,176,54564,5,4,1:2:0:0:
459,125,54864,2,0,L|511:128,2,45,2|0|2,0:0|0:0|0:0,0:0:0:0:
378,83,55464,2,0,L|280:90,1,90,8|2,0:0|0:0,0:0:0:0:
201,65,56064,1,2,0:0:0:0:
232,149,56364,6,0,L|239:257,1,90,0|2,1:0|0:0,0:0:0:0:
214,277,56814,2,0,P|174:294|114:283,1,90,0|0,1:0|1:0,0:0:0:0:
96,258,57264,1,8,0:0:0:0:
50,180,57564,2,0,L|57:87,1,90,2|2,0:0|0:0,0:0:0:0:
90,60,58014,1,0,1:0:0:0:
133,49,58164,6,0,L|241:47,1,90,4|2,1:2|0:0,0:0:0:0:
300,2,58764,1,2,0:0:0:0:
354,73,59064,2,0,P|360:118|360:168,1,90,8|2,0:0|0:0,0:0:0:0:
295,224,59664,1,2,0:0:0:0:
223,169,59964,6,0,P|192:161|134:173,1,90,0|2,1:0|0:0,0:0:0:0:
113,210,60414,2,0,P|82:218|24:206,1,90,0|0,1:0|1:0,0:0:0:0:
2,168,60864,1,8,0:0:0:0:
39,86,61164,2,0,L|136:81,1,90,2|2,0:0|0:0,0:0:0:0:
187,13,61764,6,0,L|284:18,1,90,4|2,1:2|0:0,0:0:0:0:
337,84,62364,1,2,0:0:0:0:
389,10,62664,2,0,P|432:5|489:22,2,90,8|2|2,0:0|0:0|0:0,0:0:0:0:
337,84,63564,6,0,P|328:140|331:182,1,90,0|2,1:0|0:0,0:0:0:0:
359,206,64014,2,0,L|456:212,1,90,0|0,1:0|1:0,0:0:0:0:
493,203,64464,1,8,0:0:0:0:
493,293,64764,2,0,L|396:295,1,90,0|0,0:0|0:0,0:0:0:0:
334,353,65364,5,2,0:0:0:0:
262,218,71664,6,0,P|266:290|266:324,2,90,2|2|2,0:0|0:0|0:0,0:0:0:0:
187,167,72564,6,0,P|222:135|342:174,1,180,2|0,0:0|0:0,0:0:0:0:
379,246,73464,1,2,0:0:0:0:
313,307,73764,2,0,B|223:323|226:270|127:293,1,180,2|2,0:0|0:0,0:0:0:0:
61,339,74664,6,0,L|58:384,2,45,0|2|0,0:0|0:0|0:0,0:0:0:0:
16,260,75264,2,0,L|8:157,1,90,2|0,0:0|0:0,0:0:0:0:
61,96,75864,1,0,0:0:0:0:
124,160,76164,6,0,P|191:183|266:158,1,135,0|2,1:0|0:0,0:0:0:0:
277,130,76764,1,0,0:0:0:0:
346,187,77064,2,0,L|343:280,1,90,8|0,0:0|0:0,0:0:0:0:
416,329,77664,1,0,0:0:0:0:
489,276,77964,5,0,1:0:0:0:
489,276,78114,2,0,L|486:186,1,90,8|8,0:0|0:0,0:0:0:0:
458,150,78564,2,0,L|462:99,2,45,0|0|8,1:0|1:0|0:0,0:0:0:0:
382,199,79164,2,0,L|386:250,2,45,8|8|0,0:0|0:0|1:0,0:0:0:0:
314,139,79764,6,0,P|268:131|216:148,1,90,4|2,1:2|0:0,0:0:0:0:
168,210,80364,1,2,0:0:0:0:
224,279,80664,1,8,0:0:0:0:
162,344,80964,2,0,L|114:345,2,45,2|0|2,0:0|0:0|0:0,0:0:0:0:
246,375,81564,6,0,L|349:376,1,90,0|2,1:0|0:0,0:0:0:0:
371,347,82014,2,0,P|380:299|365:244,1,90,0|0,1:0|1:0,0:0:0:0:
333,235,82464,1,8,0:0:0:0:
367,151,82764,2,0,P|324:142|271:165,1,90,2|2,0:0|0:0,0:0:0:0:
241,237,83364,5,4,1:2:0:0:
189,162,83664,2,0,L|191:113,2,45,2|0|2,0:2|0:0|0:2,0:0:0:0:
132,231,84264,2,0,L|147:336,1,90,8|2,0:0|0:0,0:0:0:0:
211,380,84864,1,2,0:0:0:0:
273,314,85164,6,0,P|309:305|363:316,1,90,0|2,1:0|0:0,0:0:0:0:
388,349,85614,2,0,P|424:358|478:347,1,90,0|0,1:0|1:0,0:0:0:0:
504,313,86064,1,8,0:0:0:0:
461,233,86364,2,0,L|465:141,1,90,2|0,0:0|0:0,0:0:0:0:
437,107,86814,1,0,1:0:0:0:
400,80,86964,6,0,P|358:72|309:81,1,90,4|2,1:2|0:0,0:0:0:0:
264,156,87564,1,2,0:0:0:0:
222,76,87864,2,0,L|124:76,1,90,8|2,0:0|0:0,0:0:0:0:
47,107,88464,1,2,0:0:0:0:
115,165,88764,6,0,P|127:219|119:265,1,90,0|2,1:0|0:0,0:0:0:0:
82,272,89214,2,0,P|70:326|78:372,1,90,0|0,1:0|1:0,0:0:0:0:
112,383,89664,1,8,0:0:0:0:
191,341,89964,2,0,L|294:343,1,90,2|2,0:0|0:0,0:0:0:0:
358,295,90564,6,0,P|367:248|353:194,1,90,4|2,1:2|0:0,0:0:0:0:
273,176,91164,1,2,0:0:0:0:
344,121,91464,2,0,L|438:125,1,90,8|2,0:0|0:0,0:0:0:0:
510,76,92064,1,2,0:0:0:0:
430,34,92364,6,0,L|340:30,1,90,0|2,1:0|0:0,0:0:0:0:
299,49,92814,2,0,L|209:52,1,90,0|0,1:0|1:0,0:0:0:0:
169,31,93264,1,8,0:0:0:0:
111,100,93564,2,0,P|104:142|111:192,1,90,0|0,0:0|0:0,0:0:0:0:
173,253,94164,6,0,P|217:262|266:255,1,90,2|0,0:0|0:0,0:0:0:0:
422,176,95064,2,0,L|329:174,1,90,2|0,0:0|0:0,0:0:0:0:
258,121,95664,1,0,0:0:0:0:
341,87,95964,2,0,L|430:88,1,90,2|0,0:0|0:0,0:0:0:0:
507,137,96564,5,0,0:0:0:0:
507,137,96864,2,0,P|516:188|502:237,1,90,2|2,0:0|0:0,0:0:0:0:
427,272,97464,1,2,0:0:0:0:
366,205,97764,6,0,L|266:208,1,90,2|0,0:0|0:0,0:0:0:0:
168,352,98664,2,0,L|68:349,1,90,2|2,0:0|0:0,0:0:0:0:
22,278,99264,1,2,0:0:0:0:
85,213,99564,6,0,P|88:177|78:118,1,90,0|2,0:0|0:0,0:0:0:0:
38,44,100164,1,2,0:0:0:0:
38,44,100464,2,0,B|128:15|124:82|230:54,1,180,2|0,0:0|0:0,0:0:0:0:
286,4,101364,6,0,L|383:-2,2,90,2|0|0,0:0|0:0|0:0,0:0:0:0:
213,57,102264,2,0,P|206:106|208:158,1,90,2|0,0:0|0:0,0:0:0:0:
272,208,102864,1,0,0:0:0:0:
272,208,103164,6,0,P|304:216|368:208,2,90,2|0|0,0:0|0:0|0:0,0:0:0:0:
206,146,104064,2,0,P|169:143|112:160,1,90,2|0,0:0|0:0,0:0:0:0:
173,289,104964,6,0,B|220:325|289:334|289:334|306:273|289:212|289:212|346:170|360:103|360:103|303:78|248:77|248:77|232:25|187:-12|187:-12|138:9|105:73|105:73|56:69|-7:109|-7:109|5:164|62:210|62:210|49:262|67:323,1,1080,2|0,0:0|0:0,0:0:0:0:
