osu file format v14

[General]
AudioFilename: audio.mp3
AudioLeadIn: 0
PreviewTime: 159975
Countdown: 1
SampleSet: Soft
StackLeniency: 0.3
Mode: 0
LetterboxInBreaks: 0
WidescreenStoryboard: 1

[Editor]
Bookmarks: 80756,136069,185569,188569,191569,212850,217256,217819,217912,218006,218100,218194,218287,218381,218475,218569,220069,226069,247069,264319,287569,315319,325069,328631,329194,329569,340069,345319,345694,346069,349069,349819,350569,352069
DistanceSpacing: 1.4
BeatDivisor: 2
GridSize: 32
TimelineZoom: 2.4

[Metadata]
Title:Songs Compilation
TitleUnicode:Songs Compilation
Artist:M2U
ArtistUnicode:M2U
Creator:Finshie
Version:Life, Death, and Liberation
Source:Deemo
Tags:wav.av. magnolia myosotis marigold rayark NICODE Guriri Lucy symphonic boss song piano violin dnb drum'n'bass drum and bass Samsara Collection forgotten hourglass 3.0 SQUARE-MUSIQ TMDC @ SQ Lab nicode narae 구리리 グリリ Guriri 구리리 Diversity
BeatmapID:1342516
BeatmapSetID:632453

[Difficulty]
HPDrainRate:5
CircleSize:4.5
OverallDifficulty:9
ApproachRate:9.4
SliderMultiplier:1.6
SliderTickRate:1

[Events]
//Background and Video events
0,0,"bgf.jpg",0,0
//Break Periods
2,331269,338029
//Storyboard Layer 0 (Background)
//Storyboard Layer 1 (Fail)
//Storyboard Layer 2 (Pass)
//Storyboard Layer 3 (Foreground)
//Storyboard Sound Samples

[TimingPoints]
2569,375,4,2,1,40,1,0
2569,-166.666666666667,4,2,1,40,0,0
2850,-166.666666666667,4,2,1,5,0,0
2944,-166.666666666667,4,2,1,40,0,0
3600,-166.666666666667,4,2,1,5,0,0
3694,-166.666666666667,4,2,1,40,0,0
3975,-166.666666666667,4,2,1,5,0,0
4069,-166.666666666667,4,2,1,40,0,0
4444,-166.666666666667,4,2,1,5,0,0
4631,-166.666666666667,4,2,1,40,0,0
5194,-166.666666666667,4,2,1,5,0,0
5569,-166.666666666667,4,2,1,40,0,0
6600,-166.666666666667,4,2,1,5,0,0
6694,-166.666666666667,4,2,1,40,0,0
6975,-166.666666666667,4,2,1,5,0,0
7069,-166.666666666667,4,2,1,40,0,0
7444,-166.666666666667,4,2,1,5,0,0
7631,-166.666666666667,4,2,1,40,0,0
8569,-125,4,2,2,60,0,0
8850,-125,4,2,2,5,0,0
8944,-125,4,2,2,60,0,0
9600,-125,4,2,2,5,0,0
9694,-125,4,2,2,60,0,0
9975,-125,4,2,2,5,0,0
10069,-125,4,2,2,60,0,0
10350,-125,4,2,2,5,0,0
10444,-100,4,2,2,60,0,0
11100,-100,4,2,2,5,0,0
11194,-100,4,2,2,60,0,0
11475,-100,4,2,2,5,0,0
11569,-100,4,2,2,60,0,0
11850,-100,4,2,2,5,0,0
11944,-83.3333333333333,4,2,2,61,0,0
12600,-83.3333333333333,4,2,2,5,0,0
12694,-83.3333333333333,4,2,2,60,0,0
12975,-83.3333333333333,4,2,2,5,0,0
13069,-192.307692307692,4,2,2,60,0,0
13725,-166.666666666667,4,2,2,5,0,0
13819,-50,4,2,2,60,0,0
14569,-100,4,2,2,70,0,0
23569,-100,4,2,1,60,0,0
24319,-100,4,2,1,45,0,0
25069,-100,4,2,1,30,0,0
25819,-100,4,2,1,45,0,0
26569,-100,4,2,1,5,0,0
28069,-125,4,2,1,40,0,0
28444,-125,4,2,1,5,0,0
28819,-125,4,2,1,40,0,0
31444,-125,4,2,1,5,0,0
31819,-125,4,2,1,40,0,0
37444,-125,4,2,1,40,0,0
37537,-125,4,2,1,40,0,0
37631,-125,4,2,1,5,0,0
37819,-125,4,2,1,40,0,0
40069,-111.111111111111,4,2,2,60,0,0
52069,-100,4,2,2,70,0,0
58069,-125,4,2,2,70,0,0
58631,-111.111111111111,4,2,2,70,0,0
59194,-100,4,2,2,70,0,0
59569,-90.9090909090909,4,2,2,70,0,0
60131,-83.3333333333333,4,2,2,70,0,0
61069,-100,4,2,2,70,0,0
65569,-100,4,2,2,5,0,0
65662,-100,4,2,2,70,0,0
65944,-100,4,2,2,70,0,0
66131,-100,4,2,2,70,0,0
68194,-275,4,2,2,70,0,0
69225,-275,4,2,2,5,0,0
69319,-50,4,2,1,70,0,0
70069,-125,4,2,1,50,0,0
76069,-99.9999999999999,4,2,2,60,0,0
80756,-50,4,2,2,60,0,0
81694,-200,4,2,2,60,0,0
82069,-57.1428571428571,4,2,2,70,0,1
84319,-50,4,2,2,70,0,1
85069,-57.1428571428571,4,2,2,70,0,1
87131,-40,4,2,2,70,0,1
87319,-50,4,2,2,70,0,1
87694,-40,4,2,2,70,0,1
88069,-57.1428571428571,4,2,2,70,0,1
90319,-50,4,2,2,70,0,1
91069,-57.1428571428571,4,2,2,70,0,1
91819,-40,4,2,2,70,0,1
92569,-50,4,2,2,70,0,1
93131,-200,4,2,2,70,0,1
93506,-100,4,2,2,70,0,1
93694,-50,4,2,2,70,0,1
94069,-114.285714285714,4,2,2,70,0,1
94256,-57.1428571428571,4,2,2,70,0,1
95569,-50,4,2,2,70,0,1
96319,-57.1428571428571,4,2,2,70,0,1
97069,-114.285714285714,4,2,2,70,0,1
97256,-57.1428571428571,4,2,2,70,0,1
99131,-40,4,2,2,70,0,1
99319,-50,4,2,2,70,0,1
99694,-40,4,2,2,70,0,1
100069,-114.285714285714,4,2,2,70,0,1
100444,-57.1428571428571,4,2,2,70,0,1
101569,-50,4,2,2,70,0,1
102319,-40,4,2,2,70,0,1
103069,-200,4,2,2,70,0,1
103631,-100,4,2,2,70,0,1
104194,-50,4,2,2,70,0,1
104756,-40,4,2,2,70,0,1
104944,-50,4,2,2,70,0,0
105319,-50,4,2,2,70,0,1
106069,-125,4,2,2,60,0,0
118069,-100,4,2,2,70,0,0
124069,-125,4,2,2,70,0,0
124631,-111.111111111111,4,2,2,70,0,0
125194,-100,4,2,2,70,0,0
125569,-90.9090909090909,4,2,2,70,0,0
126131,-83.3333333333333,4,2,2,70,0,0
127069,-100,4,2,2,70,0,0
131194,-200,4,2,2,70,0,0
131944,-100,4,2,2,70,0,0
135881,-100,4,2,2,5,0,0
136069,-90.9090909090909,4,2,3,70,0,0
137100,-90.9090909090909,4,2,3,5,0,0
137194,-90.9090909090909,4,2,3,70,0,0
137475,-90.9090909090909,4,2,3,5,0,0
137569,-90.9090909090909,4,2,3,70,0,0
138319,-57.1428571428571,4,2,3,70,0,1
139069,-90.9090909090909,4,2,3,70,0,0
141319,-50,4,2,3,70,0,1
142069,-90.9090909090909,4,2,3,70,0,0
144319,-90.9090909090909,4,2,3,70,0,1
145069,-90.9090909090909,4,2,3,60,0,0
146569,-200,4,2,3,50,0,0
147131,-100,4,2,3,50,0,0
148069,-200,4,2,3,50,0,0
149006,-200,4,2,3,5,0,0
149569,-125,4,2,3,50,0,0
155100,-125,4,2,3,5,0,0
155194,-125,4,2,3,50,0,0
155475,-125,4,2,3,5,0,0
155569,-125,4,2,3,50,0,0
157350,-125,4,2,3,5,0,0
157444,-125,4,2,3,50,0,0
157725,-125,4,2,3,5,0,0
157819,-125,4,2,3,50,0,0
158100,-125,4,2,3,5,0,0
158194,-125,4,2,3,50,0,0
160069,-100,4,2,3,60,0,0
168319,-90.9090909090909,4,2,3,70,0,0
169069,-83.3333333333333,4,2,3,70,0,0
170569,-76.9230769230769,4,2,3,60,0,0
172069,-100,4,2,3,60,0,0
179569,-90.9090909090909,4,2,3,60,0,0
180319,-83.3333333333333,4,2,3,70,0,0
181069,-76.9230769230769,4,2,3,70,0,0
182569,-83.3333333333333,4,2,3,60,0,0
188569,-100,4,2,3,50,0,0
191569,-250,4,2,3,50,0,0
192225,-250,4,2,3,5,0,0
192319,-250,4,2,3,50,0,0
194475,-250,4,2,3,5,0,0
194569,-83.3333333333333,4,2,3,60,0,0
195225,-83.3333333333333,4,2,3,5,0,0
195319,-57.1428571428571,4,2,4,80,0,1
196444,-66.6666666666667,4,2,4,80,0,1
197194,-57.1428571428571,4,2,4,80,0,1
197569,-54.054054054054,4,2,4,80,0,1
198319,-50,4,2,4,80,0,1
198881,-100,4,2,4,80,0,1
199256,-57.1428571428571,4,2,4,80,0,1
200569,-200,4,2,4,80,0,1
200756,-200,4,2,4,40,0,1
200850,-40,4,2,4,80,0,1
201319,-57.1428571428571,4,2,4,80,0,1
202444,-66.6666666666667,4,2,4,80,0,1
203194,-57.1428571428571,4,2,4,80,0,1
203569,-54.054054054054,4,2,4,80,0,1
203944,-50,4,2,4,80,0,1
204506,-100,4,2,4,80,0,1
204881,-100,4,2,4,80,0,1
205256,-125,4,2,4,80,0,1
205819,-57.1428571428571,4,2,4,80,0,1
206569,-54.054054054054,4,2,4,80,0,1
206944,-51.2820512820513,4,2,4,80,0,1
207319,-57.1428571428571,4,2,4,80,0,1
208444,-66.6666666666667,4,2,4,80,0,1
209194,-57.1428571428571,4,2,4,80,0,1
209569,-54.054054054054,4,2,4,80,0,1
210319,-50,4,2,4,80,0,1
210881,-100,4,2,4,80,0,1
211256,-57.1428571428571,4,2,4,80,0,1
212569,-200,4,2,4,80,0,1
212850,-40,4,2,4,80,0,1
213319,-57.1428571428571,4,2,4,80,0,1
214444,-66.6666666666667,4,2,4,80,0,1
215194,-57.1428571428571,4,2,4,80,0,1
215569,-54.054054054054,4,2,4,80,0,1
215944,-50,4,2,4,80,0,1
217256,-66.6666666666667,4,2,4,80,0,1
218006,-66.6666666666667,4,2,10,80,0,1
218569,-100,4,2,3,50,0,0
220069,-111.111111111111,4,2,3,50,0,0
224569,-111.111111111111,4,2,10,50,0,0
224944,-111.111111111111,4,2,3,50,0,0
226069,-100,4,2,3,50,0,0
233569,-200,4,2,3,50,0,0
234225,-200,4,2,3,5,0,0
234319,-200,4,2,3,50,0,0
235069,-100,4,2,3,50,0,0
244069,-133.333333333333,4,2,3,50,0,0
244819,-200,4,2,3,50,0,0
246881,-200,4,2,3,5,0,0
247069,-90.9090909090909,4,2,5,70,0,0
247444,-90.9090909090909,4,2,5,35,0,0
247537,-90.9090909090909,4,2,5,70,0,0
248194,-90.9090909090909,4,2,5,35,0,0
248287,-90.9090909090909,4,2,5,70,0,0
248850,-90.9090909090909,4,2,5,5,0,0
248944,-90.9090909090909,4,2,5,70,0,0
249225,-90.9090909090909,4,2,5,5,0,0
249319,-90.9090909090909,4,2,5,70,0,0
251850,-90.9090909090909,4,2,5,5,0,0
251944,-90.9090909090909,4,2,5,70,0,0
252225,-90.9090909090909,4,2,5,5,0,0
252319,-90.9090909090909,4,2,5,70,0,0
252600,-90.9090909090909,4,2,5,5,0,0
252694,-90.9090909090909,4,2,5,70,0,0
252975,-90.9090909090909,4,2,5,5,0,0
253069,-90.9090909090909,4,2,5,70,0,0
260569,-166.666666666666,4,2,5,60,0,0
265069,-125,4,2,5,60,0,0
274069,-100,4,2,5,60,0,0
274350,-100,4,2,5,5,0,0
274444,-100,4,2,5,60,0,0
274725,-100,4,2,5,5,0,0
274819,-83.3333333333333,4,2,5,60,0,0
275100,-83.3333333333333,4,2,5,5,0,0
275194,-83.3333333333333,4,2,5,60,0,0
275475,-83.3333333333333,4,2,5,5,0,0
275569,-125,4,2,5,60,0,0
284569,-100,4,2,5,60,0,0
284850,-100,4,2,5,5,0,0
284944,-100,4,2,5,60,0,0
285225,-100,4,2,5,5,0,0
285319,-83.3333333333333,4,2,5,60,0,0
285600,-83.3333333333333,4,2,5,5,0,0
285694,-83.3333333333333,4,2,5,60,0,0
285975,-83.3333333333333,4,2,5,5,0,0
286069,-71.4285714285714,4,2,5,60,0,0
286350,-71.4285714285714,4,2,5,5,0,0
286444,-71.4285714285714,4,2,5,60,0,0
286819,-200,4,2,5,60,0,0
287475,-200,4,2,5,5,0,0
287569,-100,4,2,5,60,0,0
299569,-125,4,2,5,60,0,0
302569,-100,4,2,5,60,0,0
304819,-90.9090909090909,4,2,5,60,0,0
305194,-66.6666666666667,4,2,5,60,0,0
305569,-66.6666666666667,4,2,5,60,0,1
307631,-50,4,2,5,60,0,1
308006,-57.1428571428571,4,2,5,60,0,1
308569,-66.6666666666667,4,2,5,60,0,1
309881,-57.1428571428571,4,2,5,60,0,1
310819,-50,4,2,5,60,0,1
311569,-66.6666666666667,4,2,5,60,0,1
316069,-57.1428571428571,4,2,5,60,0,1
317194,-50,4,2,5,60,0,1
317569,-66.6666666666667,4,2,5,60,0,1
320006,-54.054054054054,4,2,5,60,0,1
320569,-66.6666666666667,4,2,5,60,0,1
322069,-50,4,2,5,60,0,1
322444,-47.6190476190476,4,2,5,60,0,1
322819,-45.4545454545455,4,2,5,60,0,1
323194,-43.4782608695652,4,2,5,60,0,1
323569,-54.054054054054,4,2,5,60,0,1
325069,-54.054054054054,4,2,5,60,0,1
326569,-66.6666666666667,4,2,5,60,0,1
327694,-54.054054054054,4,2,5,60,0,1
328069,-66.6666666666667,4,2,5,60,0,1
328631,-50,4,2,5,60,0,1
329569,-133.333333333333,4,2,5,60,0,1
330881,-100,4,2,5,30,0,0
331069,-100,4,2,55,30,0,0
340069,-125,4,2,5,60,0,0
348975,-125,4,2,5,5,0,0
349069,-100,4,2,5,60,0,0
349350,-100,4,2,5,5,0,0
349444,-100,4,2,5,60,0,0
349725,-100,4,2,5,5,0,0
349819,-83.3333333333333,4,2,5,60,0,0
350100,-83.3333333333333,4,2,5,5,0,0
350194,-83.3333333333333,4,2,5,60,0,0
350475,-83.3333333333333,4,2,5,5,0,0
350569,-71.4285714285714,4,2,5,60,0,0
350850,-71.4285714285714,4,2,5,5,0,0
350944,-71.4285714285714,4,2,5,60,0,0
351319,-200,4,2,5,60,0,0
351975,-200,4,2,5,5,0,0
352069,-111.111111111111,4,2,5,60,0,0
364069,-125,4,2,5,55,0,0
367069,-166.666666666667,4,2,5,50,0,0
368569,-200,4,2,5,45,0,0
369319,-200,4,2,5,40,0,0
370069,-200,4,2,5,35,0,0
370819,-200,4,2,5,30,0,0
371569,-200,4,2,5,25,0,0
372319,-200,4,2,5,20,0,0
373069,-200,4,2,5,15,0,0
373819,-200,4,2,5,10,0,0
374381,-200,4,2,5,5,0,0

[HitObjects]
53,79,2569,6,0,P|103:79|134:52,1,71.9999978027344,4|0,0:0|0:0,0:0:0:0:
199,31,2943,1,2,0:0:0:0:
198,55,3037,1,0,0:0:0:0:
196,78,3131,1,0,0:0:0:0:
194,102,3225,1,0,0:0:0:0:
193,127,3319,6,0,L|186:213,1,71.9999978027344,2|0,0:0|0:0,0:0:0:0:
264,156,3694,2,0,L|257:242,1,71.9999978027344,2|0,0:0|0:0,0:0:0:0:
338,137,4069,2,0,L|329:256,1,119.999996337891,2|0,0:0|0:0,0:0:0:0:
257,320,4631,5,0,0:0:0:0:
257,320,4725,1,0,0:0:0:0:
257,320,4819,2,0,P|338:284|400:349,1,167.999994873047,2|0,0:0|0:0,0:0:0:0:
323,362,5569,1,4,0:0:0:0:
66,282,5944,5,0,0:0:0:0:
88,263,6037,1,0,0:0:0:0:
115,255,6131,1,0,0:0:0:0:
143,257,6225,1,0,0:0:0:0:
173,274,6319,6,0,L|262:263,1,71.9999978027344,2|0,0:0|0:0,0:0:0:0:
200,193,6694,2,0,L|289:182,1,71.9999978027344,2|0,0:0|0:0,0:0:0:0:
178,116,7069,2,0,L|297:102,1,119.999996337891,2|0,0:0|0:0,0:0:0:0:
358,52,7631,5,0,0:0:0:0:
358,52,7725,1,0,0:0:0:0:
358,52,7819,2,0,P|347:101|371:148,1,95.9999970703126,2|2,0:0|0:0,0:0:0:0:
438,285,8381,1,2,0:0:0:0:
438,285,8475,1,0,0:0:0:0:
438,285,8569,6,0,P|449:236|425:189,1,95.9999970703126,4|0,0:0|0:0,0:0:0:0:
364,141,8944,1,0,0:0:0:0:
339,142,9037,1,0,0:0:0:0:
313,142,9131,1,0,0:0:0:0:
287,143,9225,1,0,0:0:0:0:
231,100,9319,6,0,L|238:203,1,96,8|0,0:0|0:0,0:0:0:0:
158,134,9694,2,0,L|165:230,1,96,0|0,0:0|0:0,0:0:0:0:
85,168,10069,2,0,L|91:263,1,96,0|0,0:0|0:0,0:0:0:0:
35,321,10444,5,0,0:0:0:0:
63,307,10537,1,0,0:0:0:0:
95,300,10631,1,0,0:0:0:0:
127,303,10725,1,0,0:0:0:0:
193,332,10819,6,0,L|316:324,1,120,8|0,0:0|0:0,0:0:0:0:
201,248,11194,2,0,L|324:240,1,120,0|0,0:0|0:0,0:0:0:0:
209,164,11569,2,0,L|332:156,1,120,4|0,0:0|0:0,0:0:0:0:
406,231,11944,5,0,0:0:0:0:
426,198,12037,1,0,0:0:0:0:
434,161,12131,1,0,0:0:0:0:
427,124,12225,1,0,0:0:0:0:
376,73,12319,6,0,L|229:82,1,143.999995605469,8|0,0:0|0:0,0:0:0:0:
328,157,12694,2,0,L|181:165,1,143.999995605469,0|0,0:0|0:0,0:0:0:0:
280,240,13069,6,0,L|133:248,1,145.599999111328,0|0,0:0|0:0,0:0:0:0:
149,161,13819,6,0,P|226:263|74:317,1,320,8|0,0:0|0:0,0:0:0:0:
138,251,14287,1,0,0:0:0:0:
138,251,14381,1,0,0:0:0:0:
302,347,14569,5,6,0:0:0:0:
315,252,14756,1,0,0:0:0:0:
328,157,14944,1,0,0:0:0:0:
390,310,15131,6,0,B|501:311|501:311|463:270,1,160,8|0,0:0|0:0,0:0:0:0:
328,157,15694,2,0,B|217:156|217:156|255:197,1,160,2|0,0:0|0:0,0:0:0:0:
390,310,16256,5,8,0:0:0:0:
403,215,16444,1,0,0:0:0:0:
416,120,16631,1,0,0:0:0:0:
250,191,16819,5,2,0:0:0:0:
250,191,17006,2,0,P|157:204|82:146,1,160,0|0,0:0|0:0,0:0:0:0:
185,94,17569,2,0,P|277:80|352:138,1,160,2|0,0:0|0:0,0:0:0:0:
237,286,18131,1,0,0:0:0:0:
237,286,18225,1,0,0:0:0:0:
237,286,18319,5,8,0:0:0:0:
250,191,18506,1,0,0:0:0:0:
332,111,18694,1,0,0:0:0:0:
345,16,18881,1,0,0:0:0:0:
221,79,19069,5,2,0:0:0:0:
361,223,19256,1,0,0:0:0:0:
361,223,19350,1,0,0:0:0:0:
361,223,19444,1,0,0:0:0:0:
221,79,19631,2,0,P|159:120|145:231,1,160,8|0,0:0|0:0,0:0:0:0:
41,188,20194,2,0,P|43:231|78:271,1,80,8|0,0:0|0:0,0:0:0:0:
211,217,20569,6,0,P|172:197|120:207,1,80,6|0,0:0|0:0,0:0:0:0:
151,292,20850,1,0,0:0:0:0:
151,292,20944,1,0,0:0:0:0:
305,203,21131,2,0,L|300:19,1,160,8|0,0:0|0:0,0:0:0:0:
414,80,21694,2,0,L|418:239,1,160,2|0,0:0|0:0,0:0:0:0:
191,166,22256,5,8,0:0:0:0:
188,86,22444,1,0,0:0:0:0:
186,6,22631,1,0,0:0:0:0:
305,203,22819,5,4,0:0:0:0:
256,192,22912,12,0,26569,0:0:0:0:
48,49,28069,6,0,P|127:39|226:121,1,192,2|0,0:0|0:0,0:0:0:0:
322,109,28819,2,0,P|306:132|310:194,1,64,2|0,0:0|0:0,0:0:0:0:
201,199,29194,2,0,P|222:217|234:277,1,64,0|0,0:0|0:0,0:0:0:0:
336,281,29569,2,0,P|314:299|302:359,1,64,2|0,0:0|0:0,0:0:0:0:
390,359,29944,5,2,0:0:0:0:
430,273,30131,1,0,0:0:0:0:
376,195,30319,1,2,0:0:0:0:
280,203,30506,1,0,0:0:0:0:
240,289,30694,1,0,0:0:0:0:
336,281,30881,1,0,0:0:0:0:
320,117,31069,6,0,P|239:118|187:214,1,192,2|0,0:0|0:0,0:0:0:0:
90,205,31819,2,0,P|103:257|127:279,1,64,2|0,0:0|0:0,0:0:0:0:
247,218,32194,2,0,P|218:205|187:205,1,64,2|0,0:0|0:0,0:0:0:0:
156,346,32569,2,0,P|182:328|198:301,1,64,2|0,0:0|0:0,0:0:0:0:
186,205,32944,5,2,0:0:0:0:
108,264,33131,1,0,0:0:0:0:
288,336,33319,1,2,0:0:0:0:
95,167,33694,1,2,0:0:0:0:
108,264,33881,1,0,0:0:0:0:
31,172,34069,6,0,L|118:166,1,64,2|0,0:0|0:0,0:0:0:0:
107,91,34444,2,0,L|43:95,1,64,2|0,0:0|0:0,0:0:0:0:
159,218,34819,2,0,L|246:212,1,64,2|0,0:0|0:0,0:0:0:0:
234,137,35194,2,0,L|170:141,1,64,2|0,0:0|0:0,0:0:0:0:
286,264,35569,6,0,P|304:227|299:191,1,64,2|0,0:0|0:0,0:0:0:0:
384,217,35944,2,0,P|381:175|358:147,1,64,2|0,0:0|0:0,0:0:0:0:
445,127,36319,2,0,P|421:92|319:97,1,128,2|0,0:0|0:0,0:0:0:0:
370,316,37069,6,0,B|505:307|505:307|442:265,1,192,2|0,0:0|0:0,0:0:0:0:
384,217,37819,2,0,L|256:226,1,128,2|0,0:0|0:0,0:0:0:0:
142,135,38381,1,0,0:0:0:0:
142,135,38569,2,0,L|270:126,1,128,2|0,0:0|0:0,0:0:0:0:
256,225,39131,5,0,0:0:0:0:
269,126,39319,1,2,0:0:0:0:
367,107,39506,1,0,0:0:0:0:
414,194,39694,1,2,0:0:0:0:
346,267,39881,1,2,0:0:0:0:
125,136,40069,6,0,L|273:125,1,143.999995605469,6|0,0:0|0:0,0:0:0:0:
323,210,40631,1,0,0:0:0:0:
323,210,40819,2,0,P|289:226|231:212,1,71.9999978027344,8|0,0:0|0:0,0:0:0:0:
222,74,41194,2,0,P|252:94|269:152,1,71.9999978027344,0|0,0:0|0:0,0:0:0:0:
154,229,41569,6,0,P|156:191|198:148,1,71.9999978027344,0|0,0:0|0:0,0:0:0:0:
323,210,41944,1,2,0:0:0:0:
43,61,42319,2,0,L|52:219,1,143.999995605469,8|0,0:0|0:0,0:0:0:0:
154,229,42881,1,0,0:0:0:0:
154,229,43069,6,0,P|73:257|47:338,1,143.999995605469,2|0,0:0|0:0,0:0:0:0:
143,325,43631,1,0,0:0:0:0:
143,325,43819,2,0,L|232:315,1,71.9999978027344,8|0,0:0|0:0,0:0:0:0:
182,163,44194,2,0,L|146:245,1,71.9999978027344,0|0,0:0|0:0,0:0:0:0:
302,277,44569,6,0,L|248:204,1,71.9999978027344,0|0,0:0|0:0,0:0:0:0:
143,325,44944,1,2,0:0:0:0:
309,139,45319,2,0,P|239:125|181:164,1,143.999995605469,8|0,0:0|0:0,0:0:0:0:
259,219,45881,1,0,0:0:0:0:
402,97,46069,6,0,P|364:51|338:41,1,71.9999978027344,6|0,0:0|0:0,0:0:0:0:
309,139,46444,2,0,P|347:185|373:195,1,71.9999978027344,0|0,0:0|0:0,0:0:0:0:
252,53,46819,2,0,P|193:62|171:80,1,71.9999978027344,8|0,0:0|0:0,0:0:0:0:
241,156,47194,2,0,P|299:146|321:128,1,71.9999978027344,0|0,0:0|0:0,0:0:0:0:
138,160,47569,6,0,P|117:215|121:243,1,71.9999978027344,0|0,0:0|0:0,0:0:0:0:
221,224,47944,2,0,P|241:168|237:140,1,71.9999978027344,2|0,0:0|0:0,0:0:0:0:
174,309,48319,2,0,L|347:298,1,143.999995605469,8|0,0:0|0:0,0:0:0:0:
388,235,48881,1,0,0:0:0:0:
388,235,49069,6,0,P|364:298|389:370,1,143.999995605469,2|0,0:0|0:0,0:0:0:0:
483,207,49631,1,0,0:0:0:0:
483,207,49819,2,0,P|440:154|365:140,1,143.999995605469,8|0,0:0|0:0,0:0:0:0:
460,302,50381,1,0,0:0:0:0:
368,139,50569,6,0,L|207:130,1,143.999995605469,0|2,0:0|0:0,0:0:0:0:
224,130,51131,1,0,0:0:0:0:
309,215,51319,2,0,L|148:206,1,143.999995605469,8|0,0:0|0:0,0:0:0:0:
224,130,51881,1,0,0:0:0:0:
176,291,52069,6,0,P|114:277|81:188,1,160,6|0,0:0|0:0,0:0:0:0:
224,130,52631,1,8,0:0:0:0:
79,193,52819,1,0,0:0:0:0:
224,130,53006,1,0,0:0:0:0:
79,193,53194,2,0,L|-18:183,1,80,8|0,0:0|0:0,0:0:0:0:
224,130,53569,6,0,L|390:112,1,160,2|0,0:0|0:0,0:0:0:0:
289,242,54131,1,8,0:0:0:0:
383,112,54319,1,0,0:0:0:0:
289,242,54506,1,0,0:0:0:0:
383,112,54694,2,0,L|400:200,1,80,8|0,0:0|0:0,0:0:0:0:
491,208,54975,1,0,0:0:0:0:
491,208,55069,6,0,P|414:217|369:280,1,160,2|0,0:0|0:0,0:0:0:0:
383,112,55631,1,8,0:0:0:0:
369,280,55819,1,0,0:0:0:0:
383,112,56006,1,0,0:0:0:0:
463,302,56194,1,8,0:0:0:0:
383,112,56381,1,0,0:0:0:0:
463,302,56569,6,0,L|266:298,1,160,2|0,0:0|0:0,0:0:0:0:
117,272,57131,2,0,L|276:268,1,160,8|0,0:0|0:0,0:0:0:0:
463,302,57694,1,8,0:0:0:0:
463,302,58069,6,0,P|402:291|348:323,1,128,6|0,0:0|0:0,0:0:0:0:
153,333,58631,2,0,P|228:330|273:386,1,143.999995605469,8|0,0:0|0:0,0:0:0:0:
410,279,59194,2,0,P|373:293|347:323,1,80,8|0,0:0|0:0,0:0:0:0:
131,194,59569,2,0,P|216:200|270:267,1,176.000005371094,2|0,0:0|0:0,0:0:0:0:
450,75,60131,2,0,P|368:121|347:212,1,191.999994140625,8|0,0:0|0:0,0:0:0:0:
462,193,60694,1,8,0:0:0:0:
164,304,61069,5,2,0:0:0:0:
462,193,61444,1,0,0:0:0:0:
462,193,61631,2,0,P|474:88|442:12,1,160,8|0,0:0|0:0,0:0:0:0:
458,38,62194,1,8,0:0:0:0:
164,82,62569,5,2,0:0:0:0:
462,193,62944,1,0,0:0:0:0:
462,193,63131,2,0,P|474:298|442:374,1,160,8|0,0:0|0:0,0:0:0:0:
73,116,64069,6,0,P|144:114|218:180,1,160,2|0,0:0|0:0,0:0:0:0:
241,259,64631,2,0,P|239:188|305:114,1,160,8|0,0:0|0:0,0:0:0:0:
472,316,65194,6,0,B|393:251|293:310|345:340|242:403|164:326,1,320,8|0,1:2|0:0,0:0:0:0:
241,259,66131,1,0,0:0:0:0:
86,344,66319,2,0,P|47:352|8:346,1,80,8|0,0:0|0:0,0:0:0:0:
241,259,66694,2,0,P|280:251|319:257,1,80,0|0,0:0|0:0,0:0:0:0:
180,339,67069,6,0,P|141:261|181:178,1,160,2|0,0:0|0:0,0:0:0:0:
357,173,67631,2,0,P|308:245|217:252,1,160,8|0,0:0|0:0,0:0:0:0:
123,103,68194,6,0,P|210:108|261:184,1,160,8|0,1:2|0:0,0:0:0:0:
254,159,69319,6,0,P|256:231|64:185,1,320,0|0,0:0|0:0,0:0:0:0:
162,196,69787,1,0,0:0:0:0:
162,196,69881,1,0,0:0:0:0:
321,349,70069,5,2,0:0:0:0:
228,382,70256,1,0,0:0:0:0:
196,289,70443,1,2,0:0:0:0:
289,256,70631,1,2,0:0:0:0:
228,382,70819,6,0,L|148:377,1,64,2|0,0:0|0:0,0:0:0:0:
196,289,71194,2,0,L|120:263,1,64,2|0,0:0|0:0,0:0:0:0:
189,190,71569,2,0,L|122:145,1,64,2|0,0:0|0:0,0:0:0:0:
164,378,71944,1,2,0:0:0:0:
283,158,72131,1,2,0:0:0:0:
135,268,72319,6,0,L|88:236,1,32,2|0,0:0|0:0,0:0:0:0:
208,215,72506,2,0,L|189:190,1,32,2|0,0:0|0:0,0:0:0:0:
292,189,72694,2,0,L|276:134,1,32,2|0,0:0|0:0,0:0:0:0:
380,193,72881,2,0,L|383:136,1,32,2|0,0:0|0:0,0:0:0:0:
461,226,73069,5,2,0:0:0:0:
428,307,73256,1,0,0:0:0:0:
347,274,73444,1,2,0:0:0:0:
380,193,73631,1,2,0:0:0:0:
428,307,73819,6,0,L|421:382,1,64,2|0,0:0|0:0,0:0:0:0:
347,274,74100,1,0,0:0:0:0:
347,274,74194,2,0,L|320:344,1,64,2|0,0:0|0:0,0:0:0:0:
277,221,74475,1,0,0:0:0:0:
277,221,74569,2,0,L|233:282,1,64,2|0,0:0|0:0,0:0:0:0:
223,151,74850,1,0,0:0:0:0:
223,151,74944,2,0,P|265:133|328:152,1,96,2|0,0:0|0:0,0:0:0:0:
383,194,75319,5,2,0:0:0:0:
382,174,75412,1,0,0:0:0:0:
381,154,75506,1,2,0:0:0:0:
380,134,75600,1,0,0:0:0:0:
311,101,75694,5,2,0:0:0:0:
313,141,75788,1,0,0:0:0:0:
315,181,75882,1,2,0:0:0:0:
317,221,75975,1,0,0:0:0:0:
270,280,76069,6,0,L|176:270,1,80,2|0,0:0|0:0,0:0:0:0:
51,224,76444,2,0,L|131:216,1,80,2|0,0:0|0:0,0:0:0:0:
269,168,76819,2,0,L|190:160,1,80,2|0,0:0|0:0,0:0:0:0:
50,112,77194,2,0,L|129:103,1,80,2|0,0:0|0:0,0:0:0:0:
269,56,77569,2,0,L|190:47,1,80,2|0,0:0|0:0,0:0:0:0:
309,323,77944,2,0,P|332:269|319:212,1,120,2|0,0:0|0:0,0:0:0:0:
233,131,78319,5,2,0:0:0:0:
254,140,78412,1,0,0:0:0:0:
277,142,78506,1,0,0:0:0:0:
300,136,78600,1,0,0:0:0:0:
318,211,78694,5,2,0:0:0:0:
351,188,78787,1,0,0:0:0:0:
390,179,78881,1,0,0:0:0:0:
429,183,78975,1,0,0:0:0:0:
465,199,79069,5,2,0:0:0:0:
398,293,79256,1,2,0:0:0:0:
292,340,79444,1,2,0:0:0:0:
110,132,79631,5,8,0:0:0:0:
224,143,79818,1,2,0:0:0:0:
318,211,80006,1,2,0:0:0:0:
157,354,80194,5,8,0:0:0:0:
157,330,80287,1,0,0:0:0:0:
160,307,80381,1,2,0:0:0:0:
168,284,80475,1,0,0:0:0:0:
179,263,80569,1,8,0:0:0:0:
369,328,80756,5,0,0:0:0:0:
369,328,80850,1,0,0:0:0:0:
369,328,80944,2,0,L|289:337,1,80,2|0,0:0|0:0,0:0:0:0:
433,223,81131,2,0,B|178:251,1,240,8|0,0:0|0:0,0:0:0:0:
289,336,81506,1,2,0:0:0:0:
434,223,81694,6,0,P|434:171|423:150,1,60,8|0,0:0|0:0,0:0:0:0:
354,197,82069,6,0,L|367:352,1,140.000001335144,2|0,1:2|0:0,0:0:0:0:
282,245,82350,2,0,L|293:384,1,140.000001335144,2|0,2:1|0:0,0:0:0:0:
209,293,82631,2,0,L|216:390,1,70.000000667572,2|0,0:1|0:0,0:0:0:0:
282,245,82819,6,0,P|226:207|147:230,1,140.000001335144,8|0,1:2|0:0,0:0:0:0:
32,181,83100,2,0,P|95:147|106:125,1,70.000000667572,2|0,0:1|0:0,0:0:0:0:
263,94,83287,1,2,0:1:0:0:
189,58,83382,2,0,P|179:91|185:125,1,70.000000667572,2|0,0:1|0:0,0:0:0:0:
402,82,83569,6,0,L|263:93,1,140.000001335144,2|0,0:0|0:0,0:0:0:0:
445,161,83850,2,0,L|305:171,1,140.000001335144,2|0,0:1|0:0,0:0:0:0:
487,239,84131,2,0,L|361:248,1,70.000000667572,2|0,0:1|0:0,0:0:0:0:
305,171,84319,6,0,P|338:223|338:262,1,80,10|0,0:1|0:0,0:0:0:0:
150,234,84506,2,0,P|178:179|212:159,1,80,2|0,0:1|0:0,0:0:0:0:
281,335,84694,2,0,P|219:337|185:318,1,80,2|0,0:1|0:0,0:0:0:0:
191,168,84881,1,0,0:0:0:0:
375,328,85069,6,0,L|530:317,1,140.000001335144,2|0,0:0|0:0,0:0:0:0:
340,240,85350,2,0,L|480:231,1,140.000001335144,2|0,0:1|0:0,0:0:0:0:
303,151,85631,2,0,L|396:145,1,70.000000667572,2|0,0:1|0:0,0:0:0:0:
245,247,85819,6,0,P|192:184|201:111,1,140.000001335144,8|0,0:0|0:0,0:0:0:0:
119,0,86100,2,0,P|114:68|89:100,1,70.000000667572,2|0,0:1|0:0,0:0:0:0:
99,249,86287,1,2,0:1:0:0:
35,197,86382,2,0,P|63:175|97:166,1,70.000000667572,2|0,0:1|0:0,0:0:0:0:
88,318,86569,6,0,L|99:249,1,70.000000667572,6|0,0:1|0:0,0:0:0:0:
198,375,86756,2,0,L|172:310,1,70.000000667572,0|0,0:0|0:0,0:0:0:0:
321,369,86944,2,0,L|266:325,1,70.000000667572,2|0,0:1|0:0,0:0:0:0:
432,303,87131,6,0,L|481:310,2,50,8|0|0,0:0|0:0|0:0,0:0:0:0:
432,303,87319,6,0,L|353:291,1,80,8|0,0:0|0:0,0:0:0:0:
368,200,87506,2,0,L|447:212,1,80,0|0,0:0|0:0,0:0:0:0:
296,142,87694,6,0,L|247:135,6,50,8|0|0|0|0|0|0,0:0|0:0|0:0|0:0|0:0|0:0|0:0,0:0:0:0:
368,200,88069,6,0,P|387:127|349:66,1,140.000001335144,2|0,0:0|0:0,0:0:0:0:
180,88,88350,2,0,P|233:140|305:138,1,140.000001335144,2|0,0:1|0:0,0:0:0:0:
304,0,88631,2,0,P|279:20|267:53,1,70.000000667572,2|0,0:1|0:0,0:0:0:0:
497,63,88819,6,0,L|372:72,1,140.000001335144,8|0,0:0|0:0,0:0:0:0:
456,153,89100,2,0,L|387:158,1,70.000000667572,2|0,0:1|0:0,0:0:0:0:
445,326,89287,1,2,0:1:0:0:
482,237,89382,2,0,L|416:242,1,70.000000667572,2|0,0:1|0:0,0:0:0:0:
298,348,89569,6,0,P|336:291|322:225,1,140.000001335144,2|0,0:0|0:0,0:0:0:0:
157,192,89850,2,0,P|186:253|250:274,1,140.000001335144,2|0,0:1|0:0,0:0:0:0:
292,142,90131,2,0,P|262:158|242:186,1,70.000000667572,2|0,0:1|0:0,0:0:0:0:
386,158,90319,6,0,L|367:49,1,80,10|0,0:1|0:0,0:0:0:0:
217,114,90506,2,0,L|293:142,1,80,2|0,0:1|0:0,0:0:0:0:
338,0,90694,2,0,L|277:41,1,80,2|0,0:1|0:0,0:0:0:0:
386,158,90881,1,0,0:0:0:0:
142,53,91069,6,0,P|119:131|164:194,1,140.000001335144,2|0,0:0|0:0,0:0:0:0:
147,305,91350,2,0,P|170:227|125:164,1,140.000001335144,2|0,0:1|0:0,0:0:0:0:
6,241,91631,2,0,P|39:250|74:244,1,70.000000667572,2|0,0:1|0:0,0:0:0:0:
265,114,91819,6,0,P|240:110|216:114,4,50,8|0|0|0|2,0:0|0:0|0:0|0:0|0:0,0:0:0:0:
336,157,92100,2,0,P|360:161|385:157,4,50,8|0|0|0|0,0:0|0:0|0:0|0:0|0:0,0:0:0:0:
265,114,92381,1,0,0:0:0:0:
348,237,92569,6,0,L|365:337,1,80,10|0,0:1|0:0,0:0:0:0:
264,194,92756,2,0,L|247:294,1,80,0|0,0:0|0:0,0:0:0:0:
235,352,92944,1,0,0:0:0:0:
419,309,93131,6,0,P|386:307|345:325,1,60,10|0,0:1|0:0,0:0:0:0:
210,272,93506,6,0,P|243:274|284:256,1,40,10|0,0:1|0:0,0:0:0:0:
362,158,93694,6,0,B|409:191|401:266|361:314|361:314|314:258,1,240,2|0,0:1|0:0,0:0:0:0:
284,99,94069,6,0,P|344:62|373:62,1,70.000000667572,2|0,0:0|0:0,0:0:0:0:
362,158,94350,1,0,0:0:0:0:
252,183,94444,6,0,L|183:175,1,70.000000667572,2|0,0:0|0:0,0:0:0:0:
319,264,94631,2,0,L|250:272,1,70.000000667572,2|0,0:0|0:0,0:0:0:0:
144,83,94819,6,0,L|284:99,1,140.000001335144,8|0,0:0|0:0,0:0:0:0:
501,142,95100,2,0,L|362:158,1,140.000001335144,2|0,0:0|0:0,0:0:0:0:
283,98,95381,1,2,0:0:0:0:
319,264,95569,6,0,B|437:251|437:251|386:309,1,160,2|0,0:0|0:0,0:0:0:0:
252,183,95850,2,0,B|134:170|134:170|185:228,1,160,2|0,0:0|0:0,0:0:0:0:
319,264,96131,1,2,0:0:0:0:
283,98,96319,6,0,L|171:85,1,70.000000667572,10|0,0:1|0:0,0:0:0:0:
319,264,96506,2,0,L|388:256,1,70.000000667572,2|0,0:1|0:0,0:0:0:0:
268,68,96694,2,0,L|199:60,1,70.000000667572,2|0,0:1|0:0,0:0:0:0:
340,289,96881,2,0,L|409:281,1,70.000000667572,0|0,0:0|0:0,0:0:0:0:
252,183,97069,6,0,P|236:215|252:276,1,70.000000667572,2|0,0:0|0:0,0:0:0:0:
341,197,97350,1,0,0:0:0:0:
283,98,97444,6,0,L|213:90,1,70.000000667572,2|0,0:0|0:0,0:0:0:0:
369,4,97631,2,0,L|300:12,1,70.000000667572,2|0,0:0|0:0,0:0:0:0:
112,168,97819,6,0,L|251:182,1,140.000001335144,8|0,0:0|0:0,0:0:0:0:
422,83,98100,2,0,L|282:97,1,140.000001335144,2|0,0:0|0:0,0:0:0:0:
251,182,98381,1,2,0:0:0:0:
427,150,98569,6,0,P|432:116|422:83,1,70.000000667572,6|0,0:1|0:0,0:0:0:0:
442,231,98756,2,0,P|474:217|497:192,1,70.000000667572,0|0,0:0|0:0,0:0:0:0:
379,283,98943,2,0,P|456:309|473:305,1,70.000000667572,2|0,0:1|0:0,0:0:0:0:
296,249,99131,6,0,P|311:222|340:203,2,50,8|0|0,0:0|0:0|0:0,0:0:0:0:
296,249,99319,6,0,P|300:319|319:342,1,80,8|0,0:0|0:0,0:0:0:0:
387,359,99506,2,0,P|383:289|364:266,1,80,0|0,0:0|0:0,0:0:0:0:
184,371,99694,6,0,L|234:375,6,50,8|0|0|0|0|0|0,0:0|0:0|0:0|0:0|0:0|0:0|0:0,0:0:0:0:
246,292,100069,6,0,B|176:285,1,70.000000667572,2|0,0:0|0:0,0:0:0:0:
105,203,100350,1,0,0:0:0:0:
88,306,100444,6,0,L|78:375,1,70.000000667572,2|0,0:0|0:0,0:0:0:0:
0,212,100631,2,0,L|8:282,1,70.000000667572,2|0,0:0|0:0,0:0:0:0:
163,384,100819,6,0,L|184:231,1,140.000001335144,8|0,0:0|0:0,0:0:0:0:
85,64,101100,2,0,L|104:202,1,140.000001335144,2|0,0:0|0:0,0:0:0:0:
178,91,101381,2,0,L|188:160,1,70.000000667572,2|0,0:0|0:0,0:0:0:0:
404,175,101569,6,0,P|328:160|262:202,1,160,2|0,0:0|0:0,0:0:0:0:
44,186,101850,2,0,P|121:201|187:160,1,160,2|0,0:0|0:0,0:0:0:0:
104,105,102131,1,2,0:0:0:0:
345,256,102319,6,0,L|356:306,4,50,8|0|0|0|0,0:0|0:0|0:0|0:0|0:0,0:0:0:0:
261,202,102600,2,0,L|258:253,4,50,8|0|0|0|0,0:0|0:0|0:0|0:0|0:0,0:0:0:0:
197,127,102881,6,0,L|181:175,2,50,8|0|0,0:0|0:0|0:0,0:0:0:0:
104,105,103069,6,0,P|129:57|164:39,1,80,0|0,0:0|0:0,0:0:0:0:
345,123,103631,6,0,P|271:150|197:127,1,160,8|2,0:0|0:0,0:0:0:0:
66,37,104194,6,0,P|117:168|43:341,1,320,2|0,0:0|0:0,0:0:0:0:
243,341,104756,6,0,P|151:305|55:329,1,200,8|0,0:0|0:0,0:0:0:0:
55,328,105319,6,0,L|50:381,14,40,2|0|0|0|0|0|0|0|0|0|0|0|0|0|0,0:0|0:0|0:0|0:0|0:0|0:0|0:0|0:0|0:0|0:0|0:0|0:0|0:0|0:0|0:0,0:0:0:0:
4,259,106069,6,0,P|60:242|125:278,1,128,2|0,0:0|0:0,0:0:0:0:
302,230,106631,1,0,0:0:0:0:
302,230,106819,2,0,P|246:247|181:211,1,128,8|0,0:0|0:0,0:0:0:0:
239,20,107381,1,0,0:0:0:0:
239,20,107569,6,0,L|253:148,1,128,2|0,0:0|0:0,0:0:0:0:
315,357,108131,1,0,0:0:0:0:
315,357,108319,2,0,L|301:229,1,128,8|0,0:0|0:0,0:0:0:0:
253,148,108881,1,0,0:0:0:0:
301,229,109069,6,0,P|355:228|382:214,1,64,2|0,0:0|0:0,0:0:0:0:
253,148,109444,2,0,P|199:149|172:163,1,64,0|0,0:0|0:0,0:0:0:0:
301,229,109819,2,0,P|343:156|330:94,1,128,8|0,0:0|0:0,0:0:0:0:
253,148,110381,1,0,0:0:0:0:
350,307,110569,6,0,L|432:297,1,64,2|0,0:0|0:0,0:0:0:0:
432,296,110850,1,0,0:0:0:0:
451,294,110944,1,8,0:0:0:0:
363,224,111131,1,2,0:0:0:0:
382,222,111225,1,2,0:0:0:0:
401,219,111319,1,8,0:0:0:0:
312,148,111506,1,2,0:0:0:0:
331,146,111600,1,0,0:0:0:0:
350,143,111694,2,0,L|432:133,1,64,8|2,0:0|0:0,0:0:0:0:
266,232,112069,6,0,P|229:198|222:169,1,64,6|0,0:0|0:0,0:0:0:0:
331,89,112444,2,0,P|320:138|298:158,1,64,0|0,0:0|0:0,0:0:0:0:
133,151,112819,2,0,P|172:102|234:91,1,128,8|0,0:0|0:0,0:0:0:0:
224,186,113381,1,0,0:0:0:0:
149,247,113569,6,0,L|63:236,1,64,0|0,0:0|0:0,0:0:0:0:
224,186,113944,2,0,L|310:175,1,64,2|0,0:0|0:0,0:0:0:0:
149,247,114319,2,0,P|125:178|156:119,1,128,8|0,0:0|0:0,0:0:0:0:
224,186,114881,1,0,0:0:0:0:
80,315,115069,6,0,L|-6:304,1,64,2|0,0:0|0:0,0:0:0:0:
224,186,115444,1,2,0:0:0:0:
241,212,115537,1,0,0:0:0:0:
248,243,115631,1,2,0:0:0:0:
243,275,115725,1,0,0:0:0:0:
228,301,115819,2,0,P|297:287|308:290,1,64,8|0,0:0|0:0,0:0:0:0:
304,288,116100,1,0,0:0:0:0:
319,294,116194,1,8,0:0:0:0:
468,225,116381,1,2,0:0:0:0:
453,231,116475,1,2,0:0:0:0:
437,233,116569,6,0,P|406:231|377:218,1,64,8|2,0:0|0:0,0:0:0:0:
224,185,116944,1,2,0:0:0:0:
224,185,117131,2,0,P|255:180|286:186,1,64,8|2,0:0|0:0,0:0:0:0:
377,218,117412,1,0,0:0:0:0:
373,186,117506,1,2,0:0:0:0:
369,154,117600,1,0,0:0:0:0:
365,122,117694,1,8,0:0:0:0:
361,90,117788,1,0,0:0:0:0:
357,58,117881,1,0,0:0:0:0:
286,186,118069,6,0,P|207:198|133:172,1,160,6|0,0:0|0:0,0:0:0:0:
12,66,118631,1,8,0:0:0:0:
132,171,118819,1,0,0:0:0:0:
12,66,119006,1,0,0:0:0:0:
132,171,119194,2,0,B|136:260|136:260|141:250,1,80,8|0,0:0|0:0,0:0:0:0:
293,346,119569,6,0,B|285:168,1,160,2|0,0:0|0:0,0:0:0:0:
135,250,120131,1,8,0:0:0:0:
285,186,120319,1,0,0:0:0:0:
135,250,120506,1,0,0:0:0:0:
285,186,120694,2,0,P|342:176|390:194,1,80,8|0,0:0|0:0,0:0:0:0:
420,236,120975,1,0,0:0:0:0:
420,236,121069,6,0,L|413:63,1,160,2|0,0:0|0:0,0:0:0:0:
285,186,121631,1,8,0:0:0:0:
413,76,121819,1,0,0:0:0:0:
285,186,122006,1,0,0:0:0:0:
420,236,122194,1,8,0:0:0:0:
278,26,122381,1,0,0:0:0:0:
285,186,122569,6,0,L|98:172,1,160,2|0,0:0|0:0,0:0:0:0:
0,213,123131,2,0,L|187:199,1,160,8|0,0:0|0:0,0:0:0:0:
362,180,123694,1,8,0:0:0:0:
362,180,124069,6,0,P|305:205|279:263,1,128,6|0,0:0|0:0,0:0:0:0:
125,382,124631,2,0,P|184:336|253:356,1,143.999995605469,8|0,0:0|0:0,0:0:0:0:
306,191,125194,2,0,P|283:223|279:263,1,80,8|0,0:0|0:0,0:0:0:0:
27,281,125569,2,0,P|100:237|182:261,1,176.000005371094,2|0,0:0|0:0,0:0:0:0:
220,1,126131,2,0,P|179:85|214:172,1,191.999994140625,8|0,0:0|0:0,0:0:0:0:
298,91,126694,1,8,0:0:0:0:
114,351,127069,5,2,0:0:0:0:
298,91,127444,1,0,0:0:0:0:
298,91,127631,2,0,L|489:81,1,160,8|0,0:0|0:0,0:0:0:0:
426,173,128194,6,0,L|266:181,1,160,8|2,0:0|0:0,0:0:0:0:
457,82,128944,1,0,0:0:0:0:
457,82,129131,2,0,P|516:141|494:238,1,160,8|0,0:0|0:0,0:0:0:0:
52,248,130069,6,0,L|209:274,1,160,2|0,0:0|0:0,0:0:0:0:
426,173,130631,2,0,L|268:199,1,160,8|0,0:0|0:0,0:0:0:0:
52,98,131194,6,0,L|209:124,1,160,8|0,1:2|0:0,0:0:0:0:
268,198,132131,5,0,0:0:0:0:
120,93,132319,2,0,P|116:44|124:14,1,80,8|0,0:0|0:0,0:0:0:0:
268,198,132694,2,0,P|272:247|264:277,1,80,0|0,0:0|0:0,0:0:0:0:
209,123,133069,6,0,P|283:104|350:154,1,160,2|0,0:0|0:0,0:0:0:0:
316,330,133631,2,0,P|261:275|271:192,1,160,8|0,0:0|0:0,0:0:0:0:
440,134,134194,1,8,1:2:0:0:
256,192,134287,12,0,135881,0:0:0:0:
25,68,136069,6,0,P|80:66|125:94,1,88.000002685547,4|0,1:0|0:0,0:0:0:0:
286,70,136444,2,0,P|242:74|202:58,1,88.000002685547,0|0,0:0|0:0,0:0:0:0:
194,48,136725,1,0,0:0:0:0:
186,36,136819,2,0,L|211:195,1,132.00000402832,8|0,1:0|0:0,0:0:0:0:
108,79,137194,2,0,L|133:238,1,132.00000402832,0|0,0:0|0:0,0:0:0:0:
50,252,137569,6,0,P|107:234|207:282,1,176.000005371094,4|0,1:0|0:0,0:0:0:0:
381,286,138131,6,0,L|413:274,2,29.3333342285157,2|0|0,0:0|0:0|0:0,0:0:0:0:
339,363,138319,6,0,P|312:338|357:200,1,140.000001335144,8|0,1:0|0:0,0:0:0:0:
274,67,138694,2,0,P|276:136|230:186,1,140.000001335144,0|0,0:0|0:0,0:0:0:0:
186,105,138975,5,0,0:0:0:0:
230,187,139069,5,6,1:0:0:0:
210,196,139162,1,0,0:0:0:0:
188,199,139256,1,0,0:0:0:0:
166,197,139350,1,0,0:0:0:0:
146,189,139444,1,0,0:0:0:0:
126,181,139537,1,0,0:0:0:0:
104,179,139631,1,0,0:0:0:0:
81,182,139725,1,0,0:0:0:0:
41,200,139819,6,0,P|26:272|60:357,1,132.00000402832,12|0,1:0|0:0,0:0:0:0:
114,375,140194,5,2,0:0:0:0:
157,379,140287,1,0,0:0:0:0:
200,381,140381,1,0,0:0:0:0:
244,380,140475,1,0,0:0:0:0:
308,366,140569,6,0,P|323:294|289:209,1,132.00000402832,4|0,1:0|0:0,0:0:0:0:
249,172,140944,5,2,0:0:0:0:
293,199,141037,1,0,0:0:0:0:
345,202,141131,1,0,0:0:0:0:
396,188,141225,1,0,0:0:0:0:
435,160,141319,6,0,L|441:77,1,80,10|0,1:0|0:0,0:0:0:0:
308,238,141506,2,0,L|313:317,1,80,2|0,0:0|0:0,0:0:0:0:
468,133,141694,2,0,L|473:53,1,80,2|0,0:0|0:0,0:0:0:0:
280,266,141881,2,0,L|284:346,1,80,2|0,0:0|0:0,0:0:0:0:
396,188,142069,6,0,P|341:141|302:136,1,88.000002685547,4|0,1:0|0:0,0:0:0:0:
230,272,142444,2,0,P|298:247|322:216,1,88.000002685547,0|0,0:0|0:0,0:0:0:0:
331,141,142725,1,0,0:0:0:0:
331,141,142819,1,8,1:0:0:0:
250,70,143006,1,0,0:0:0:0:
230,170,143193,1,0,0:0:0:0:
331,141,143381,1,0,0:0:0:0:
153,103,143569,6,0,L|112:99,10,22.0000006713867,2|0|0|0|0|0|0|0|0|0|0,1:0|0:0|0:0|0:0|0:0|0:0|0:0|0:0|0:0|0:0|0:0,0:0:0:0:
230,170,144131,5,0,0:0:0:0:
54,33,144319,1,8,1:0:0:0:
133,203,144506,1,0,0:0:0:0:
151,0,144694,1,0,0:0:0:0:
56,136,144881,1,0,0:0:0:0:
228,67,145069,1,4,1:0:0:0:
133,203,145256,5,2,0:0:0:0:
164,212,145349,1,0,0:0:0:0:
198,215,145443,1,0,0:0:0:0:
234,210,145537,1,0,0:0:0:0:
267,197,145631,1,0,0:0:0:0:
295,177,145724,1,0,0:0:0:0:
354,112,145819,6,0,L|346:281,1,132.00000402832,8|0,1:0|0:0,0:0:0:0:
450,282,146194,1,2,0:0:0:0:
407,272,146287,1,0,0:0:0:0:
364,281,146381,1,0,0:0:0:0:
329,307,146475,1,0,0:0:0:0:
307,344,146569,6,0,P|250:358|185:340,1,120,4|0,1:0|0:0,0:0:0:0:
131,290,147225,5,0,0:0:0:0:
131,290,147319,2,0,L|124:249,1,40,2|0,0:0|0:0,0:0:0:0:
187,201,147506,1,0,0:0:0:0:
187,201,147600,1,0,0:0:0:0:
187,201,147694,2,0,L|194:160,1,40,2|0,0:0|0:0,0:0:0:0:
131,112,147882,2,0,L|124:71,1,40,0|0,0:0|0:0,0:0:0:0:
187,23,148069,6,0,P|122:73|21:10,1,200,0|0,0:0|0:0,0:0:0:0:
26,24,149569,6,0,L|33:104,1,64,6|0,0:0|0:0,0:0:0:0:
100,122,149944,2,0,L|94:185,1,64,0|0,0:0|0:0,0:0:0:0:
25,220,150319,1,2,0:0:0:0:
94,185,150506,1,0,0:0:0:0:
170,189,150694,1,0,0:0:0:0:
233,230,150881,1,0,0:0:0:0:
374,199,151069,5,2,0:0:0:0:
308,234,151257,1,0,0:0:0:0:
268,297,151444,1,0,0:0:0:0:
264,371,151631,1,0,0:0:0:0:
390,326,151819,6,0,P|359:323|331:338,1,64,2|0,0:0|0:0,0:0:0:0:
207,299,152194,2,0,P|237:306|268:297,1,64,0|0,0:0|0:0,0:0:0:0:
367,222,152569,2,0,P|335:219|307:233,1,64,2|0,0:0|0:0,0:0:0:0:
181,192,152944,2,0,P|211:199|242:190,1,64,0|0,0:0|0:0,0:0:0:0:
313,105,153319,6,0,L|307:232,1,128,2|0,0:0|0:0,0:0:0:0:
242,190,153881,1,0,0:0:0:0:
377,150,154069,2,0,L|370:277,1,128,2|0,0:0|0:0,0:0:0:0:
242,190,154631,5,2,0:0:0:0:
222,180,154693,1,0,0:0:0:0:
202,175,154756,1,2,0:0:0:0:
181,173,154819,6,0,P|111:176|66:203,1,96,2|0,0:0|0:0,0:0:0:0:
58,210,155194,2,0,L|52:91,1,96,0|0,0:0|0:0,0:0:0:0:
51,75,155569,1,2,0:0:0:0:
159,298,155944,1,0,0:0:0:0:
156,310,156319,5,2,0:0:0:0:
221,271,156506,1,0,0:0:0:0:
303,285,156694,1,0,0:0:0:0:
373,343,156881,1,0,0:0:0:0:
438,232,157069,6,0,L|443:116,1,96,2|0,0:0|0:0,0:0:0:0:
361,188,157444,2,0,L|366:72,1,96,0|0,0:0|0:0,0:0:0:0:
284,144,157819,2,0,L|289:28,1,96,2|0,0:0|0:0,0:0:0:0:
364,3,158194,5,0,0:0:0:0:
288,48,158381,1,0,0:0:0:0:
199,48,158569,2,0,L|109:39,1,64,2|0,0:0|0:0,0:0:0:0:
60,5,158850,1,0,0:0:0:0:
60,5,158944,2,0,L|65:91,1,64,0|0,0:0|0:0,0:0:0:0:
32,166,159225,5,0,0:0:0:0:
65,145,159319,1,2,0:0:0:0:
102,140,159412,1,0,0:0:0:0:
140,144,159506,1,0,0:0:0:0:
172,165,159600,1,0,0:0:0:0:
202,188,159694,1,0,0:0:0:0:
239,194,159787,1,0,0:0:0:0:
277,187,159881,1,0,0:0:0:0:
309,166,159975,1,0,0:0:0:0:
365,108,160069,6,0,L|361:189,1,80,4|0,1:0|0:0,0:0:0:0:
382,265,160444,1,0,0:0:0:0:
459,281,160631,1,0,0:0:0:0:
298,283,160819,2,0,P|248:290|196:326,1,80,8|0,1:0|0:0,0:0:0:0:
149,336,161194,1,0,0:0:0:0:
70,321,161381,1,0,0:0:0:0:
132,218,161569,6,0,P|140:161|115:109,1,80,0|0,1:0|0:0,0:0:0:0:
46,176,161944,1,0,0:0:0:0:
46,176,162131,1,0,0:0:0:0:
221,183,162319,2,0,L|321:173,1,80,8|0,1:0|0:0,0:0:0:0:
396,168,162694,1,0,0:0:0:0:
396,168,162881,1,0,0:0:0:0:
230,104,163069,6,0,L|218:-2,1,80,0|0,1:0|0:0,0:0:0:0:
300,175,163444,2,0,L|308:95,1,80,0|0,0:0|0:0,0:0:0:0:
352,259,163819,2,0,L|378:183,1,80,8|0,1:0|0:0,0:0:0:0:
383,352,164194,2,0,L|425:284,1,80,0|0,0:0|0:0,0:0:0:0:
478,365,164569,1,0,1:0:0:0:
352,259,164756,5,2,0:0:0:0:
320,235,164849,1,0,0:0:0:0:
280,225,164943,1,0,0:0:0:0:
240,231,165037,1,0,0:0:0:0:
206,253,165131,1,0,0:0:0:0:
383,352,165319,1,8,1:0:0:0:
141,183,165506,5,0,0:0:0:0:
116,224,165600,1,0,0:0:0:0:
113,272,165694,1,2,0:0:0:0:
18,269,165881,1,0,0:0:0:0:
29,315,165975,1,0,0:0:0:0:
61,351,166069,5,2,1:0:0:0:
156,357,166256,1,0,0:0:0:0:
241,314,166444,1,0,0:0:0:0:
293,234,166631,1,0,0:0:0:0:
300,74,166819,2,0,P|374:94|409:89,1,80,8|0,1:0|0:0,0:0:0:0:
472,83,167194,1,0,0:0:0:0:
472,83,167381,1,0,0:0:0:0:
433,172,167569,6,0,L|440:251,1,80,0|0,1:0|0:0,0:0:0:0:
376,93,167944,2,0,L|383:13,1,80,0|0,0:0|0:0,0:0:0:0:
337,182,168319,6,0,L|344:268,1,88.000002685547,8|0,1:0|0:0,0:0:0:0:
280,103,168694,2,0,L|288:12,1,88.000002685547,0|0,0:0|0:0,0:0:0:0:
147,186,169069,6,0,P|193:198|240:191,1,95.9999970703126,0|0,1:0|0:0,0:0:0:0:
376,93,169444,1,0,0:0:0:0:
280,103,169631,1,0,0:0:0:0:
392,259,169819,1,8,1:0:0:0:
296,269,170006,1,0,0:0:0:0:
431,170,170194,1,0,0:0:0:0:
240,190,170381,1,0,0:0:0:0:
240,190,170569,6,0,P|203:245|251:355,1,155.999992858887,0|0,1:0|0:0,0:0:0:0:
296,269,170944,1,0,1:0:0:0:
184,111,171131,1,0,1:0:0:0:
220,328,171319,1,8,1:0:0:0:
395,274,171506,1,0,1:0:0:0:
346,258,171599,1,0,1:0:0:0:
296,269,171693,1,8,1:0:0:0:
140,196,171881,1,0,1:0:0:0:
190,206,171974,1,0,0:0:0:0:
240,190,172069,5,4,1:0:0:0:
305,145,172256,1,0,0:0:0:0:
338,73,172444,1,0,0:0:0:0:
307,0,172631,1,0,0:0:0:0:
305,145,172819,2,0,P|352:151|394:129,1,80,8|0,1:0|0:0,0:0:0:0:
444,89,173194,1,0,0:0:0:0:
444,89,173381,1,0,0:0:0:0:
349,212,173569,5,0,1:0:0:0:
358,290,173756,1,0,0:0:0:0:
406,353,173944,1,0,0:0:0:0:
479,383,174131,1,0,0:0:0:0:
358,290,174319,6,0,P|296:284|272:294,1,80,8|0,1:0|0:0,0:0:0:0:
121,242,174694,2,0,P|183:248|207:238,1,80,0|0,0:0|0:0,0:0:0:0:
45,264,175069,6,0,L|67:340,1,80,0|0,1:0|0:0,0:0:0:0:
114,162,175444,2,0,L|121:241,1,80,0|0,0:0|0:0,0:0:0:0:
200,78,175819,2,0,L|192:157,1,80,8|0,1:0|0:0,0:0:0:0:
301,12,176194,2,0,L|278:88,1,80,0|0,0:0|0:0,0:0:0:0:
375,37,176569,1,0,1:0:0:0:
200,78,176756,5,0,0:0:0:0:
278,88,176944,1,0,0:0:0:0:
340,135,177131,1,0,0:0:0:0:
289,315,177319,5,8,1:0:0:0:
340,135,177506,1,0,0:0:0:0:
386,122,177600,1,0,0:0:0:0:
433,130,177694,1,2,0:0:0:0:
289,315,177881,1,0,0:0:0:0:
241,315,177975,1,0,0:0:0:0:
197,295,178069,5,2,1:0:0:0:
137,239,178256,1,0,0:0:0:0:
113,160,178444,1,0,0:0:0:0:
131,79,178631,1,0,0:0:0:0:
340,135,178819,6,0,P|286:143|247:131,1,80,8|0,1:0|0:0,0:0:0:0:
211,75,179194,1,0,0:0:0:0:
211,75,179381,1,0,0:0:0:0:
306,206,179569,6,0,L|314:297,1,88.000002685547,0|0,1:0|0:0,0:0:0:0:
203,162,179944,2,0,L|211:75,1,88.000002685547,0|0,0:0|0:0,0:0:0:0:
398,186,180319,6,0,P|335:206|283:201,1,95.9999970703126,8|0,1:0|0:0,0:0:0:0:
111,182,180694,2,0,P|174:162|226:167,1,95.9999970703126,0|0,0:0|0:0,0:0:0:0:
172,358,181069,6,0,B|158:307|158:307|174:259,1,103.999995239258,0|0,1:0|0:0,0:0:0:0:
336,8,181444,2,0,B|350:60|350:60|334:108,1,103.999995239258,0|0,0:0|0:0,0:0:0:0:
203,162,181819,5,8,1:0:0:0:
305,205,182006,1,0,0:0:0:0:
211,74,182194,1,0,0:0:0:0:
313,293,182381,1,0,0:0:0:0:
211,74,182569,6,0,P|145:93|120:134,1,95.9999970703126,4|0,1:0|0:0,0:0:0:0:
195,252,182944,2,0,P|211:185|188:143,1,95.9999970703126,0|0,1:0|0:0,0:0:0:0:
48,149,183319,2,0,P|97:196|145:197,1,95.9999970703126,0|0,1:0|0:0,0:0:0:0:
211,74,183694,1,0,1:0:0:0:
48,149,183881,1,0,0:0:0:0:
195,252,184069,6,0,L|314:241,1,95.9999970703126,0|0,1:0|0:0,0:0:0:0:
471,293,184444,2,0,L|376:285,1,95.9999970703126,0|0,1:0|0:0,0:0:0:0:
203,162,184819,2,0,L|322:151,1,95.9999970703126,0|0,1:0|0:0,0:0:0:0:
480,203,185194,2,0,L|361:192,1,95.9999970703126,0|0,1:0|0:0,0:0:0:0:
324,360,185569,5,4,1:0:0:0:
376,285,185756,1,0,1:0:0:0:
384,194,185944,1,0,1:0:0:0:
345,111,186131,1,0,1:0:0:0:
135,173,186319,5,0,1:0:0:0:
210,225,186506,1,0,1:0:0:0:
301,233,186694,1,0,1:0:0:0:
384,194,186881,1,0,1:0:0:0:
270,56,187069,5,0,1:0:0:0:
256,85,187162,1,0,1:0:0:0:
253,117,187256,1,0,1:0:0:0:
260,147,187350,1,0,1:0:0:0:
301,233,187444,5,0,1:0:0:0:
308,263,187538,1,0,1:0:0:0:
305,295,187632,1,0,1:0:0:0:
291,324,187725,1,0,1:0:0:0:
209,375,187819,5,0,1:0:0:0:
177,372,187912,1,0,1:0:0:0:
145,369,188006,1,0,1:0:0:0:
113,367,188100,1,0,1:0:0:0:
44,299,188194,6,0,L|35:229,1,47.9999985351563,8|0,1:0|0:0,0:0:0:0:
96,174,188381,2,0,L|105:104,1,47.9999985351563,0|0,1:0|0:0,0:0:0:0:
44,49,188569,5,4,1:0:0:0:
102,126,188756,1,0,0:0:0:0:
190,163,188944,1,0,0:0:0:0:
285,151,189131,1,0,0:0:0:0:
397,4,189319,5,10,1:0:0:0:
361,93,189506,1,0,0:0:0:0:
374,188,189694,1,0,0:0:0:0:
432,263,189881,1,0,0:0:0:0:
285,151,190069,5,2,0:0:0:0:
190,163,190256,1,0,0:0:0:0:
113,220,190444,1,0,0:0:0:0:
74,307,190631,1,0,0:0:0:0:
285,151,190819,6,0,L|291:66,1,80,8|0,1:0|0:0,0:0:0:0:
190,163,191194,2,0,L|195:247,1,80,0|0,0:0|0:0,0:0:0:0:
267,311,191569,6,0,P|185:296|154:311,1,112,4|0,1:0|0:0,0:0:0:0:
125,246,192319,6,0,B|202:185|356:239|296:273|391:308|485:247,1,368,0|0,0:0|0:0,0:0:0:0:
470,111,194569,6,0,P|342:83|415:193,1,335.999989746094,2|0,1:0|0:0,0:0:0:0:
401,123,195319,6,0,B|338:90|291:136|291:136|248:171|169:129,1,210.000002002716,10|0,1:0|0:0,0:0:0:0:
112,58,195694,2,0,L|122:186,1,70.000000667572,0|0,0:0|0:0,0:0:0:0:
60,295,195881,1,0,0:0:0:0:
49,212,195975,2,0,P|89:217|135:259,1,70.000000667572,0|0,0:1|1:0,0:0:0:0:
224,324,196162,1,0,0:0:0:0:
157,375,196256,2,0,P|141:337|154:277,1,70.000000667572,0|0,0:0|0:0,0:0:0:0:
343,340,196444,6,0,L|224:324,1,120.000004577637,8|0,1:0|1:0,0:0:0:0:
277,234,196725,1,0,0:0:0:0:
396,250,196819,2,0,L|278:234,1,120.000004577637,8|0,1:0|1:0,0:0:0:0:
328,144,197100,1,0,0:0:0:0:
428,116,197194,6,0,B|472:164|472:164|328:144,1,210.000002002716,10|0,1:0|0:0,0:0:0:0:
451,27,197569,6,0,B|481:60|481:60|471:163,1,147.999999435425,0|0,1:0|0:0,0:0:0:0:
311,365,197944,2,0,L|328:143,1,221.999999153137,2|0,0:1|0:0,0:0:0:0:
468,274,198319,6,0,P|429:271|385:236,1,80,8|0,1:0|0:0,0:0:0:0:
137,233,198506,1,0,0:0:0:0:
152,241,198600,1,0,1:0:0:0:
167,246,198694,2,0,P|205:249|255:222,1,80,0|0,1:0|0:0,0:0:0:0:
179,73,198881,6,0,L|190:152,1,80,0|0,1:0|0:0,0:0:0:0:
242,234,199162,1,0,0:0:0:0:
331,197,199256,6,0,P|314:167|287:146,1,70.000000667572,10|0,1:0|0:0,0:0:0:0:
228,329,199444,2,0,P|262:329|294:316,1,70.000000667572,2|0,1:0|0:0,0:0:0:0:
190,152,199631,1,0,1:0:0:0:
178,163,199725,1,0,1:0:0:0:
167,175,199819,2,0,P|148:204|144:239,1,70.000000667572,0|0,1:0|0:0,0:0:0:0:
294,315,200006,5,0,1:0:0:0:
376,299,200100,2,0,L|481:279,1,70.000000667572,8|0,1:0|0:0,0:0:0:0:
242,234,200287,1,0,1:0:0:0:
324,218,200381,2,0,L|429:198,1,70.000000667572,0|0,1:0|0:0,0:0:0:0:
225,133,200569,6,0,L|173:123,1,40,0|0,1:0|0:0,0:0:0:0:
134,52,200850,6,0,P|170:143|144:238,1,200,2|0,1:0|0:0,0:0:0:0:
74,100,201131,2,0,P|92:145|80:193,1,100,0|0,0:0|0:0,0:0:0:0:
3,247,201319,5,8,1:0:0:0:
38,244,201413,1,0,0:0:0:0:
73,242,201507,1,0,0:0:0:0:
108,240,201601,1,0,0:0:0:0:
143,238,201694,6,0,L|249:231,1,70.000000667572,0|0,0:0|0:0,0:0:0:0:
327,151,201881,1,0,0:0:0:0:
278,81,201975,2,0,P|253:105|241:138,1,70.000000667572,0|0,0:0|1:0,0:0:0:0:
267,297,202162,1,0,0:0:0:0:
350,298,202257,5,0,1:0:0:0:
343,264,202350,1,0,1:0:0:0:
323,235,202444,2,0,P|273:214|200:243,1,120.000004577637,8|0,1:0|1:0,0:0:0:0:
267,297,202725,5,0,1:0:0:0:
323,235,202819,1,8,1:0:0:0:
327,151,202912,1,0,1:0:0:0:
278,81,203006,1,0,1:0:0:0:
196,55,203100,1,0,1:0:0:0:
114,79,203194,6,0,B|-7:56|-7:56|69:1,1,210.000002002716,10|0,1:0|0:0,0:0:0:0:
145,171,203569,6,0,B|-20:139,1,147.999999435425,0|0,1:0|0:0,0:0:0:0:
313,263,203944,6,0,L|392:248,1,80,0|0,1:0|0:0,0:0:0:0:
448,123,204131,1,0,0:0:0:0:
437,137,204225,1,0,0:0:0:0:
425,149,204319,2,0,L|346:164,1,80,8|0,1:0|0:0,0:0:0:0:
402,39,204506,6,0,P|442:26|525:65,1,120,2|0,1:0|0:0,0:0:0:0:
512,51,204881,1,0,0:0:0:0:
346,163,205069,1,0,1:0:0:0:
346,163,205256,6,0,L|366:3,1,160,10|0,0:1|0:0,0:0:0:0:
365,4,205819,6,0,P|295:26|273:17,1,70.000000667572,0|0,1:0|0:0,0:0:0:0:
185,74,206006,1,0,1:0:0:0:
193,67,206100,1,0,1:0:0:0:
203,60,206194,2,0,B|301:22|354:91|354:91|291:113,1,210.000002002716,10|0,1:0|0:0,0:0:0:0:
143,146,206569,6,0,B|45:184|-8:115|-8:115|55:93,1,221.999999153137,0|0,1:0|0:0,0:0:0:0:
203,60,206944,6,0,P|249:155|159:254,1,234.000000892639,2|0,1:0|0:0,0:0:0:0:
40,265,207319,5,0,1:0:0:0:
74,260,207413,1,0,0:0:0:0:
109,256,207507,1,0,0:0:0:0:
143,252,207601,1,0,0:0:0:0:
179,248,207694,6,0,L|259:238,1,70.000000667572,0|0,0:0|0:0,0:0:0:0:
405,304,207881,1,0,0:0:0:0:
317,302,207976,2,0,P|323:268|343:240,1,70.000000667572,0|0,0:0|1:0,0:0:0:0:
477,153,208162,1,0,0:0:0:0:
487,236,208256,5,0,1:0:0:0:
452,232,208349,1,0,1:0:0:0:
422,215,208444,2,0,P|396:139|445:75,1,120.000004577637,8|0,1:0|1:0,0:0:0:0:
477,153,208725,5,0,1:0:0:0:
422,215,208819,1,8,1:0:0:0:
343,239,208912,1,0,1:0:0:0:
261,224,209006,1,0,1:0:0:0:
199,168,209099,1,0,1:0:0:0:
173,88,209194,6,0,L|153:309,1,210.000002002716,8|0,1:0|0:0,0:0:0:0:
10,193,209569,6,0,P|101:189|144:221,1,147.999999435425,2|0,1:0|0:0,0:0:0:0:
406,194,209944,2,0,P|315:198|272:166,1,147.999999435425,0|0,0:0|0:0,0:0:0:0:
406,194,210319,6,0,L|398:304,1,80,8|0,1:0|0:0,0:0:0:0:
498,120,210506,1,0,1:0:0:0:
503,138,210600,1,0,1:0:0:0:
507,155,210694,2,0,L|501:235,1,80,0|0,1:0|0:0,0:0:0:0:
411,114,210881,6,0,L|403:224,1,80,0|0,1:0|0:0,0:0:0:0:
371,290,211162,1,0,0:0:0:0:
270,277,211256,6,0,P|284:233|334:201,1,70.000000667572,8|0,1:0|0:0,0:0:0:0:
407,378,211444,2,0,P|362:387|309:360,1,70.000000667572,0|0,1:0|0:0,0:0:0:0:
405,193,211631,1,0,1:0:0:0:
418,198,211725,1,0,1:0:0:0:
429,207,211819,2,0,P|459:241|462:300,1,70.000000667572,8|0,1:0|0:0,0:0:0:0:
339,381,212006,5,0,1:0:0:0:
256,362,212100,2,0,L|157:354,1,70.000000667572,0|0,1:0|0:0,0:0:0:0:
270,277,212287,1,0,1:0:0:0:
187,258,212381,2,0,L|88:250,1,70.000000667572,0|0,1:0|0:0,0:0:0:0:
279,191,212569,6,0,L|334:187,1,40,0|0,1:0|0:0,0:0:0:0:
373,90,212850,6,0,B|352:189|352:189|397:291,1,200,2|0,1:0|0:0,0:0:0:0:
436,131,213131,2,0,B|426:182|426:182|465:266,1,100,0|0,1:0|0:0,0:0:0:0:
512,104,213319,5,8,1:0:0:0:
477,100,213413,1,0,0:0:0:0:
442,97,213507,1,0,0:0:0:0:
407,93,213601,1,0,0:0:0:0:
373,90,213694,6,0,L|278:80,1,70.000000667572,0|0,0:0|0:0,0:0:0:0:
185,202,213881,1,0,0:0:0:0:
265,215,213975,2,0,P|257:161|231:133,1,70.000000667572,0|0,0:0|1:0,0:0:0:0:
160,28,214162,1,0,0:0:0:0:
108,90,214256,5,0,1:0:0:0:
138,106,214349,1,0,1:0:0:0:
172,109,214444,2,0,P|224:78|237:4,1,120.000004577637,8|0,1:0|0:0,0:0:0:0:
160,28,214725,5,0,1:0:0:0:
172,109,214819,1,8,1:0:0:0:
184,190,214912,1,0,1:0:0:0:
196,271,215006,1,0,1:0:0:0:
208,352,215099,1,0,1:0:0:0:
295,264,215194,6,0,L|53:280,1,210.000002002716,10|0,1:0|0:0,0:0:0:0:
172,109,215569,6,0,L|444:90,1,221.999999153137,0|0,1:0|0:0,0:0:0:0:
295,264,215944,6,0,P|281:198|298:154,1,80,2|0,0:1|0:0,0:0:0:0:
381,17,216131,2,0,P|395:83|378:127,1,80,2|0,0:1|0:0,0:0:0:0:
295,264,216319,6,0,L|169:256,1,80,8|0,1:0|0:0,0:0:0:0:
392,94,216506,2,0,L|518:86,1,80,2|0,0:1|0:0,0:0:0:0:
283,186,216694,5,0,0:0:0:0:
362,180,216787,1,0,0:0:0:0:
442,175,216881,1,0,1:0:0:0:
462,183,216975,1,0,1:0:0:0:
482,191,217069,1,0,1:0:0:0:
256,347,217256,6,0,B|16:334|16:334|83:279,1,300.000011444092,10|0,1:0|0:0,0:0:0:0:
118,250,217819,6,0,P|95:230|66:223,1,60.0000022888184,2|0,1:2|0:0,0:0:0:0:
34,158,218006,2,0,P|62:150|92:156,1,60.0000022888184,2|0,0:0|0:0,0:0:0:0:
146,108,218194,2,0,P|123:89|95:82,1,60.0000022888184,2|0,0:0|0:0,0:0:0:0:
60,15,218381,2,0,P|88:7|118:13,1,60.0000022888184,2|0,0:0|0:0,0:0:0:0:
265,117,218569,6,0,L|133:107,1,120,4|0,0:0|0:0,0:0:0:0:
239,192,218944,2,0,L|160:186,1,80,0|0,0:0|0:0,0:0:0:0:
213,266,219225,1,0,0:0:0:0:
213,266,219319,2,0,L|173:263,1,40,2|0,0:0|0:0,0:0:0:0:
226,344,219506,2,0,L|186:340,1,40,2|0,0:0|0:0,0:0:0:0:
239,192,219694,2,0,P|285:240|282:288,1,80,2|0,0:0|0:0,0:0:0:0:
287,273,219975,1,0,0:0:0:0:
283,294,220069,6,0,L|406:290,1,107.999996704102,4|0,0:0|0:0,0:0:0:0:
508,210,220444,2,0,L|384:206,1,107.999996704102,0|0,0:0|0:0,0:0:0:0:
283,125,220819,2,0,L|406:121,1,107.999996704102,2|0,0:0|0:0,0:0:0:0:
508,40,221194,2,0,L|384:36,1,107.999996704102,0|0,0:0|0:0,0:0:0:0:
284,125,221569,6,0,P|268:187|285:250,1,107.999996704102,2|0,0:0|0:0,0:0:0:0:
282,249,221944,1,0,0:0:0:0:
394,365,222131,1,0,0:0:0:0:
375,354,222225,1,0,0:0:0:0:
354,348,222319,2,0,P|302:337|229:359,1,107.999996704102,2|0,0:0|0:0,0:0:0:0:
68,255,222694,2,0,P|120:266|172:255,1,107.999996704102,0|0,0:0|0:0,0:0:0:0:
124,71,223069,6,0,P|109:122|121:175,1,107.999996704102,2|0,0:0|0:0,0:0:0:0:
174,325,223444,2,0,P|179:295|169:248,1,71.9999978027344,0|0,0:0|0:0,0:0:0:0:
125,178,223725,1,0,0:0:0:0:
125,178,223819,2,0,P|161:210|275:193,1,143.999995605469,2|0,0:0|0:0,0:0:0:0:
336,163,224381,1,0,0:0:0:0:
216,1,224569,6,0,P|193:49|198:102,1,107.999996704102,2|0,0:0|0:0,0:0:0:0:
205,124,224944,1,0,0:0:0:0:
332,68,225131,1,0,0:0:0:0:
311,71,225225,1,0,0:0:0:0:
292,81,225319,1,2,0:0:0:0:
337,253,225506,1,0,0:0:0:0:
348,208,225600,1,0,0:0:0:0:
336,163,225694,1,2,0:0:0:0:
252,209,225881,1,0,0:0:0:0:
392,332,226069,6,0,L|477:325,1,80,6|0,1:0|0:0,0:0:0:0:
252,209,226444,2,0,L|167:202,1,80,0|0,0:0|1:0,0:0:0:0:
148,200,226725,1,0,0:0:0:0:
124,198,226819,1,2,0:0:0:0:
46,144,227006,1,0,1:0:0:0:
252,209,227194,5,8,1:0:0:0:
199,268,227381,1,0,1:0:0:0:
328,185,227569,5,2,1:0:0:0:
308,278,227756,1,0,1:0:0:0:
386,124,227944,5,8,1:0:0:0:
421,232,228131,1,0,1:0:0:0:
405,42,228319,5,2,0:0:0:0:
506,133,228506,1,0,1:0:0:0:
324,66,228694,1,8,1:0:0:0:
499,212,228881,5,2,1:0:0:0:
504,227,228944,1,0,0:0:0:0:
508,241,229006,1,2,0:0:0:0:
512,256,229069,6,0,L|503:382,1,120,2|0,1:0|0:0,0:0:0:0:
503,375,229444,1,8,1:0:0:0:
421,232,229631,1,0,1:0:0:0:
421,232,229725,1,0,0:0:0:0:
421,232,229819,2,0,L|414:333,1,80,2|0,0:0|1:0,0:0:0:0:
402,320,230069,5,2,0:0:0:0:
389,329,230131,1,0,0:0:0:0:
375,338,230194,1,8,1:0:0:0:
290,382,230381,1,0,1:0:0:0:
131,273,230569,6,0,P|170:266|209:276,1,80,2|0,1:0|0:0,0:0:0:0:
170,354,230850,1,0,0:0:0:0:
170,354,230944,2,0,P|130:361|92:351,1,80,8|0,1:0|1:0,0:0:0:0:
93,194,231225,1,0,0:0:0:0:
93,194,231319,2,0,P|131:184|171:192,1,80,2|0,0:0|1:0,0:0:0:0:
208,276,231600,1,2,0:0:0:0:
208,235,231694,1,8,1:0:0:0:
208,194,231787,1,0,0:0:0:0:
208,153,231881,1,0,0:0:0:0:
208,112,231974,1,0,0:0:0:0:
260,50,232069,6,0,P|191:68|119:53,1,120,2|0,1:0|0:0,0:0:0:0:
86,6,232444,1,8,1:0:0:0:
119,28,232537,1,0,0:0:0:0:
143,62,232631,1,0,1:0:0:0:
153,100,232724,1,0,0:0:0:0:
150,140,232819,1,2,0:0:0:0:
42,110,233006,5,0,1:0:0:0:
260,50,233194,1,8,1:0:0:0:
86,6,233381,1,0,1:0:0:0:
246,163,233569,6,0,P|319:183|392:159,1,140,2|0,0:0|0:0,0:0:0:0:
444,120,234319,2,0,P|398:187|402:260,1,140,2|0,0:0|0:0,0:0:0:0:
440,310,235069,5,4,0:0:0:0:
397,243,235256,1,0,0:0:0:0:
326,206,235444,1,0,0:0:0:0:
246,209,235631,1,0,0:0:0:0:
140,323,235819,5,2,0:0:0:0:
178,252,236006,1,0,0:0:0:0:
175,171,236194,1,0,0:0:0:0:
131,102,236381,1,0,0:0:0:0:
23,15,236569,5,0,0:0:0:0:
102,25,236756,1,0,0:0:0:0:
181,35,236944,1,0,0:0:0:0:
260,45,237131,1,0,0:0:0:0:
387,106,237319,5,2,0:0:0:0:
308,116,237506,1,0,0:0:0:0:
229,126,237694,1,0,0:0:0:0:
150,136,237881,1,0,0:0:0:0:
23,197,238069,5,4,0:0:0:0:
102,207,238256,1,0,0:0:0:0:
165,255,238444,1,0,0:0:0:0:
195,328,238631,1,0,0:0:0:0:
315,384,238819,5,2,0:0:0:0:
284,310,239006,1,0,0:0:0:0:
294,232,239194,1,0,0:0:0:0:
342,169,239381,1,0,0:0:0:0:
493,147,239569,5,2,0:0:0:0:
415,138,239756,1,0,0:0:0:0:
424,60,239944,1,0,0:0:0:0:
502,69,240131,1,0,0:0:0:0:
342,169,240319,5,2,0:0:0:0:
264,160,240506,1,0,0:0:0:0:
273,82,240694,1,0,0:0:0:0:
351,91,240881,1,0,0:0:0:0:
191,191,241069,5,2,0:0:0:0:
191,191,241162,1,0,0:0:0:0:
191,191,241256,1,0,0:0:0:0:
264,160,241444,1,0,0:0:0:0:
342,169,241631,1,0,0:0:0:0:
470,266,241819,6,0,L|506:180,1,80,2|0,0:0|0:0,0:0:0:0:
413,88,242194,2,0,L|424:168,1,80,0|0,0:0|0:0,0:0:0:0:
302,351,242569,6,0,L|376:294,1,80,2|0,0:0|0:0,0:0:0:0:
342,169,242944,2,0,L|311:242,1,80,0|0,0:0|0:0,0:0:0:0:
113,340,243319,6,0,L|205:328,1,80,2|0,0:0|0:0,0:0:0:0:
239,202,243694,2,0,L|175:250,1,80,0|0,0:0|0:0,0:0:0:0:
365,302,244069,5,6,0:0:0:0:
256,192,244819,12,0,246881,0:0:0:0:
394,1,247069,6,0,P|361:52|395:175,1,176.000005371094,6|0,0:0|0:0,0:0:0:0:
476,282,247537,1,0,0:0:0:0:
466,257,247631,1,0,0:0:0:0:
443,242,247725,1,0,0:0:0:0:
416,238,247819,2,0,B|377:228|332:253|358:272|294:302|234:263,1,176.000005371094,2|0,1:2|0:0,0:0:0:0:
172,142,248287,1,0,0:0:0:0:
173,168,248381,1,0,0:0:0:0:
175,194,248475,1,0,0:0:0:0:
176,219,248569,6,0,B|180:312|180:312|139:286,1,132.00000402832,2|0,1:2|0:0,0:0:0:0:
57,228,248944,2,0,B|52:134|52:134|94:161,1,132.00000402832,0|0,0:0|0:0,0:0:0:0:
176,219,249319,6,0,P|222:230|280:210,1,88.000002685547,8|0,1:0|0:0,0:0:0:0:
335,173,249600,1,0,0:0:0:0:
335,173,249694,2,0,L|332:270,1,88.000002685547,0|0,1:0|0:0,0:0:0:0:
260,221,249975,1,0,0:0:0:0:
407,212,250069,6,0,L|404:309,1,88.000002685547,2|0,1:2|0:0,0:0:0:0:
479,251,250350,1,0,0:0:0:0:
479,251,250444,2,0,L|476:348,1,88.000002685547,4|0,0:0|0:0,0:0:0:0:
409,382,250725,1,0,0:0:0:0:
409,382,250819,1,6,0:0:0:0:
409,124,251194,5,0,0:0:0:0:
403,118,251569,6,0,P|349:96|268:117,1,132.00000402832,2|0,1:2|0:0,0:0:0:0:
234,188,251944,2,0,L|234:51,1,132.00000402832,2|0,0:0|0:0,0:0:0:0:
159,165,252319,2,0,L|159:28,1,132.00000402832,2|0,1:2|0:0,0:0:0:0:
84,141,252694,2,0,L|84:9,1,132.00000402832,2|0,0:0|0:0,0:0:0:0:
159,165,253069,6,0,P|124:211|39:211,1,132.00000402832,2|0,0:0|0:0,0:0:0:0:
16,195,253444,1,2,0:0:0:0:
53,218,253537,1,0,0:0:0:0:
79,253,253631,1,0,0:0:0:0:
86,296,253725,1,0,0:0:0:0:
79,339,253819,2,0,P|130:322|155:322,1,44.0000013427735,8|0,1:2|0:0,0:0:0:0:
205,304,254006,2,0,P|258:301|282:307,1,44.0000013427735,0|0,0:0|0:0,0:0:0:0:
335,304,254194,2,0,P|387:315|409:327,1,44.0000013427735,0|0,0:0|0:0,0:0:0:0:
460,337,254381,1,0,0:0:0:0:
480,344,254474,1,0,0:0:0:0:
499,355,254569,6,0,P|469:274|498:200,1,132.00000402832,4|0,1:2|0:0,0:0:0:0:
512,125,254944,2,0,B|463:149|463:149|350:135,1,132.00000402832,0|0,0:0|0:0,0:0:0:0:
246,88,255319,5,10,1:2:0:0:
287,73,255412,1,0,0:0:0:0:
330,79,255506,1,0,0:0:0:0:
369,99,255600,1,0,0:0:0:0:
386,139,255694,5,2,0:0:0:0:
389,160,255787,1,0,0:0:0:0:
387,182,255881,1,0,0:0:0:0:
385,204,255975,1,0,0:0:0:0:
379,225,256069,6,0,B|262:214,1,88.000002685547,2|0,1:2|0:0,0:0:0:0:
330,296,256350,1,0,0:0:0:0:
330,296,256444,2,0,B|213:285,1,88.000002685547,4|0,0:0|0:0,0:0:0:0:
196,363,256725,1,0,0:0:0:0:
196,363,256819,1,2,0:0:0:0:
6,63,257194,5,0,0:0:0:0:
13,54,257569,6,0,P|91:33|194:70,1,176.000005371094,6|0,0:0|0:0,0:0:0:0:
244,119,258131,1,0,0:0:0:0:
330,139,258319,1,2,0:0:0:0:
414,113,258506,1,0,0:0:0:0:
414,113,258599,1,0,0:0:0:0:
414,113,258694,1,0,0:0:0:0:
473,48,258881,1,0,0:0:0:0:
330,139,259069,5,2,1:2:0:0:
270,203,259256,1,0,0:0:0:0:
270,203,259350,1,0,0:0:0:0:
270,203,259444,1,0,0:0:0:0:
250,288,259631,1,0,1:0:0:0:
275,371,259819,1,2,1:2:0:0:
335,308,260006,1,0,0:0:0:0:
335,308,260100,1,0,0:0:0:0:
335,308,260194,1,0,1:0:0:0:
190,351,260381,1,0,0:0:0:0:
190,351,260475,1,0,0:0:0:0:
190,351,260569,6,0,L|78:338,1,95.9999970703126,6|0,1:2|0:0,0:0:0:0:
0,266,261131,1,0,0:0:0:0:
0,266,261319,2,0,L|57:259,1,47.9999985351563,2|0,0:0|0:0,0:0:0:0:
71,257,261600,1,0,0:0:0:0:
95,254,261694,1,0,0:0:0:0:
190,181,261881,1,0,0:0:0:0:
190,181,262069,2,0,L|94:169,1,95.9999970703126,2|0,0:0|0:0,0:0:0:0:
96,0,262631,5,0,0:0:0:0:
95,85,262818,1,2,0:0:0:0:
94,170,263006,1,0,0:0:0:0:
95,255,263193,1,2,0:0:0:0:
94,339,263381,1,0,0:0:0:0:
95,85,265069,6,0,P|158:68|232:85,1,128,2|0,0:0|0:0,0:0:0:0:
349,247,265819,1,2,0:0:0:0:
349,247,266006,1,0,0:0:0:0:
277,218,266194,1,0,0:0:0:0:
229,156,266381,1,0,0:0:0:0:
349,247,266569,6,0,P|366:286|348:375,1,128,2|0,0:0|0:0,0:0:0:0:
150,312,267131,1,0,0:0:0:0:
150,312,267319,2,0,P|210:292|271:308,1,128,2|0,0:0|0:0,0:0:0:0:
352,368,267881,1,0,0:0:0:0:
271,308,268069,6,0,L|275:166,1,128,2|0,0:0|0:0,0:0:0:0:
274,180,268631,1,0,0:0:0:0:
200,5,268819,2,0,L|203:132,1,128,2|0,0:0|0:0,0:0:0:0:
203,132,269381,1,0,0:0:0:0:
397,168,269569,6,0,P|336:159|253:195,1,128,2|0,0:0|0:0,0:0:0:0:
273,179,270131,1,0,0:0:0:0:
80,144,270319,2,0,P|141:153|224:117,1,128,2|0,0:0|0:0,0:0:0:0:
260,81,270881,1,0,0:0:0:0:
273,179,271069,6,0,L|287:330,1,128,2|0,0:0|0:0,0:0:0:0:
203,289,271631,1,0,0:0:0:0:
203,289,271725,1,0,0:0:0:0:
203,289,271819,2,0,P|155:281|113:297,1,64,2|0,0:0|0:0,0:0:0:0:
284,306,272194,2,0,P|315:309|346:300,1,64,0|0,0:0|0:0,0:0:0:0:
197,225,272569,6,0,L|211:376,1,128,2|0,0:0|0:0,0:0:0:0:
208,352,273131,1,0,0:0:0:0:
273,179,273319,2,0,L|261:51,1,128,2|0,0:0|0:0,0:0:0:0:
261,51,273881,1,0,0:0:0:0:
103,107,274069,6,0,L|229:121,1,120,2|0,0:0|0:0,0:0:0:0:
392,165,274444,2,0,L|266:179,1,120,2|0,0:0|0:0,0:0:0:0:
79,220,274819,6,0,L|222:236,1,143.999995605469,2|0,0:0|0:0,0:0:0:0:
415,278,275194,2,0,L|271:293,1,143.999995605469,2|0,0:0|0:0,0:0:0:0:
222,236,275569,6,0,P|259:309|236:373,1,128,2|0,0:0|0:0,0:0:0:0:
164,312,276131,1,0,0:0:0:0:
142,238,276319,2,0,L|150:159,1,64,2|0,0:0|0:0,0:0:0:0:
219,145,276694,2,0,L|211:66,1,64,0|0,0:0|0:0,0:0:0:0:
151,35,277069,6,0,P|235:52|296:31,1,128,2|0,0:0|0:0,0:0:0:0:
274,41,277631,1,0,0:0:0:0:
454,114,277819,2,0,P|370:97|309:118,1,128,0|0,0:0|0:0,0:0:0:0:
322,117,278569,6,0,P|308:195|338:257,1,128,2|0,0:0|0:0,0:0:0:0:
324,238,279131,1,0,0:0:0:0:
447,346,279319,2,0,P|363:325|305:345,1,128,2|0,0:0|0:0,0:0:0:0:
324,334,279881,1,0,0:0:0:0:
202,227,280069,6,0,P|286:248|344:228,1,128,2|0,0:0|0:0,0:0:0:0:
272,136,280631,1,0,0:0:0:0:
324,334,280819,1,2,0:0:0:0:
327,346,281194,1,0,0:0:0:0:
330,358,281569,6,0,P|269:340|201:361,1,128,2|0,0:0|0:0,0:0:0:0:
208,356,282131,1,0,0:0:0:0:
148,307,282319,2,0,L|141:223,1,64,2|0,0:0|0:0,0:0:0:0:
211,208,282694,2,0,L|218:124,1,64,0|0,0:0|0:0,0:0:0:0:
188,72,282975,1,0,0:0:0:0:
188,72,283069,6,0,P|229:65|261:80,1,64,2|0,0:0|0:0,0:0:0:0:
298,12,283444,2,0,P|324:44|327:79,1,64,0|0,0:0|0:0,0:0:0:0:
404,77,283819,2,0,P|389:116|360:136,1,64,2|0,0:0|0:0,0:0:0:0:
400,201,284194,2,0,P|359:208|327:192,1,64,0|0,0:0|0:0,0:0:0:0:
249,72,284569,6,0,P|268:148|248:205,1,120,2|0,0:0|0:0,0:0:0:0:
347,315,284944,2,0,P|328:239|348:182,1,120,2|0,0:0|0:0,0:0:0:0:
175,136,285319,6,0,B|75:113|75:113|105:168,1,143.999995605469,2|0,0:0|0:0,0:0:0:0:
258,187,285694,2,0,B|358:164|358:164|328:219,1,143.999995605469,2|0,0:0|0:0,0:0:0:0:
165,303,286069,6,0,L|176:109,1,167.999994873047,2|0,0:0|0:0,0:0:0:0:
248,19,286444,5,2,0:0:0:0:
250,61,286537,1,0,0:0:0:0:
253,103,286631,1,0,0:0:0:0:
255,145,286725,1,0,0:0:0:0:
258,187,286819,6,0,P|309:207|401:190,1,140,2|0,0:0|0:0,0:0:0:0:
441,132,287569,6,0,L|426:303,1,160,6|2,1:0|0:0,0:0:0:0:
491,363,288131,1,0,0:0:0:0:
336,319,288319,2,0,P|256:307|179:328,1,160,8|0,1:0|0:0,0:0:0:0:
97,376,288881,1,0,0:0:0:0:
167,232,289069,6,0,L|153:72|153:72,1,160,2|0,1:0|0:0,0:0:0:0:
170,56,289537,1,0,0:0:0:0:
187,39,289631,1,0,0:0:0:0:
372,128,289819,2,0,P|300:159|229:129,1,160,8|0,1:0|0:0,0:0:0:0:
153,72,290381,1,0,0:0:0:0:
301,64,290569,6,0,L|300:237,1,160,2|0,1:0|0:0,0:0:0:0:
245,302,291131,1,0,0:0:0:0:
388,230,291319,2,0,B|452:192|516:236|516:236|498:279,1,160,8|0,1:0|0:0,0:0:0:0:
448,333,291881,1,0,0:0:0:0:
300,223,292069,6,0,L|301:64,1,160,0|0,1:0|0:0,0:0:0:0:
391,207,292631,1,0,0:0:0:0:
391,207,292725,1,0,0:0:0:0:
391,207,292819,2,0,L|455:200,1,40,8|0,1:0|0:0,0:0:0:0:
226,145,293007,2,0,L|161:138,1,40,0|0,0:0|0:0,0:0:0:0:
383,112,293194,2,0,L|491:101,1,80,8|0,1:0|0:0,0:0:0:0:
226,145,293569,6,0,B|225:267|225:267|272:231,1,160,2|0,1:0|0:0,0:0:0:0:
329,183,294131,1,0,0:0:0:0:
271,33,294319,2,0,P|196:14|98:48,1,160,8|0,1:0|0:0,0:0:0:0:
42,93,294881,1,0,0:0:0:0:
126,274,295069,6,0,L|116:115,1,160,2|0,1:0|0:0,0:0:0:0:
42,176,295631,1,0,0:0:0:0:
199,212,295819,2,0,L|189:53,1,160,8|0,1:0|0:0,0:0:0:0:
116,115,296381,1,0,0:0:0:0:
274,148,296569,6,0,P|374:154|431:130,1,160,0|0,1:0|0:0,0:0:0:0:
441,36,297131,1,0,0:0:0:0:
418,229,297319,2,0,B|405:342|405:342|374:299,1,160,8|0,1:0|0:0,0:0:0:0:
321,226,297881,1,0,0:0:0:0:
512,201,298069,6,0,B|491:381,1,160,2|0,1:0|0:0,0:0:0:0:
418,229,298631,1,0,0:0:0:0:
499,72,298819,1,8,1:0:0:0:
418,229,299006,1,0,0:0:0:0:
385,226,299100,1,0,0:0:0:0:
353,223,299194,1,2,0:0:0:0:
309,156,299381,1,0,0:0:0:0:
377,304,299569,6,0,L|504:313,1,128,2|0,0:0|0:0,0:0:0:0:
505,313,300131,1,0,0:0:0:0:
436,146,300319,2,0,L|308:155,1,128,2|0,0:0|0:0,0:0:0:0:
308,155,300881,1,0,0:0:0:0:
249,294,301069,6,0,L|376:303,1,128,2|0,0:0|0:0,0:0:0:0:
377,303,301631,1,0,0:0:0:0:
308,155,301819,2,0,L|180:164,1,128,2|0,0:0|0:0,0:0:0:0:
180,164,302381,1,0,0:0:0:0:
248,291,302569,6,0,P|236:208|147:158,1,160,6|0,1:0|0:0,0:0:0:0:
179,163,303131,1,0,0:0:0:0:
5,256,303319,2,0,P|81:287|170:234,1,160,8|4,1:0|0:0,0:0:0:0:
149,260,303881,1,0,0:0:0:0:
83,89,304069,5,4,1:0:0:0:
79,185,304256,1,0,0:0:0:0:
149,260,304444,1,0,0:0:0:0:
145,356,304631,1,0,0:0:0:0:
236,271,304819,6,0,L|111:254,1,88.000002685547,2|0,0:0|0:0,0:0:0:0:
322,196,305194,6,0,L|459:177,1,120.000004577637,8|0,1:0|0:0,0:0:0:0:
236,271,305569,6,0,B|190:198|232:131|232:131|199:75|122:88,1,240.000009155274,2|0,1:0|0:0,0:0:0:0:
37,98,306131,1,0,0:0:0:0:
322,196,306319,2,0,B|483:174|483:174|447:254,1,240.000009155274,8|0,1:0|0:0,0:0:0:0:
411,358,306881,1,0,0:0:0:0:
232,130,307069,6,0,L|469:97,1,240.000009155274,2|0,1:0|0:0,0:0:0:0:
324,351,307631,6,0,L|284:346,2,40,2|0|0,1:0|1:0|1:0,0:0:0:0:
411,358,307819,1,8,1:0:0:0:
324,351,308006,6,0,P|379:277|485:312,1,210.000002002716,2|0,1:0|0:0,0:0:0:0:
411,358,308381,1,0,0:0:0:0:
133,351,308569,6,0,P|122:322|121:293,1,60.0000022888184,2|0,1:0|0:0,0:0:0:0:
336,293,308756,2,0,P|334:322|324:350,1,60.0000022888184,0|0,0:0|0:0,0:0:0:0:
166,224,308944,2,0,P|155:195|154:166,1,60.0000022888184,2|0,0:0|0:0,0:0:0:0:
301,166,309131,2,0,P|299:195|289:223,1,60.0000022888184,0|0,0:0|0:0,0:0:0:0:
73,114,309319,5,10,1:0:0:0:
92,91,309413,1,0,0:0:0:0:
118,76,309507,1,0,0:0:0:0:
147,70,309601,1,0,0:0:0:0:
177,73,309694,2,0,P|204:84|227:105,1,60.0000022888184,2|0,0:0|0:0,0:0:0:0:
301,166,309881,5,2,1:0:0:0:
350,190,309974,1,0,0:0:0:0:
405,186,310069,1,0,0:0:0:0:
451,156,310162,1,0,0:0:0:0:
475,105,310257,1,0,0:0:0:0:
471,49,310350,1,0,0:0:0:0:
402,66,310444,5,2,1:0:0:0:
357,118,310537,1,0,0:0:0:0:
350,190,310631,1,0,0:0:0:0:
369,257,310725,1,0,0:0:0:0:
416,322,310819,6,0,L|311:313,1,80,10|0,1:0|0:0,0:0:0:0:
151,230,311006,1,0,0:0:0:0:
146,245,311100,1,0,0:0:0:0:
142,260,311194,2,0,L|221:253,1,80,10|0,1:0|0:0,0:0:0:0:
429,197,311381,2,0,L|350:190,1,80,0|0,0:0|0:0,0:0:0:0:
142,140,311569,1,2,1:0:0:0:
208,371,311756,5,2,0:0:0:0:
211,341,311850,1,0,0:0:0:0:
214,311,311944,1,0,0:0:0:0:
217,281,312038,1,0,0:0:0:0:
221,252,312131,1,0,0:0:0:0:
42,85,312319,5,10,1:0:0:0:
84,126,312412,1,0,0:0:0:0:
142,140,312506,1,0,0:0:0:0:
199,123,312600,1,0,0:0:0:0:
239,80,312694,1,2,0:0:0:0:
279,37,312787,1,0,0:0:0:0:
336,20,312881,1,0,0:0:0:0:
394,34,312975,1,0,0:0:0:0:
436,75,313068,1,6,1:0:0:0:
358,315,313256,5,2,0:0:0:0:
353,270,313350,1,0,0:0:0:0:
349,225,313444,1,0,0:0:0:0:
344,180,313538,1,0,0:0:0:0:
338,136,313631,1,0,0:0:0:0:
106,258,313819,6,0,P|163:272|219:252,1,120.000004577637,10|0,1:0|0:0,0:0:0:0:
223,281,314100,1,0,0:0:0:0:
226,311,314194,1,2,0:0:0:0:
229,341,314288,1,0,0:0:0:0:
232,371,314382,1,0,0:0:0:0:
450,129,314569,6,0,P|392:114|337:135,1,120.000004577637,6|0,1:0|0:0,0:0:0:0:
282,158,314850,1,0,0:0:0:0:
222,149,314944,1,2,0:0:0:0:
173,113,315037,1,0,0:0:0:0:
160,54,315131,1,0,0:0:0:0:
398,210,315319,6,0,B|420:261|385:325|385:325|346:277,1,180.000006866455,10|0,1:0|0:0,0:0:0:0:
282,158,315694,2,0,B|260:107|295:43|295:43|334:91,1,180.000006866455,0|0,0:0|0:0,0:0:0:0:
398,210,316069,6,0,L|467:216,1,70.000000667572,2|0,1:0|0:0,0:0:0:0:
282,158,316256,2,0,L|212:151,1,70.000000667572,0|0,0:0|0:0,0:0:0:0:
347,278,316444,2,0,L|416:284,1,70.000000667572,2|0,1:0|0:0,0:0:0:0:
332,89,316631,2,0,L|262:82,1,70.000000667572,0|0,0:0|0:0,0:0:0:0:
400,132,316819,6,0,P|410:98|408:63,1,70.000000667572,8|0,1:0|0:0,0:0:0:0:
279,235,317006,2,0,P|268:268|270:303,1,70.000000667572,0|0,0:0|0:0,0:0:0:0:
433,370,317194,6,0,B|373:328|314:348|360:372|263:428|206:358,1,240,0|0,1:0|0:0,0:0:0:0:
178,146,317569,6,0,P|281:191|269:303,1,240.000009155274,2|0,0:0|0:0,0:0:0:0:
213,366,318131,1,0,0:0:0:0:
178,146,318319,2,0,B|240:105|308:128|271:159|342:188|419:152,1,240.000009155274,10|0,1:0|0:0,0:0:0:0:
357,67,318881,1,0,0:0:0:0:
128,248,319069,6,0,P|68:165|163:34,1,240.000009155274,2|0,1:0|0:0,0:0:0:0:
178,146,319631,1,0,0:0:0:0:
78,350,319819,1,8,1:0:0:0:
178,146,320006,6,0,B|277:84|388:157|388:157|291:246,1,295.99999887085,2|0,1:0|1:0,0:0:0:0:
178,146,320569,6,0,P|162:88|180:20,1,120.000004577637,2|0,1:0|0:0,0:0:0:0:
334,205,320944,1,2,0:0:0:0:
345,232,321037,1,0,0:0:0:0:
349,262,321131,1,0,0:0:0:0:
347,292,321225,1,0,0:0:0:0:
337,320,321319,6,0,L|272:312,1,60.0000022888184,10|0,1:0|0:0,0:0:0:0:
247,227,321506,2,0,L|188:235,1,60.0000022888184,0|0,0:0|0:0,0:0:0:0:
157,320,321694,2,0,L|98:312,1,60.0000022888184,2|0,0:0|0:0,0:0:0:0:
298,150,321881,1,0,1:0:0:0:
309,135,321975,1,0,1:0:0:0:
318,112,322069,6,0,P|323:64|303:13,1,80,8|0,1:0|0:0,0:0:0:0:
193,33,322256,2,0,P|190:73|200:112,1,80,0|0,0:0|0:0,0:0:0:0:
403,120,322444,6,0,B|413:75|413:75|406:39,1,83.9999974365235,8|0,1:0|0:0,0:0:0:0:
102,51,322631,2,0,B|98:88|98:88|113:131,1,83.9999974365235,0|0,0:0|0:0,0:0:0:0:
471,196,322819,6,0,L|492:110,1,88.000002685547,10|0,1:0|0:0,0:0:0:0:
22,129,323006,2,0,L|52:213,1,88.000002685547
317,241,323194,6,0,P|256:142|191:238,1,276.000005264282,10|0,1:0|0:0,0:0:0:0:
254,211,323569,5,2,1:0:0:0:
102,51,323756,1,0,1:0:0:0:
230,322,323944,1,0,1:0:0:0:
475,221,324131,6,0,L|246:210,1,221.999999153137,10|0,1:0|0:0,0:0:0:0:
164,206,324506,1,0,1:0:0:0:
418,125,324694,1,8,1:0:0:0:
230,322,324881,1,0,1:0:0:0:
304,59,325069,6,0,L|314:187,1,73.9999997177124,2|0,1:0|0:0,0:0:0:0:
229,38,325256,2,0,L|234:111,1,73.9999997177124,0|0,0:0|0:0,0:0:0:0:
154,17,325444,2,0,L|159:90,1,73.9999997177124,2|0,0:0|0:0,0:0:0:0:
75,225,325631,6,0,B|168:166|168:166|326:239,1,221.999999153137,8|0,1:0|0:0,0:0:0:0:
173,277,326006,1,0,1:0:0:0:
84,0,326194,1,8,1:0:0:0:
309,132,326381,1,0,1:0:0:0:
1,307,326569,6,0,P|-30:214|40:118,1,180.000006866455,2|0,1:0|0:0,0:0:0:0:
76,83,326944,1,0,0:0:0:0:
254,213,327131,2,0,L|74:224,1,180.000006866455,8|0,1:0|0:0,0:0:0:0:
1,307,327506,1,0,0:0:0:0:
254,212,327694,6,0,P|239:123|174:186,1,221.999999153137,8|0,1:0|0:0,0:0:0:0:
203,301,328069,6,0,B|265:336|330:302|307:285|367:242|460:305,1,240.000009155274,8|0,1:0|1:0,0:0:0:0:
254,212,328631,5,8,1:0:0:0:
430,288,328819,2,0,L|440:192,1,80,2|8,1:0|3:0,0:0:0:0:
448,128,329006,1,8,3:0:0:0:
254,212,329194,1,0,0:0:0:0:
272,370,329381,1,0,0:0:0:0:
448,128,329569,6,0,B|369:92|282:124|322:165|200:199|136:111|136:111|185:143|236:123,1,420.000016021729,2|0,0:0|0:0,0:0:0:0:
195,34,330975,1,0,0:0:0:0:
195,34,331069,1,4,0:0:0:0:
256,192,338569,12,0,339881,0:0:0:0:
52,315,340069,6,0,B|114:269|188:309|128:331|221:365|288:311,1,256,2|0,0:0|0:0,0:0:0:0:
342,232,341006,1,0,0:0:0:0:
288,312,341194,1,0,0:0:0:0:
368,366,341381,1,0,0:0:0:0:
422,286,341569,6,0,P|435:211|403:155,1,128,2|0,0:0|0:0,0:0:0:0:
320,136,342131,1,0,0:0:0:0:
234,179,342319,2,0,P|292:227|356:228,1,128,2|0,0:0|0:0,0:0:0:0:
310,8,343069,6,0,L|322:163,1,128,2|0,0:0|0:0,0:0:0:0:
234,179,343631,1,0,0:0:0:0:
141,153,343819,2,0,P|178:102|238:83,1,128,2|0,0:0|0:0,0:0:0:0:
234,179,344381,1,0,0:0:0:0:
164,246,344569,6,0,L|36:236,1,128,2|0,0:0|0:0,0:0:0:0:
141,153,345131,1,0,0:0:0:0:
187,339,345319,5,2,0:0:0:0:
189,350,345694,1,0,0:0:0:0:
191,361,346069,6,0,L|345:343,2,128,2|0|0,0:0|0:0|0:0,0:0:0:0:
103,321,347006,1,0,0:0:0:0:
164,246,347194,1,0,0:0:0:0:
252,286,347381,1,0,0:0:0:0:
103,321,347569,2,0,L|-31:305,2,128,2|0|0,0:0|0:0|0:0,0:0:0:0:
243,190,348694,6,0,P|293:198|337:243,1,96,2|0,0:0|0:0,0:0:0:0:
382,283,349069,6,0,L|373:135,1,120,2|0,0:0|0:0,0:0:0:0:
307,1,349444,2,0,L|300:120,1,120,2|0,0:0|0:0,0:0:0:0:
327,226,349819,6,0,P|235:190|163:230,1,143.999995605469,2|0,0:0|0:0,0:0:0:0:
35,99,350194,2,0,P|127:135|199:95,1,143.999995605469,2|0,0:0|0:0,0:0:0:0:
202,34,350569,6,0,L|195:201,1,167.999994873047,2|0,0:0|0:0,0:0:0:0:
276,357,350944,5,2,0:0:0:0:
275,315,351037,1,0,0:0:0:0:
273,273,351131,1,0,0:0:0:0:
271,231,351225,1,0,0:0:0:0:
270,190,351319,6,0,P|354:211|413:188,1,140,2|0,0:0|0:0,0:0:0:0:
464,157,352069,6,0,P|422:200|429:297,1,143.999995605469,2|0,0:0|0:0,0:0:0:0:
507,242,352631,1,0,0:0:0:0:
447,373,352819,2,0,P|369:343|311:352,1,143.999995605469,2|0,0:0|0:0,0:0:0:0:
222,382,353381,1,0,0:0:0:0:
98,307,353569,6,0,P|80:228|112:140,1,143.999995605469,2|0,0:0|0:0,0:0:0:0:
146,90,354131,1,0,0:0:0:0:
221,141,354319,2,0,P|163:181|94:167,1,143.999995605469,2|0,0:0|0:0,0:0:0:0:
146,90,354881,1,0,0:0:0:0:
292,82,355069,6,0,P|314:148|283:211,1,143.999995605469,2|0,0:0|0:0,0:0:0:0:
276,223,355819,2,0,P|358:209|436:235,1,143.999995605469,2|0,0:0|0:0,0:0:0:0:
503,258,356381,1,0,0:0:0:0:
475,116,356569,6,0,B|464:13|464:13|433:61,1,143.999995605469,2|0,0:0|0:0,0:0:0:0:
394,126,357131,1,0,0:0:0:0:
277,35,357319,2,0,L|349:43,1,71.9999978027344,2|0,0:0|0:0,0:0:0:0:
160,125,357694,2,0,L|231:117,1,71.9999978027344,0|0,0:0|0:0,0:0:0:0:
42,35,358069,6,0,P|73:74|70:194,1,143.999995605469,2|0,0:0|0:0,0:0:0:0:
41,249,358631,1,0,0:0:0:0:
160,125,358819,2,0,P|226:116|321:155,1,143.999995605469,2|0,0:0|0:0,0:0:0:0:
378,188,359381,1,0,0:0:0:0:
323,265,359569,6,0,P|284:207|298:138,1,143.999995605469,2|0,0:0|0:0,0:0:0:0:
378,188,360131,1,0,0:0:0:0:
391,331,360319,1,2,0:0:0:0:
323,265,360506,1,0,0:0:0:0:
231,241,360694,1,0,0:0:0:0:
139,266,360881,1,0,0:0:0:0:
233,379,361069,6,0,P|249:309|230:240,1,143.999995605469,2|0,0:0|0:0,0:0:0:0:
162,172,361631,1,0,0:0:0:0:
293,112,361819,2,0,L|449:126,1,143.999995605469,2|0,0:0|0:0,0:0:0:0:
403,37,362381,1,0,0:0:0:0:
375,193,362569,6,0,L|533:207,1,143.999995605469,2|0,0:0|0:0,0:0:0:0:
436,124,363131,1,0,0:0:0:0:
285,174,363319,1,2,0:0:0:0:
313,261,363506,1,0,0:0:0:0:
375,193,363694,1,0,0:0:0:0:
347,106,363881,1,0,0:0:0:0:
185,245,364069,6,0,L|312:260,1,128,2|0,0:0|0:0,0:0:0:0:
375,193,364631,1,0,0:0:0:0:
347,106,364819,2,0,L|219:91,1,128,2|0,0:0|0:0,0:0:0:0:
191,4,365381,1,0,0:0:0:0:
219,91,365569,6,0,P|227:174|187:231,1,128,2|0,0:0|0:0,0:0:0:0:
148,269,366131,1,0,0:0:0:0:
205,329,366319,2,0,P|264:352|326:340,1,128,2|0,0:0|0:0,0:0:0:0:
401,304,366881,1,0,0:0:0:0:
324,162,367069,6,0,L|327:257,1,95.9999970703126,2|0,0:0|0:0,0:0:0:0:
401,304,367631,1,0,0:0:0:0:
472,253,367819,2,0,L|468:157,1,95.9999970703126,2|0,0:0|0:0,0:0:0:0:
395,111,368381,1,0,0:0:0:0:
323,161,368569,6,0,P|278:171|235:160,1,80,2|0,0:0|0:0,0:0:0:0:
180,132,369131,1,0,0:0:0:0:
226,236,369319,1,0,0:0:0:0:
256,192,369412,12,0,374381,0:0:0:0:
