osu file format v14

[General]
AudioFilename: audio.mp3
AudioLeadIn: 0
PreviewTime: 52800
Countdown: 1
SampleSet: None
StackLeniency: 0.7
Mode: 0
LetterboxInBreaks: 0
WidescreenStoryboard: 0

[Editor]
DistanceSpacing: 1.3
BeatDivisor: 4
GridSize: 4
TimelineZoom: 1

[Metadata]
Title:Seeker
TitleUnicode:Seeker
Artist:M2U
ArtistUnicode:M2U
Creator:Streliteela
Version:Insane
Source:
Tags:
BeatmapID:1020932
BeatmapSetID:477953

[Difficulty]
HPDrainRate:7
CircleSize:5
OverallDifficulty:8
ApproachRate:9
SliderMultiplier:1.8
SliderTickRate:1

[Events]
//Background and Video events
0,0,"DJMax.jpg",0,0
//Break Periods
//Storyboard Layer 0 (Background)
//Storyboard Layer 1 (Fail)
//Storyboard Layer 2 (Pass)
//Storyboard Layer 3 (Foreground)
//Storyboard Sound Samples

[TimingPoints]
0,400,4,2,0,60,1,0
1200,-166.666666666667,4,2,0,60,0,0
1600,-100,4,2,0,60,0,0
52800,-83.3333333333333,4,1,0,60,0,1
78400,-100,4,1,0,60,0,0
104000,-83.3333333333333,4,1,0,60,0,1
129600,-83.3333333333333,4,1,0,60,0,0

[Colours]
Combo1 : 187,185,181
Combo2 : 255,23,23
Combo3 : 18,124,255
Combo4 : 190,97,218

[HitObjects]
77,63,1200,6,0,L|69:101,3,26.9999991760254
96,122,1600,6,0,L|83:4,1,90
192,90,2000,2,0,L|176:195,1,90
178,178,2600,1,0,0:0:0:0:
50,201,2800,1,0,0:0:0:0:
178,178,3000,2,0,L|234:188,1,45
309,281,3300,5,0,0:0:0:0:
309,281,3400,2,0,B|272:284|272:284|261:302|261:302|218:308,1,90
216,304,3700,1,0,0:0:0:0:
202,301,3800,2,0,L|211:357,2,45
285,207,4200,1,0,0:0:0:0:
394,258,4400,1,0,0:0:0:0:
315,350,4600,1,0,0:0:0:0:
285,207,4800,6,0,L|294:108,2,90
225,95,5400,1,0,0:0:0:0:
356,45,5600,1,0,0:0:0:0:
356,45,5700,1,0,0:0:0:0:
356,45,5800,2,0,L|374:150,1,90
280,22,6200,1,0,0:0:0:0:
239,81,6400,5,0,0:0:0:0:
174,112,6600,1,0,0:0:0:0:
102,109,6800,1,0,0:0:0:0:
42,68,7000,1,0,0:0:0:0:
37,55,7100,1,0,0:0:0:0:
32,42,7200,2,0,P|39:133|41:151,1,90
0,214,7600,1,0,0:0:0:0:
117,183,7800,2,0,L|106:236,1,45
78,260,8000,6,0,L|174:245,1,90
222,298,8400,1,0,0:0:0:0:
180,140,8600,1,0,0:0:0:0:
67,264,8800,1,0,0:0:0:0:
68,272,8900,1,0,0:0:0:0:
69,280,9000,1,0,0:0:0:0:
142,348,9200,1,0,0:0:0:0:
166,246,9400,1,0,0:0:0:0:
142,348,9600,5,0,0:0:0:0:
142,348,9700,1,0,0:0:0:0:
142,348,9800,2,0,L|197:358,2,45
236,296,10200,2,0,B|283:288|283:288|313:310|313:310|368:304,1,135
379,301,10600,1,0,0:0:0:0:
351,144,10800,2,0,P|329:189|340:234,1,90
457,362,11200,5,0,0:0:0:0:
457,362,11300,1,0,0:0:0:0:
457,362,11400,2,0,P|479:317|468:272,1,90
414,200,11800,1,0,0:0:0:0:
379,301,12000,1,0,0:0:0:0:
313,229,12200,2,0,L|265:240,1,45
244,225,12400,1,0,0:0:0:0:
242,242,12500,1,0,0:0:0:0:
241,259,12600,1,0,0:0:0:0:
313,355,12800,5,0,0:0:0:0:
313,355,12900,1,0,0:0:0:0:
313,355,13000,2,0,L|306:311,2,45
230,250,13400,2,0,B|187:245|187:245|153:268|153:268|86:259,1,135
89,259,13800,1,0,0:0:0:0:
141,181,14000,1,0,0:0:0:0:
223,224,14200,1,0,0:0:0:0:
198,310,14400,6,0,P|150:323|133:328,1,45
87,340,14600,1,0,0:0:0:0:
223,224,14800,2,0,L|297:236,1,45
277,239,15000,1,0,0:0:0:0:
286,248,15100,1,0,0:0:0:0:
296,256,15200,2,0,L|318:158,1,90
260,111,15500,1,0,0:0:0:0:
260,111,15600,2,0,L|211:123,1,45
165,62,15800,2,0,L|120:55,1,45
52,103,16000,5,0,0:0:0:0:
52,103,16100,2,0,P|30:148|46:193,1,90
49,194,16400,2,0,L|100:185,1,45
171,336,16700,1,0,0:0:0:0:
171,336,16800,2,0,L|124:328,1,45
251,361,17000,2,0,L|297:351,1,45
228,293,17200,1,0,0:0:0:0:
228,293,17300,2,0,B|237:262|237:262|222:237|222:237|228:209,1,90
219,183,17600,5,0,0:0:0:0:
245,187,17700,1,0,0:0:0:0:
271,191,17800,1,0,0:0:0:0:
405,241,18000,1,0,0:0:0:0:
405,241,18100,2,0,P|375:242|348:253,1,45
349,252,18300,1,0,0:0:0:0:
338,260,18400,2,0,L|350:132,1,90
286,72,18700,1,0,0:0:0:0:
286,72,18800,2,0,L|295:132,1,45
432,118,19000,2,0,L|411:174,1,45
418,43,19200,6,0,P|385:16|338:21,1,90
220,107,19600,1,0,0:0:0:0:
206,110,19700,1,0,0:0:0:0:
193,111,19800,2,0,P|170:108|143:95,1,45
51,51,20000,1,0,0:0:0:0:
60,59,20100,1,0,0:0:0:0:
68,71,20200,2,0,P|76:92|79:121,1,45
89,221,20400,1,0,0:0:0:0:
91,209,20500,1,0,0:0:0:0:
97,197,20600,2,0,P|111:178|134:162,1,45
197,229,20800,6,0,B|189:297|189:297|165:277,1,90
54,337,21200,1,0,0:0:0:0:
54,337,21300,2,0,P|96:328|137:319,1,45
107,337,21500,1,0,0:0:0:0:
116,346,21600,2,0,B|215:359,1,90
218,361,21900,1,0,0:0:0:0:
273,301,22000,1,0,0:0:0:0:
268,288,22100,1,0,0:0:0:0:
213,239,22200,1,0,0:0:0:0:
208,252,22300,1,0,0:0:0:0:
273,301,22400,6,0,B|307:294|307:294|335:306|335:306|370:300,1,90
468,330,22800,1,0,0:0:0:0:
465,340,22900,1,0,0:0:0:0:
440,218,23100,1,0,0:0:0:0:
440,218,23200,2,0,L|430:267,2,45
390,364,23600,1,0,0:0:0:0:
390,364,23700,2,0,B|356:371|356:371|328:359|328:359|293:365,1,90
286,336,24000,5,0,0:0:0:0:
284,354,24100,1,0,0:0:0:0:
282,372,24200,1,0,0:0:0:0:
202,306,24400,1,0,0:0:0:0:
200,297,24500,1,0,0:0:0:0:
213,267,24600,1,0,0:0:0:0:
211,258,24700,1,0,0:0:0:0:
187,234,24800,2,0,B|155:229|155:229|134:247|134:247|91:242,1,90
87,236,25100,1,0,0:0:0:0:
70,229,25200,2,0,L|62:169,1,45
146,82,25400,2,0,L|144:128,1,45
224,171,25600,5,0,0:0:0:0:
247,183,25700,1,0,0:0:0:0:
274,183,25800,1,0,0:0:0:0:
300,176,25900,1,0,0:0:0:0:
321,159,26000,1,0,0:0:0:0:
344,145,26100,1,0,0:0:0:0:
370,140,26200,1,0,0:0:0:0:
396,146,26300,1,0,0:0:0:0:
417,162,26400,2,0,L|410:218,1,45
308,254,26600,2,0,L|320:306,1,45
408,357,26800,1,0,0:0:0:0:
425,359,26900,1,0,0:0:0:0:
443,360,27000,1,0,0:0:0:0:
460,362,27100,1,0,0:0:0:0:
477,364,27200,6,0,L|483:307,1,45
491,245,27400,1,0,0:0:0:0:
398,117,27600,1,0,0:0:0:0:
398,117,27700,2,0,B|410:150|410:150|394:173|394:173|403:208,1,90
411,206,28000,2,0,L|307:227,1,90
307,215,28300,1,0,0:0:0:0:
307,215,28400,2,0,L|256:209,1,45
260,353,28600,2,0,L|312:359,1,45
320,288,28800,6,0,L|200:273,1,90
212,283,29100,1,0,0:0:0:0:
200,297,29200,2,0,P|185:329|183:353,1,45
64,332,29400,2,0,P|81:362|85:386,1,45
119,266,29600,2,0,L|103:161,1,90
140,108,29900,1,0,0:0:0:0:
140,108,30000,1,0,0:0:0:0:
140,108,30100,2,0,B|150:45|150:45|108:63,1,90
106,58,30400,6,0,L|61:52,2,45
203,12,30800,1,0,0:0:0:0:
251,113,30900,2,0,B|205:120|205:120|213:168,1,90
217,180,31200,2,0,L|228:82,1,90
143,242,31600,1,0,0:0:0:0:
145,255,31700,1,0,0:0:0:0:
178,283,31800,1,0,0:0:0:0:
176,296,31900,1,0,0:0:0:0:
148,337,32000,6,0,B|188:331|188:331|207:341|207:341|246:336,1,90
320,251,32300,1,0,0:0:0:0:
320,251,32400,2,0,L|368:244,1,45
340,384,32600,2,0,L|384:377,1,45
265,327,32800,2,0,B|237:330|237:330|218:320|218:320|178:326,1,90
160,320,33100,1,0,0:0:0:0:
142,315,33200,2,0,L|150:363,1,45
80,250,33400,2,0,L|83:204,1,45
33,347,33600,5,0,0:0:0:0:
50,344,33700,1,0,0:0:0:0:
67,341,33800,1,0,0:0:0:0:
169,222,34000,1,0,0:0:0:0:
169,222,34100,2,0,B|159:164|159:164|182:143,1,90
198,135,34400,2,0,L|91:120,1,90
50,47,34800,1,0,0:0:0:0:
53,60,34900,1,0,0:0:0:0:
56,73,35000,1,0,0:0:0:0:
59,86,35100,1,0,0:0:0:0:
22,122,35200,6,0,B|63:100|63:100|121:111,1,90
188,49,35500,1,0,0:0:0:0:
231,135,35600,1,0,0:0:0:0:
228,148,35700,1,0,0:0:0:0:
225,161,35800,1,0,0:0:0:0:
222,174,35900,1,0,0:0:0:0:
262,209,36000,2,0,B|187:196|187:196|208:231,1,90
149,282,36400,1,0,0:0:0:0:
134,292,36500,1,0,0:0:0:0:
116,297,36600,1,0,0:0:0:0:
98,297,36700,1,0,0:0:0:0:
61,268,36800,5,0,0:0:0:0:
65,303,36900,1,0,0:0:0:0:
70,338,37000,1,0,0:0:0:0:
219,333,37200,2,0,P|245:332|273:342,1,45
278,345,37400,1,0,0:0:0:0:
292,356,37500,1,0,0:0:0:0:
301,371,37600,2,0,L|310:266,1,90
368,176,37900,6,0,P|401:206|392:250,1,90
383,267,38200,2,0,L|437:260,1,45
419,337,38400,5,0,0:0:0:0:
419,337,38500,2,0,L|480:327,1,45
506,197,38800,2,0,L|443:190,1,45
299,98,39100,1,0,0:0:0:0:
299,98,39200,2,0,P|324:99|364:86,1,45
380,57,39400,1,0,0:0:0:0:
380,57,39500,2,0,L|369:158,1,90
436,193,39800,2,0,L|444:257,1,45
319,218,40000,6,0,B|283:214|283:214|264:229|264:229|225:225,1,90
372,284,40400,2,0,L|367:331,1,45
441,237,40600,2,0,L|436:193,1,45
289,139,40800,1,0,0:0:0:0:
383,23,41000,1,0,0:0:0:0:
383,23,41100,1,0,0:0:0:0:
383,23,41200,2,0,L|379:70,1,45
370,146,41400,1,0,0:0:0:0:
196,111,41600,5,0,0:0:0:0:
193,93,41700,1,0,0:0:0:0:
189,75,41800,1,0,0:0:0:0:
276,11,42000,2,0,L|271:58,1,45
289,139,42200,2,0,L|284:186,1,45
206,229,42400,2,0,B|170:221|170:221|146:234|146:234|113:229,1,90
57,166,42700,1,0,0:0:0:0:
54,155,42800,1,0,0:0:0:0:
52,142,42900,2,0,P|54:114|64:87,1,45
126,30,43100,1,0,0:0:0:0:
137,32,43200,6,0,L|193:40,2,45
254,145,43600,2,0,P|253:122|249:101,1,45
208,220,43800,2,0,P|203:242|202:265,1,45
267,332,44000,2,0,P|317:326|366:320,1,90
444,344,44300,1,0,0:0:0:0:
444,344,44400,2,0,L|456:288,1,45
385,208,44600,2,0,L|394:260,1,45
459,168,44800,6,0,P|477:131|464:82,1,90
400,28,45100,1,0,0:0:0:0:
365,102,45200,2,0,P|339:110|314:112,1,45
267,43,45400,2,0,P|245:35|223:33,1,45
94,47,45600,2,0,B|71:79|71:79|159:57,1,90
135,62,45900,1,0,0:0:0:0:
207,131,46100,1,0,0:0:0:0:
207,131,46200,2,0,L|200:182,1,45
73,218,46400,6,0,B|131:210|131:210|136:251,1,90
280,263,46800,1,0,0:0:0:0:
280,263,46900,2,0,B|222:254|222:254|217:295,1,90
170,354,47200,2,0,P|126:333|85:355,1,90
77,360,47500,1,0,0:0:0:0:
66,374,47600,2,0,L|53:313,1,45
138,220,47800,2,0,L|136:265,1,45
252,365,48000,5,0,0:0:0:0:
278,361,48100,1,0,0:0:0:0:
304,359,48200,1,0,0:0:0:0:
317,146,48400,1,0,0:0:0:0:
289,150,48500,1,0,0:0:0:0:
262,155,48600,1,0,0:0:0:0:
235,158,48700,1,0,0:0:0:0:
210,163,48800,2,0,P|271:176|312:185,1,90
400,239,49100,1,0,0:0:0:0:
400,239,49200,2,0,B|377:235|377:235|347:249,1,45
350,110,49400,2,0,B|372:120|372:120|392:120,1,45
477,150,49600,5,0,0:0:0:0:
473,177,49700,1,0,0:0:0:0:
470,203,49800,1,0,0:0:0:0:
374,38,50000,1,0,0:0:0:0:
374,38,50100,2,0,P|330:28|290:58,1,90
241,126,50400,1,0,0:0:0:0:
232,138,50500,1,0,0:0:0:0:
227,154,50600,2,0,L|238:204,1,45
314,272,50800,1,0,0:0:0:0:
323,284,50900,1,0,0:0:0:0:
328,300,51000,2,0,L|317:350,1,45
234,306,51200,5,0,0:0:0:0:
213,296,51300,1,0,0:0:0:0:
190,292,51400,1,0,0:0:0:0:
167,293,51500,1,0,0:0:0:0:
80,359,51600,5,0,0:0:0:0:
89,324,51700,1,0,0:0:0:0:
83,288,51800,1,0,0:0:0:0:
59,260,51900,1,0,0:0:0:0:
30,237,52000,6,0,L|86:244,1,45
77,82,52200,2,0,L|133:89,1,45
202,219,52400,2,0,L|258:226,1,45
267,66,52600,2,0,L|323:73,1,45
423,177,52800,5,0,0:0:0:0:
369,320,53000,1,0,0:0:0:0:
263,225,53200,1,0,0:0:0:0:
263,225,53300,1,0,0:0:0:0:
322,80,53500,1,0,0:0:0:0:
322,80,53600,2,0,B|347:103|347:103|338:186,1,107.999996704102
282,353,53900,1,0,0:0:0:0:
282,353,54000,2,0,L|272:269,1,53.9999983520508
176,250,54200,2,0,L|85:241,1,53.9999983520508
60,293,54400,5,0,0:0:0:0:
27,218,54500,2,0,B|17:180|17:180|33:152|33:152|11:83,1,107.999996704102
81,45,54800,2,0,P|114:49|143:53,1,53.9999983520508
122,243,55000,2,0,P|154:247|183:251,1,53.9999983520508
251,153,55200,2,0,B|211:156|211:156|192:136|192:136|148:142,1,107.999996704102
127,119,55500,1,0,0:0:0:0:
127,119,55600,2,0,P|134:155|138:181,1,53.9999983520508
275,269,55800,2,0,L|264:331,1,53.9999983520508
364,197,56000,5,0,0:0:0:0:
364,197,56100,2,0,P|407:192|434:189,1,53.9999983520508
344,74,56400,1,0,0:0:0:0:
344,74,56500,1,0,0:0:0:0:
225,133,56700,1,0,0:0:0:0:
225,133,56800,2,0,B|304:144|304:144|279:116,1,107.999996704102
156,91,57100,1,0,0:0:0:0:
156,91,57200,2,0,L|145:149,1,53.9999983520508
233,54,57400,2,0,L|219:-3,1,53.9999983520508
299,100,57600,5,0,0:0:0:0:
292,110,57700,2,0,L|374:97,1,53.9999983520508
467,52,58000,1,0,0:0:0:0:
467,52,58100,2,0,B|438:39|438:39|432:124,1,107.999996704102
374,228,58400,1,0,0:0:0:0:
374,228,58500,2,0,P|367:192|361:157,1,53.9999983520508
292,110,58700,1,0,0:0:0:0:
292,110,58800,2,0,L|225:119,1,53.9999983520508
447,202,59000,2,0,L|502:210,1,53.9999983520508
368,60,59200,5,0,0:0:0:0:
300,248,59400,1,0,0:0:0:0:
137,179,59600,1,0,0:0:0:0:
137,179,59700,2,0,L|204:188,1,53.9999983520508
208,199,59900,1,0,0:0:0:0:
218,217,60000,2,0,B|209:256|209:256|228:282|228:282|219:323,1,107.999996704102
136,375,60300,1,0,0:0:0:0:
136,375,60400,2,0,L|132:319,1,53.9999983520508
75,253,60600,2,0,L|8:244,1,53.9999983520508
137,179,60800,5,0,0:0:0:0:
137,179,60900,2,0,B|148:142|148:142|128:122|128:122|136:82,1,107.999996704102
228,24,61200,2,0,B|245:47|245:47|235:87,1,53.9999983520508
215,151,61400,1,0,0:0:0:0:
137,179,61500,2,0,B|57:169|57:169|83:191,1,107.999996704102
202,236,61800,2,0,B|282:226|282:226|256:248,1,107.999996704102
145,304,62100,1,0,0:0:0:0:
145,304,62200,2,0,L|141:358,1,53.9999983520508
64,260,62400,6,0,B|74:181|74:181|37:197,1,107.999996704102
155,151,62800,1,0,0:0:0:0:
155,151,62900,2,0,B|145:72|145:72|182:88,1,107.999996704102
243,112,63200,2,0,P|276:110|306:101,1,53.9999983520508
357,179,63400,1,0,0:0:0:0:
357,179,63500,2,0,L|350:240,1,53.9999983520508
438,127,63700,1,0,0:0:0:0:
438,127,63800,2,0,P|463:88|426:29,1,107.999996704102
357,179,64100,5,0,0:0:0:0:
357,179,64200,2,0,L|370:294,1,107.999996704102
450,357,64500,1,0,0:0:0:0:
450,357,64600,2,0,B|448:326|448:326|470:301,1,53.9999983520508
343,366,64800,1,0,0:0:0:0:
343,366,64900,2,0,L|282:359,1,53.9999983520508
187,280,65100,1,0,0:0:0:0:
187,280,65200,2,0,P|182:248|169:212,1,53.9999983520508
279,137,65400,1,0,0:0:0:0:
300,134,65500,1,0,0:0:0:0:
321,131,65600,5,0,0:0:0:0:
300,255,65800,1,0,0:0:0:0:
207,90,66000,1,0,0:0:0:0:
207,90,66100,1,0,0:0:0:0:
383,13,66300,1,0,0:0:0:0:
383,13,66400,2,0,B|415:38|415:38|402:123,1,107.999996704102
332,142,66700,1,0,0:0:0:0:
332,142,66800,2,0,L|273:136,1,53.9999983520508
440,189,67000,2,0,L|498:185,1,53.9999983520508
364,219,67200,5,0,0:0:0:0:
332,142,67300,2,0,P|316:88|355:43,1,107.999996704102
363,40,67600,2,0,L|299:46,1,53.9999983520508
332,142,67800,2,0,L|268:148,1,53.9999983520508
295,252,68000,2,0,B|212:260|212:260|244:292,1,107.999996704102
378,344,68400,1,0,0:0:0:0:
378,344,68500,2,0,B|460:349|460:349|431:367,1,107.999996704102
435,340,68800,6,0,L|429:284,1,53.9999983520508
420,210,69000,1,0,0:0:0:0:
279,119,69200,2,0,L|272:189,1,53.9999983520508
266,244,69400,2,0,L|259:314,1,53.9999983520508
323,355,69600,2,0,B|369:350|369:350|390:368|390:368|432:363,1,107.999996704102
194,335,69900,1,0,0:0:0:0:
194,335,70000,2,0,L|138:329,1,53.9999983520508
339,254,70200,2,0,L|394:249,1,53.9999983520508
197,134,70400,5,0,0:0:0:0:
197,134,70500,2,0,L|139:129,1,53.9999983520508
291,23,70800,1,0,0:0:0:0:
340,88,70900,2,0,B|332:129|332:129|346:147|346:147|336:193,1,107.999996704102
255,281,71200,1,0,0:0:0:0:
255,281,71300,2,0,L|244:212,1,53.9999983520508
134,151,71500,1,0,0:0:0:0:
134,151,71600,2,0,L|187:154,1,53.9999983520508
339,87,71800,2,0,L|281:97,1,53.9999983520508
392,23,72000,5,0,0:0:0:0:
336,189,72200,1,0,0:0:0:0:
203,74,72400,1,0,0:0:0:0:
203,74,72500,1,0,0:0:0:0:
429,141,72700,1,0,0:0:0:0:
446,153,72800,2,0,L|428:273,1,107.999996704102
343,362,73100,1,0,0:0:0:0:
343,362,73200,2,0,L|331:293,1,53.9999983520508
258,244,73400,2,0,L|195:240,1,53.9999983520508
122,279,73600,5,0,0:0:0:0:
166,363,73700,2,0,B|209:358|209:358|227:374|227:374|274:369,1,107.999996704102
258,244,74000,2,0,L|250:297,1,53.9999983520508
122,279,74200,1,0,0:0:0:0:
122,279,74300,2,0,B|114:240|114:240|130:216|130:216|121:169,1,107.999996704102
217,66,74600,2,0,L|212:123,1,53.9999983520508
212,138,74800,1,0,0:0:0:0:
33,107,74900,2,0,P|83:100|141:93,1,107.999996704102
289,149,75200,6,0,B|213:139|213:139|229:168,1,107.999996704102
366,98,75600,1,0,0:0:0:0:
366,98,75700,2,0,L|423:91,1,53.9999983520508
434,89,75900,1,0,0:0:0:0:
362,225,76000,2,0,B|374:199|374:199|362:165,1,53.9999983520508
285,17,76200,1,0,0:0:0:0:
285,17,76300,2,0,B|295:83,1,53.9999983520508
274,251,76600,2,0,B|236:242|236:242|211:263|211:263|164:253,1,107.999996704102
104,174,77000,6,0,L|171:163,1,53.9999983520508
341,101,77200,1,0,0:0:0:0:
341,101,77300,2,0,L|282:92,1,53.9999983520508
270,273,77500,1,0,0:0:0:0:
270,273,77600,2,0,L|265:331,1,53.9999983520508
369,247,77800,1,0,0:0:0:0:
396,213,77900,1,0,0:0:0:0:
401,166,78000,1,0,0:0:0:0:
380,124,78100,1,0,0:0:0:0:
341,101,78200,2,0,L|282:92,1,53.9999983520508
340,334,78400,6,0,B|377:329|377:329|393:338|393:338|437:333,1,90
272,274,78800,2,0,L|220:268,1,45
145,357,79100,1,0,0:0:0:0:
70,230,79200,2,0,L|158:215,1,90
169,196,79500,1,0,0:0:0:0:
169,196,79600,2,0,L|174:148,2,45
82,56,80000,6,0,B|94:130|94:130|112:113,1,90
232,75,80400,2,0,L|281:84,1,45
387,192,80700,1,0,0:0:0:0:
387,192,80800,2,0,B|355:194|355:194|343:214|343:214|308:218,1,90
292,209,81100,1,0,0:0:0:0:
275,202,81200,2,0,L|283:246,1,45
379,365,81500,1,0,0:0:0:0:
379,365,81600,6,0,B|391:299|391:299|369:277,1,90
254,342,82000,2,0,L|307:347,1,45
374,282,82200,2,0,L|419:278,1,45
272,205,82400,2,0,P|218:213|174:221,1,90
160,247,82700,1,0,0:0:0:0:
160,247,82800,2,0,L|154:202,1,45
259,297,83000,2,0,L|253:344,1,45
362,195,83200,6,0,B|372:126|372:126|336:144,1,90
253,341,83600,1,0,0:0:0:0:
253,341,83700,1,0,0:0:0:0:
133,201,83900,1,0,0:0:0:0:
133,201,84000,2,0,L|75:196,1,45
121,128,84200,2,0,L|63:123,1,45
238,126,84400,2,0,L|296:121,1,45
248,53,84600,2,0,L|306:48,1,45
446,203,84800,6,0,B|409:198|409:198|393:207|393:207|349:202,1,90
248,53,85200,2,0,L|306:48,1,45
441,69,85500,1,0,0:0:0:0:
374,15,85600,2,0,L|362:114,1,90
358,129,85900,1,0,0:0:0:0:
358,129,86000,2,0,L|296:123,1,45
238,66,86200,2,0,L|176:60,1,45
83,159,86400,6,0,B|153:145|153:145|136:182,1,90
196,343,86800,2,0,L|202:287,1,45
370,212,87100,1,0,0:0:0:0:
370,212,87200,6,0,B|300:198|300:198|317:235,1,90
386,282,87500,1,0,0:0:0:0:
386,282,87600,2,0,L|447:273,1,45
400,140,87900,1,0,0:0:0:0:
400,140,88000,6,0,L|340:128,1,45
280,114,88200,1,0,0:0:0:0:
241,252,88400,1,0,0:0:0:0:
243,265,88500,1,0,0:0:0:0:
269,289,88600,1,0,0:0:0:0:
267,302,88700,1,0,0:0:0:0:
251,337,88800,2,0,B|215:340|215:340|204:356|204:356|164:360,1,90
42,304,89100,1,0,0:0:0:0:
42,304,89200,2,0,L|104:308,1,45
170,155,89500,1,0,0:0:0:0:
170,155,89600,6,0,L|160:251,1,90
264,177,90000,1,0,0:0:0:0:
269,159,90100,1,0,0:0:0:0:
269,141,90200,1,0,0:0:0:0:
263,123,90300,1,0,0:0:0:0:
199,56,90400,5,0,0:0:0:0:
234,49,90500,1,0,0:0:0:0:
269,43,90600,1,0,0:0:0:0:
304,37,90700,1,0,0:0:0:0:
377,74,90800,5,0,0:0:0:0:
306,61,90900,1,0,0:0:0:0:
234,49,91000,1,0,0:0:0:0:
163,34,91100,1,0,0:0:0:0:
105,77,91200,6,0,P|81:117|94:168,1,90
231,215,91600,1,0,0:0:0:0:
129,321,91800,1,0,0:0:0:0:
139,231,92000,2,0,P|133:286|128:326,1,90
197,373,92300,1,0,0:0:0:0:
208,366,92400,2,0,B|247:348|247:348|294:357,1,90
338,237,92800,5,0,0:0:0:0:
347,220,92900,1,0,0:0:0:0:
351,202,93000,1,0,0:0:0:0:
349,183,93100,1,0,0:0:0:0:
278,74,93200,1,0,0:0:0:0:
255,113,93300,1,0,0:0:0:0:
252,157,93400,1,0,0:0:0:0:
271,197,93500,1,0,0:0:0:0:
324,258,93600,6,0,L|440:245,1,90
464,315,93900,1,0,0:0:0:0:
464,315,94000,2,0,B|483:336|483:336|495:262,1,90
504,113,94300,1,0,0:0:0:0:
493,117,94400,6,0,P|463:145|476:197,1,90
351,337,94800,2,0,P|358:294|328:264,1,90
287,89,95200,1,0,0:0:0:0:
275,216,95400,2,0,L|280:161,1,45
205,55,95600,2,0,B|184:98|184:98|205:149,1,90
305,16,96000,5,0,0:0:0:0:
291,15,96100,1,0,0:0:0:0:
277,14,96200,1,0,0:0:0:0:
263,12,96300,1,0,0:0:0:0:
277,100,96400,1,0,0:0:0:0:
321,108,96500,1,0,0:0:0:0:
364,94,96600,1,0,0:0:0:0:
392,58,96700,1,0,0:0:0:0:
404,14,96800,2,0,L|453:22,1,45
489,122,97000,1,0,0:0:0:0:
485,136,97100,1,0,0:0:0:0:
483,149,97200,2,0,B|447:156|447:156|435:177|435:177|395:184,1,90
352,256,97500,1,0,0:0:0:0:
352,256,97600,6,0,L|360:354,1,90
208,200,98000,2,0,P|195:159|223:114,1,90
293,52,98300,1,0,0:0:0:0:
293,52,98400,2,0,L|304:168,1,90
304,162,98700,1,0,0:0:0:0:
222,272,98800,2,0,B|151:266|151:266|168:289,1,90
329,357,99200,5,0,0:0:0:0:
345,348,99300,1,0,0:0:0:0:
363,344,99400,1,0,0:0:0:0:
381,344,99500,1,0,0:0:0:0:
461,290,99600,1,0,0:0:0:0:
425,258,99700,1,0,0:0:0:0:
382,247,99800,1,0,0:0:0:0:
338,255,99900,1,0,0:0:0:0:
338,255,100000,2,0,B|319:207|319:207|331:151,1,101.25
336,145,100300,1,0,0:0:0:0:
410,105,100400,2,0,L|465:107,1,45
335,47,100700,1,0,0:0:0:0:
329,38,100800,6,0,L|219:52,1,90
84,127,101200,2,0,B|106:99|106:99|176:121,1,90
178,132,101500,1,0,0:0:0:0:
187,157,101600,2,0,P|180:220|177:257,1,90
284,344,102000,1,0,0:0:0:0:
282,326,102100,1,0,0:0:0:0:
279,308,102200,1,0,0:0:0:0:
326,184,102400,5,0,0:0:0:0:
348,188,102500,1,0,0:0:0:0:
369,192,102600,1,0,0:0:0:0:
390,196,102700,1,0,0:0:0:0:
472,265,102800,5,0,0:0:0:0:
478,229,102900,1,0,0:0:0:0:
482,193,103000,1,0,0:0:0:0:
488,157,103100,1,0,0:0:0:0:
489,36,103200,5,0,0:0:0:0:
443,38,103300,1,0,0:0:0:0:
406,64,103400,1,0,0:0:0:0:
392,107,103500,1,0,0:0:0:0:
326,184,103600,5,0,0:0:0:0:
280,188,103700,1,0,0:0:0:0:
236,177,103800,1,0,0:0:0:0:
206,142,103900,1,0,0:0:0:0:
89,65,104000,6,0,B|106:147|106:147|128:121,1,107.999996704102
231,59,104400,2,0,L|291:66,1,53.9999983520508
415,182,104700,1,0,0:0:0:0:
415,182,104800,2,0,B|366:187|366:187|359:207|359:207|314:215,1,107.999996704102
190,270,105100,1,0,0:0:0:0:
190,270,105200,2,0,L|258:277,1,53.9999983520508
322,318,105400,2,0,P|333:353|330:381,1,53.9999983520508
409,289,105600,5,0,0:0:0:0:
409,289,105700,2,0,L|416:161,1,107.999996704102
400,151,106000,2,0,B|374:138|374:138|332:144,1,53.9999983520508
233,90,106200,2,0,B|257:93|257:93|283:80,1,53.9999983520508
356,5,106400,2,0,B|345:46|345:46|363:71|363:71|350:121,1,107.999996704102
276,166,106700,1,0,0:0:0:0:
276,166,106800,2,0,L|282:221,1,53.9999983520508
190,120,107100,1,0,0:0:0:0:
190,120,107200,6,0,B|198:38|198:38|153:63,1,107.999996704102
108,175,107600,1,0,0:0:0:0:
108,175,107700,1,0,0:0:0:0:
57,47,107900,1,0,0:0:0:0:
57,47,108000,2,0,L|170:59,1,107.999996704102
252,66,108300,1,0,0:0:0:0:
252,66,108400,2,0,P|259:39|257:6,1,53.9999983520508
200,131,108600,2,0,L|207:196,1,53.9999983520508
119,213,108800,5,0,0:0:0:0:
112,198,108900,1,0,0:0:0:0:
109,182,109000,1,0,0:0:0:0:
110,165,109100,1,0,0:0:0:0:
200,131,109200,1,0,0:0:0:0:
216,171,109300,1,0,0:0:0:0:
218,214,109400,1,0,0:0:0:0:
201,253,109500,1,0,0:0:0:0:
132,300,109600,2,0,B|55:291|55:291|81:314,1,107.999996704102
208,340,109900,1,0,0:0:0:0:
208,340,110000,2,0,L|265:331,1,53.9999983520508
322,370,110200,1,0,0:0:0:0:
356,195,110400,5,0,0:0:0:0:
201,253,110600,1,0,0:0:0:0:
343,128,110800,2,0,L|353:186,1,53.9999983520508
363,305,111100,1,0,0:0:0:0:
363,305,111200,2,0,P|310:291|266:320,1,107.999996704102
199,356,111500,1,0,0:0:0:0:
199,356,111600,2,0,L|189:291,1,53.9999983520508
251,189,111800,2,0,L|244:243,1,53.9999983520508
128,244,112000,5,0,0:0:0:0:
128,244,112100,2,0,L|74:242,1,53.9999983520508
214,119,112300,1,0,0:0:0:0:
214,119,112400,2,0,P|242:110|274:111,1,53.9999983520508
327,169,112600,1,0,0:0:0:0:
340,184,112700,2,0,L|356:76,1,107.999996704102
286,8,113000,1,0,0:0:0:0:
165,65,113200,1,0,0:0:0:0:
165,65,113300,2,0,P|139:109|163:166,1,107.999996704102
262,254,113600,6,0,B|305:245|305:245|323:259|323:259|366:251,1,107.999996704102
447,346,114000,1,0,0:0:0:0:
447,346,114100,1,0,0:0:0:0:
435,123,114300,1,0,0:0:0:0:
435,123,114400,2,0,B|352:115|352:115|370:89,1,107.999996704102
489,64,114700,1,0,0:0:0:0:
497,76,114800,2,0,P|510:109|511:138,1,53.9999983520508
425,253,115000,2,0,L|433:143,1,107.999996704102
319,42,115300,5,0,0:0:0:0:
319,42,115400,2,0,P|293:88|311:138,1,107.999996704102
274,255,115700,1,0,0:0:0:0:
274,255,115800,2,0,L|215:250,1,53.9999983520508
141,175,116000,1,0,0:0:0:0:
141,175,116100,2,0,L|135:114,1,53.9999983520508
71,250,116300,1,0,0:0:0:0:
71,250,116400,2,0,B|58:274|58:274|62:305,1,53.9999983520508
155,364,116600,1,0,0:0:0:0:
171,362,116700,1,0,0:0:0:0:
187,359,116800,5,0,0:0:0:0:
235,144,117000,1,0,0:0:0:0:
345,297,117200,1,0,0:0:0:0:
345,297,117300,1,0,0:0:0:0:
237,126,117500,1,0,0:0:0:0:
235,144,117600,2,0,L|228:256,1,107.999996704102
308,360,117900,1,0,0:0:0:0:
308,360,118000,2,0,P|345:370|375:370,1,53.9999983520508
415,260,118200,2,0,P|413:222|405:192,1,53.9999983520508
365,142,118400,5,0,0:0:0:0:
310,203,118500,2,0,B|266:199|266:199|247:204|247:204|203:200,1,107.999996704102
150,265,118800,2,0,P|143:297|149:329,1,53.9999983520508
264,359,119000,1,0,0:0:0:0:
273,352,119100,1,0,0:0:0:0:
280,347,119200,2,0,B|296:311|286:269|286:269|252:281,1,107.999996704102
194,186,119600,1,0,0:0:0:0:
194,186,119700,2,0,B|177:150|187:108|187:108|221:120,1,107.999996704102
303,166,120000,6,0,L|360:158,1,53.9999983520508
428,147,120200,1,0,0:0:0:0:
257,36,120400,2,0,P|213:31|186:29,1,53.9999983520508
93,161,120700,1,0,0:0:0:0:
93,161,120800,2,0,B|85:199|85:199|98:223|98:223|89:265,1,107.999996704102
147,309,121100,1,0,0:0:0:0:
147,309,121200,2,0,P|157:334|155:361,1,53.9999983520508
53,374,121400,2,0,P|43:349|46:323,1,53.9999983520508
245,259,121600,5,0,0:0:0:0:
248,269,121700,1,0,0:0:0:0:
248,279,121800,1,0,0:0:0:0:
246,289,121900,1,0,0:0:0:0:
191,184,122000,1,0,0:0:0:0:
233,189,122100,1,0,0:0:0:0:
275,195,122200,1,0,0:0:0:0:
318,199,122300,1,0,0:0:0:0:
385,156,122400,2,0,B|395:75|395:75|359:95,1,107.999996704102
320,308,122700,1,0,0:0:0:0:
320,308,122800,2,0,L|328:370,1,53.9999983520508
181,269,123000,2,0,P|149:266|108:262,1,53.9999983520508
246,344,123200,5,0,0:0:0:0:
208,107,123400,1,0,0:0:0:0:
48,254,123600,1,0,0:0:0:0:
48,254,123700,1,0,0:0:0:0:
255,236,123900,1,0,0:0:0:0:
255,236,124000,2,0,L|243:355,1,107.999996704102
329,172,124300,1,0,0:0:0:0:
329,172,124400,2,0,P|359:168|402:169,1,53.9999983520508
208,107,124600,2,0,L|155:100,1,53.9999983520508
142,99,124800,5,0,0:0:0:0:
290,0,124900,2,0,P|312:52|280:107,1,107.999996704102
180,182,125200,2,0,L|186:250,1,53.9999983520508
293,311,125400,1,0,0:0:0:0:
291,324,125500,2,0,B|333:318|333:318|356:334|356:334|405:326,1,107.999996704102
414,346,125800,2,0,L|421:273,1,53.9999983520508
459,132,126000,1,0,0:0:0:0:
459,132,126100,2,0,P|488:167|472:232,1,107.999996704102
382,108,126400,6,0,B|371:29|371:29|398:51,1,107.999996704102
356,181,126800,1,0,0:0:0:0:
334,180,126900,1,0,0:0:0:0:
277,115,127000,1,0,0:0:0:0:
255,114,127100,1,0,0:0:0:0:
198,171,127200,2,0,P|175:214|199:272,1,107.999996704102
263,322,127500,1,0,0:0:0:0:
263,322,127600,2,0,L|257:387,1,53.9999983520508
156,348,127800,2,0,L|94:343,1,53.9999983520508
298,242,128000,5,0,0:0:0:0:
298,242,128100,2,0,L|361:238,1,53.9999983520508
259,71,128400,1,0,0:0:0:0:
253,70,128500,1,0,0:0:0:0:
247,69,128600,1,0,0:0:0:0:
241,68,128700,1,0,0:0:0:0:
209,74,128800,1,0,0:0:0:0:
176,101,128900,1,0,0:0:0:0:
161,141,129000,1,0,0:0:0:0:
172,182,129100,1,0,0:0:0:0:
217,235,129200,1,0,0:0:0:0:
287,239,129300,1,0,0:0:0:0:
349,206,129400,1,0,0:0:0:0:
379,142,129500,1,0,0:0:0:0:
369,72,129600,5,0,0:0:0:0:
