osu file format v14

[General]
AudioFilename: audio.mp3
AudioLeadIn: 0
PreviewTime: 6830
Countdown: 0
SampleSet: Soft
StackLeniency: 0.4
Mode: 0
LetterboxInBreaks: 0
WidescreenStoryboard: 1

[Editor]
DistanceSpacing: 0.8
BeatDivisor: 8
GridSize: 8
TimelineZoom: 1

[Metadata]
Title:Sandglass
TitleUnicode:Sandglass
Artist:M2U
ArtistUnicode:M2U
Creator:Hailie
Version:ylvy's Insane
Source:Deemo
Tags:Swell ylvy
BeatmapID:1751352
BeatmapSetID:836286

[Difficulty]
HPDrainRate:5
CircleSize:4.5
OverallDifficulty:7
ApproachRate:8.8
SliderMultiplier:1.2
SliderTickRate:1

[Events]
//Background and Video events
0,0,"bg.jpg",0,0
//Break Periods
//Storyboard Layer 0 (Background)
//Storyboard Layer 1 (Fail)
//Storyboard Layer 2 (Pass)
//Storyboard Layer 3 (Foreground)
//Storyboard Sound Samples

[TimingPoints]
830,500,4,2,0,20,1,0
830,-153.846153846153,4,2,0,20,0,0
6830,-153.846153846154,4,2,0,10,0,0
8830,-100,4,2,0,40,0,0
12580,-222.22222222222,4,2,0,40,0,0
13330,-66.6666666666667,4,2,0,40,0,0
14455,-100,4,2,0,40,0,0
14830,-100,4,2,0,30,0,0
16580,-222.222222222221,4,2,0,30,0,0
16955,-222.222222222221,4,2,0,20,0,0
17080,-133.333333333333,4,2,0,20,0,0
18830,-133.333333333333,4,2,0,30,0,0
27830,-117.647058823529,4,2,0,30,0,0
30830,-117.647058823529,4,2,0,40,0,0
35330,-117.647058823529,4,2,0,30,0,0
36830,-117.647058823529,4,2,0,40,0,0
38830,-66.6666666666667,4,2,0,50,0,0
49580,-133.333333333333,4,2,0,50,0,0
50330,-133.333333333333,4,2,0,40,0,0
53705,-133.333333333333,4,2,0,30,0,0
54830,-105.263157894737,4,2,0,30,0,0
55330,-79.9999999999999,4,2,0,40,0,0
55830,-79.9999999999999,4,2,0,50,0,0
56330,-79.9999999999999,4,2,0,60,0,0
62455,-133.333333333333,4,2,0,60,0,0
62830,-79.9999999999999,4,2,0,60,0,0
65830,-111.111111111111,4,2,0,60,0,0
66830,-83.3333333333333,4,2,0,60,0,0
67330,-100,4,2,0,60,0,0
67830,-66.6666666666667,4,2,0,60,0,0
68330,-76.9230769230769,4,2,0,60,0,0
71830,-71.4285714285714,4,2,0,60,0,0
76830,-111.111111111111,4,2,0,60,0,0
77830,-90.9090909090909,4,2,0,60,0,0
79330,-105.263157894737,4,2,0,60,0,0
79830,-285.714285714284,4,2,0,60,0,0
80580,-285.714285714284,4,2,0,60,0,0
80830,-133.333333333333,4,2,0,60,0,0
81330,-133.333333333333,4,2,0,50,0,0
84830,-133.333333333333,4,2,0,40,0,0
85330,512.820512820513,4,2,0,40,1,0
85586,-158.730158730159,4,2,0,40,0,0
85842,545.455555555556,4,2,0,40,1,0
86387,541.76072234763,4,2,0,40,1,0
86387,-181.818181818181,4,2,0,40,0,0
86657,538.116591928251,4,2,0,40,1,0
86657,-181.818181818181,4,2,0,40,0,0
87464,570.884871550904,4,2,0,40,1,0
88023,582.52427184466,4,2,0,40,1,0
88023,-117.647058823529,4,2,0,40,0,0
88605,631.578947368421,4,2,0,40,1,0
89236,659.340659340659,4,2,0,40,1,0
89236,-125,4,2,0,40,0,0
89895,564.705882352941,4,2,0,40,1,0
90072,-100,4,2,0,50,0,0
90459,402.684563758389,4,2,0,50,1,0
90660,423.280423280423,4,2,0,50,1,0
90660,-100,4,2,0,60,0,0
91084,468.75,4,2,0,60,1,0
91553,621.761658031088,4,2,0,60,1,0
91553,-62.5,4,2,0,60,0,0
94350,-100,4,2,0,50,0,0
94661,681.818181818182,4,2,0,30,1,0
94661,-133.333333333333,4,2,0,30,0,0
95342,625,4,2,0,30,1,0
95967,645.161290322581,4,2,0,30,1,0
96612,638.297872340426,4,2,0,30,1,0
97250,625,4,2,0,30,1,0
97875,618.556701030928,4,2,0,30,1,0
99112,659.340659340659,4,2,0,30,1,0
99771,616.34074168798,4,2,0,30,1,0
100079,670.391061452514,4,2,0,30,1,0
100079,-83.3333333333333,4,2,0,30,0,0
100414,697.674418604651,4,2,0,40,1,0
100414,-76.9230769230769,4,2,0,40,0,0
100762,705.882352941176,4,2,0,30,1,0
100762,-55.5555555555556,4,2,0,40,0,0
101114,961.538461538462,4,2,0,30,1,0
101114,-76.9230769230769,4,2,0,30,0,0
101594,1010.49631578947,4,2,0,30,1,0
102102,1764.70588235294,4,2,0,20,1,0
102102,-100,4,2,0,20,0,0
102984,2105.26315789474,4,2,0,20,1,0
102984,-153.846153846153,4,2,0,20,0,0
105091,2033.89830508475,4,2,0,20,1,0
105091,-166.666666666667,4,2,0,20,0,0
106107,718.562874251497,4,2,0,10,1,0
106107,-100,4,2,0,10,0,0

[Colours]
Combo1 : 248,185,255
Combo2 : 91,255,133
Combo3 : 225,225,225
Combo4 : 255,251,174

[HitObjects]
486,7,830,6,0,L|474:69,1,58.4999973220826,2|0,0:0|3:0,0:0:0:0:
414,102,1330,1,2,0:0:0:0:
359,53,1830,1,2,0:0:0:0:
290,82,2205,5,2,3:2:0:0:
290,82,2330,2,0,L|216:66,1,68.2499968757631,2|2,0:0|0:0,0:0:0:0:
205,81,2830,5,2,3:2:0:0:
264,110,3080,1,2,0:0:0:0:
282,173,3330,1,2,3:2:0:0:
257,238,3580,1,2,0:0:0:0:
257,238,3767,5,2,0:0:0:0:
257,238,3830,1,0,3:2:0:0:
322,246,4080,1,2,0:0:0:0:
387,254,4330,1,2,3:2:0:0:
452,263,4580,1,2,0:0:0:0:
505,327,4830,6,0,P|475:330|460:343,1,38.9999982147218,4|0,3:0|0:0,0:0:0:0:
327,370,5330,2,0,L|407:383,1,77.9999964294435,2|2,0:0|0:0,0:0:0:0:
414,372,6330,2,0,L|337:359,1,77.9999964294435,2|2,3:2|0:0,0:0:0:0:
337,359,8080,2,0,P|299:332|246:348,1,97.4999955368044
190,384,8830,5,6,0:0:0:0:
58,311,9205,1,2,0:0:0:0:
58,311,9330,2,0,L|-16:297,1,60,2|2,3:2|0:3,0:0:0:0:
171,282,9830,6,0,L|220:238,1,60,4|2,0:3|0:0,0:0:0:0:
208,137,10205,1,2,0:0:0:0:
215,186,10330,2,0,L|226:250,1,60,2|2,3:2|0:3,0:0:0:0:
399,336,10830,6,0,L|409:258,1,60,4|2,0:3|0:0,0:0:0:0:
352,214,11205,1,2,0:0:0:0:
400,233,11330,2,0,L|463:211,1,60,2|2,3:2|0:3,0:0:0:0:
510,134,11830,6,0,L|434:143,1,60,4|2,0:3|3:2,0:0:0:0:
288,0,12330,2,0,L|360:9,1,60,2|6,3:2|3:3,0:0:0:0:
197,143,12830,2,0,P|181:155|152:148,1,40.4999987640381,4|2,0:3|0:0,0:0:0:0:
24,49,13330,6,0,P|58:45|115:77,1,90.0000034332277,2|2,3:2|0:3,0:0:0:0:
1,196,13830,1,6,3:0:0:0:
1,196,13955,1,0,0:0:0:0:
88,154,14330,1,6,3:0:0:0:
88,154,14455,2,0,L|82:196,1,30,0|6,0:0|3:0,0:0:0:0:
98,212,14830,5,2,0:0:0:0:
110,224,16580,2,0,L|160:219,1,40.4999987640381,2|2,3:0|0:0,0:0:0:0:
165,233,17080,1,2,0:0:0:0:
165,233,17205,1,2,0:0:0:0:
165,233,17330,2,0,L|162:263,2,22.5000008583069,2|2|2,0:0|0:0|0:0,0:0:0:0:
212,245,17705,1,2,0:0:0:0:
250,278,17830,2,0,L|281:263,1,22.5000008583069,2|2,3:2|0:0,0:0:0:0:
299,317,18080,2,0,L|330:319,1,22.5000008583069,2|2,3:2|0:0,0:0:0:0:
337,370,18330,1,2,3:2:0:0:
431,384,18830,5,6,0:0:0:0:
492,350,19330,2,0,P|507:329|514:295,1,45.0000017166138,2|2,0:0|0:0,0:0:0:0:
489,200,19830,2,0,L|498:289,1,90.0000034332277,2|2,0:0|0:0,0:0:0:0:
416,238,20767,5,0,0:0:0:0:
411,231,20830,2,0,P|387:222|367:221,1,45.0000017166138,2|0,3:2|0:0,0:0:0:0:
238,248,21330,1,2,0:0:0:0:
302,268,21580,1,2,0:0:0:0:
364,238,21830,2,0,L|305:229,1,45.0000017166138,2|2,0:0|3:2,0:0:0:0:
376,293,22830,6,0,P|420:293|457:269,1,90.0000034332277,2|2,3:2|0:0,0:0:0:0:
464,192,23580,1,2,0:0:0:0:
356,61,23830,2,0,L|345:16,1,45.0000017166138,2|2,3:2|0:0,0:0:0:0:
383,50,24705,6,0,L|383:62,1,11.2500004291535
384,72,24830,2,0,P|380:101|366:132,1,45.0000017166138,2|0,3:2|0:0,0:0:0:0:
306,135,25330,1,2,3:2:0:0:
196,104,25580,1,2,0:0:0:0:
260,75,25830,2,0,L|273:128,1,45.0000017166138,2|2,3:0|0:0,0:0:0:0:
123,126,26330,2,0,L|128:81,1,45.0000017166138,2|2,3:2|0:0,0:0:0:0:
179,33,26705,1,2,0:0:0:0:
140,70,26830,6,0,P|93:73|55:44,1,90.0000034332277,2|2,3:2|0:0,0:0:0:0:
126,47,27580,1,2,0:0:0:0:
175,137,27767,1,0,0:0:0:0:
176,150,27830,2,0,P|150:167|115:177,1,51.0000009727478,2|6,3:0|3:0,0:0:0:0:
0,111,28330,2,0,P|34:104|80:122,1,76.5000014591217,2|0,3:2|0:0,0:0:0:0:
87,219,28830,6,0,P|97:185|162:205,1,102.000001945496,2|2,3:0|3:2,0:0:0:0:
242,179,29580,1,2,0:0:0:0:
172,199,29830,2,0,B|179:230|196:248,1,51.0000009727478,6|2,3:0|0:0,0:0:0:0:
317,93,30330,2,0,B|305:110|304:141,1,51.0000009727478,4|2,1:3|0:0,0:0:0:0:
403,78,30705,6,0,L|406:54,1,12.750000243187
387,44,30830,1,6,1:2:0:0:
413,168,31080,1,2,0:0:0:0:
512,240,31330,2,0,L|439:235,1,51.0000009727478,2|2,1:0|0:0,0:0:0:0:
323,332,31830,2,0,P|353:312|381:308,1,51.0000009727478,2|0,1:2|0:0,0:0:0:0:
230,374,32330,2,0,P|185:370|161:342,1,76.5000014591217,2|0,1:0|0:0,0:0:0:0:
169,353,32767,5,0,0:0:0:0:
169,353,32830,2,0,P|153:373|124:386,1,51.0000009727478,2|2,3:0|0:0,0:0:0:0:
58,295,33330,2,0,L|112:304,1,51.0000009727478,2|2,0:0|0:0,0:0:0:0:
29,348,33830,2,0,P|33:311|1:340,1,102.000001945496,2|2,0:0|3:2,0:0:0:0:
69,282,34580,1,2,3:0:0:0:
45,168,34830,6,0,P|60:200|77:216,1,51.0000009727478,2|0,3:0|0:0,0:0:0:0:
113,217,35330,1,2,0:0:0:0:
215,147,35830,6,0,P|227:120|257:98,1,51.0000009727478,2|2,3:2|0:0,0:0:0:0:
324,72,36330,2,0,P|281:77|260:66,1,51.0000009727478,2|2,0:0|3:2,0:0:0:0:
87,8,36830,6,0,P|120:1|185:31,1,102.000001945496,2|2,1:2|3:2,0:0:0:0:
121,158,37580,1,2,0:0:0:0:
22,185,37830,2,0,P|13:155|14:125,1,51.0000009727478,2|2,3:2|0:0,0:0:0:0:
216,199,38330,2,0,P|208:223|194:244,1,51.0000009727478,2|2,3:0|3:0,0:0:0:0:
37,365,38830,6,0,L|91:348,1,45.0000017166138,6|0,1:2|0:0,0:0:0:0:
140,332,39080,1,0,0:0:0:0:
189,326,39330,1,2,3:0:0:0:
304,365,39580,6,0,P|280:342|264:311,1,45.0000017166138,2|0,1:2|0:0,0:0:0:0:
263,270,39830,1,2,0:0:0:0:
268,218,40080,1,2,0:0:0:0:
281,88,40330,6,0,L|294:195,1,90.0000034332277,0|0,1:0|0:0,0:0:0:0:
293,22,40830,6,0,P|286:56|276:80,1,45.0000017166138,6|0,1:2|0:0,0:0:0:0:
236,98,41080,1,2,0:0:0:0:
191,105,41330,1,2,0:0:0:0:
254,205,41580,6,0,P|282:211|309:228,1,45.0000017166138,2|0,1:2|0:0,0:0:0:0:
332,251,41830,1,2,0:0:0:0:
351,296,42080,1,0,0:0:0:0:
351,296,42330,6,0,L|339:197,1,90.0000034332277,2|0,1:2|3:0,0:0:0:0:
495,9,42830,6,0,P|493:41|483:75,1,45.0000017166138,6|0,1:0|0:0,0:0:0:0:
458,92,43080,1,0,0:0:0:0:
412,102,43330,1,2,3:0:0:0:
291,111,43580,6,0,L|343:136,1,45.0000017166138,2|0,1:0|0:0,0:0:0:0:
390,178,43830,1,0,0:0:0:0:
368,252,44080,1,2,3:3:0:0:
376,344,44330,2,0,L|394:247,1,90.0000034332277,2|2,3:3|0:0,0:0:0:0:
498,321,44830,6,0,L|448:313,1,45.0000017166138,6|0,1:2|0:0,0:0:0:0:
410,372,45080,1,0,0:0:0:0:
343,332,45330,1,2,3:2:0:0:
232,318,45580,6,0,L|287:311,1,45.0000017166138,2|0,1:2|0:0,0:0:0:0:
320,307,45830,1,0,0:0:0:0:
282,230,46080,1,2,0:0:0:0:
293,155,46330,1,0,1:0:0:0:
293,155,46580,1,2,0:0:0:0:
225,42,46830,6,0,P|222:68|208:91,1,45.0000017166138,2|0,1:2|0:0,0:0:0:0:
102,142,47080,1,0,0:0:0:0:
173,143,47330,1,2,0:0:0:0:
22,85,47580,6,0,P|44:113|52:141,1,45.0000017166138,2|0,1:2|0:0,0:0:0:0:
49,249,47830,1,0,0:0:0:0:
79,185,48080,1,2,3:0:0:0:
194,289,48330,6,0,P|154:258|114:267,1,90.0000034332277,2|0,1:2|0:0,0:0:0:0:
11,354,48830,6,0,L|65:339,1,45.0000017166138,2|0,1:2|0:0,0:0:0:0:
92,309,49080,1,2,0:0:0:0:
163,368,49330,1,2,0:0:0:0:
212,299,49580,2,0,L|204:354,2,45.0000017166138,2|0|0,1:2|0:0|0:0,0:0:0:0:
230,281,50330,2,0,L|219:229,1,45.0000017166138,2|2,0:0|0:0,0:0:0:0:
219,212,50830,6,0,P|187:241|143:236,1,90.0000034332277,6|2,3:0|3:2,0:0:0:0:
31,149,51830,2,0,B|52:149|68:128|68:128|79:153|105:162,1,90.0000034332277,2|2,3:2|3:2,0:0:0:0:
241,87,52830,2,0,L|149:102,1,90.0000034332277,2|2,3:2|0:0,0:0:0:0:
218,61,53705,5,2,0:0:0:0:
232,46,53830,2,0,P|230:23|226:13,2,22.5000008583069,2|2|2,3:2|0:0|0:0,0:0:0:0:
293,74,54205,1,2,0:0:0:0:
320,78,54330,2,0,P|341:68|350:55,2,22.5000008583069,2|2|2,0:0|0:0|0:0,0:0:0:0:
315,155,54705,1,0,0:0:0:0:
326,179,54830,2,0,P|351:200|412:196,1,85.4999977169037,2|0,1:2|0:0,0:0:0:0:
435,242,55330,2,0,L|425:121,1,112.5,2|0,1:2|0:0,0:0:0:0:
492,34,55830,2,0,P|469:83|416:96,1,112.5,2|0,1:2|0:0,0:0:0:0:
293,173,56330,2,0,P|342:195|352:260,1,112.5,2|0,1:0|0:0,0:0:0:0:
441,193,56830,6,0,B|423:277|447:254|430:347,1,150,6|2,1:2|3:0,0:0:0:0:
505,267,57580,1,2,0:0:0:0:
356,378,57830,2,0,B|318:356|316:316|316:316|303:355|249:359,1,150,0|0,1:0|1:2,0:0:0:0:
207,218,58580,1,2,0:0:0:0:
103,352,58830,6,0,P|47:355|0:328,1,112.5,2|0,1:2|0:0,0:0:0:0:
161,288,59330,2,0,P|167:241|146:282,1,112.5,2|0,3:0|0:0,0:0:0:0:
289,253,59830,2,0,P|269:218|274:147,1,112.5,0|2,1:0|0:0,0:0:0:0:
383,252,60330,2,0,P|372:209|411:232,1,112.5,0|2,1:2|0:0,0:0:0:0:
486,289,60830,2,0,B|527:221|473:214|514:143,1,150,6|2,1:2|3:0,0:0:0:0:
475,34,61580,5,2,0:0:0:0:
359,122,61830,2,0,B|319:109|297:82|297:82|267:104|201:94,1,150,2|0,1:3|1:2,0:0:0:0:
192,78,62455,2,0,L|156:69,2,22.5000008583069,0|2|0,0:0|0:0|0:0,0:0:0:0:
131,37,62830,6,0,P|104:74|48:41,1,112.5,6|0,1:2|0:0,0:0:0:0:
257,173,63330,2,0,P|282:108|278:38,1,112.5,2|0,3:0|0:0,0:0:0:0:
344,273,63830,2,0,P|407:269|463:241,1,112.5,2|0,1:3|0:0,0:0:0:0:
214,379,64330,2,0,P|237:327|272:369,1,112.5,2|0,1:2|0:0,0:0:0:0:
49,361,64830,2,0,B|132:323|115:396|208:349,1,150,6|2,1:1|3:0,0:0:0:0:
152,271,65580,1,2,0:0:0:0:
225,348,65830,6,0,P|258:359|295:356,1,53.9999983520508,0|2,1:0|0:0,0:0:0:0:
378,239,66330,2,0,P|351:262|335:296,1,53.9999983520508,0|2,1:2|0:0,0:0:0:0:
489,383,66830,6,0,P|478:324|441:273,1,107.999996704102,6|0,1:2|0:0,0:0:0:0:
435,314,67330,2,0,B|457:354|512:359,1,90,2|0,1:2|0:0,0:0:0:0:
322,147,67830,6,0,P|328:72|382:8,1,135.000005149841,6|0,1:2|0:0,0:0:0:0:
349,105,68330,2,0,P|286:143|212:138,1,116.999994644165,4|0,2:2|0:0,0:0:0:0:
45,10,68830,5,6,1:2:0:0:
238,171,69205,1,2,0:0:0:0:
238,171,69330,2,0,L|323:158,1,77.9999964294435,2|2,1:2|0:0,0:0:0:0:
456,285,69830,2,0,L|323:278,1,116.999994644165,6|0,1:2|0:0,0:0:0:0:
154,319,70330,2,0,L|53:328,1,77.9999964294435,2|2,1:2|0:0,0:0:0:0:
0,266,70705,1,0,0:0:0:0:
39,297,70830,2,0,L|163:281,1,116.999994644165,6|0,1:2|0:0,0:0:0:0:
291,299,71330,2,0,P|270:294|253:270,2,38.9999982147218,2|0|2,3:0|0:0|0:0,0:0:0:0:
272,370,71830,6,0,P|282:321|279:268,1,83.9999974365235,2|2,1:2|0:0,0:0:0:0:
227,49,72330,1,0,1:2:0:0:
249,74,72455,1,2,0:0:0:0:
262,45,72580,1,2,0:0:0:0:
242,44,72705,1,2,0:0:0:0:
207,34,72830,6,0,P|138:61|37:71,1,167.999994873047,6|2,1:2|3:0,0:0:0:0:
136,33,73580,1,2,0:0:0:0:
252,113,73830,2,0,P|205:170|123:230,1,167.999994873047,6|2,1:2|1:2,0:0:0:0:
235,238,74580,1,2,0:0:0:0:
348,378,74830,6,0,P|348:294|371:213,1,167.999994873047,6|2,1:2|3:0,0:0:0:0:
426,152,75580,1,2,0:0:0:0:
512,276,75830,2,0,P|470:203|449:121,1,167.999994873047,4|0,1:2|1:2,0:0:0:0:
498,6,76580,1,2,0:0:0:0:
453,79,76830,6,0,P|403:99|335:90,1,107.999996704102,2|2,1:2|3:0,0:0:0:0:
238,39,77580,1,2,0:0:0:0:
167,61,77830,2,0,B|171:82|159:103|137:103|137:103|123:106|105:83|111:61|76:45|68:68|80:90|67:112|41:126|9:136|-15:96,1,231.000007049561,0|0,1:0|0:0,0:0:0:0:
30,10,78830,6,0,P|72:-3|95:47,1,99.0000030212403,6|0,1:2|0:0,0:0:0:0:
141,95,79330,2,0,P|181:78|208:126,1,85.4999977169037,2|0,3:0|0:0,0:0:0:0:
263,148,79830,2,0,P|287:132|311:160,1,62.9999980773926,0|0,1:0|0:2,0:0:0:0:
290,224,80830,6,0,P|259:241|196:241,1,90.0000034332277,2|2,1:2|0:0,0:0:0:0:
103,274,81580,1,2,0:0:0:0:
46,227,81830,1,2,0:0:0:0:
46,227,82330,6,0,P|62:251|64:281,1,45.0000017166138,2|2,3:0|0:0,0:0:0:0:
143,356,82830,2,0,P|165:337|176:315,1,45.0000017166138,2|2,3:0|0:0,0:0:0:0:
237,291,83330,2,0,P|263:308|280:327,1,45.0000017166138,2|2,0:0|0:0,0:0:0:0:
342,384,83830,2,0,P|365:347|415:367,1,90.0000034332277,2|2,0:3|3:0,0:0:0:0:
446,258,84580,1,2,0:0:0:0:
406,198,84830,6,0,L|314:212,1,90.0000034332277,2|2,3:2|0:0,0:0:0:0:
220,119,85586,2,0,P|254:132|299:131,1,77.9999964294435,0|2,3:0|0:0,0:0:0:0:
349,76,86387,2,0,L|341:38,1,33.0000010070801,0|2,3:0|0:0,0:0:0:0:
407,12,86926,2,0,P|421:42|421:81,1,66.0000020141602,2|2,0:0|0:0,0:0:0:0:
479,121,87749,1,0,0:0:0:0:
498,161,88023,6,0,B|440:144|455:190|380:168,1,102.000001945496,2|0,3:0|3:0,0:0:0:0:
319,97,88920,1,0,0:0:0:0:
248,129,89236,2,0,P|264:166|287:176,1,48
228,195,89895,5,2,0:0:0:0:
263,221,90083,1,2,0:0:0:0:
291,218,90271,1,2,0:0:0:0:
259,269,90459,1,2,0:0:0:0:
236,352,90660,6,0,L|222:209,1,120,4|0,1:0|1:0,0:0:0:0:
465,39,91553,2,0,B|68:165|68:165|225:224|277:319|256:382|179:381|169:347|228:292,1,768,4|0,1:0|0:0,0:0:0:0:
347,358,94350,1,0,0:0:0:0:
347,358,94506,1,0,0:0:0:0:
347,358,94661,6,0,P|349:322|336:297,1,45.0000017166138,4|2,0:0|0:0,0:0:0:0:
452,264,95342,2,0,P|477:290|508:295,1,60,2|2,0:0|0:0,0:0:0:0:
345,291,95967,2,0,P|347:257|369:231,1,60,2|2,0:0|0:0,0:0:0:0:
503,121,96612,2,0,L|440:130,1,60,2|2,0:0|0:0,0:0:0:0:
343,70,97250,5,6,0:0:0:0:
254,160,97875,2,0,L|230:228,1,60,2|2,0:0|0:0,0:0:0:0:
191,114,98493,1,2,0:0:0:0:
80,76,99112,2,0,L|67:7,1,60,2|2,0:0|0:0,0:0:0:0:
15,120,99771,1,2,0:0:0:0:
15,120,100079,6,0,P|24:154|23:172,1,47.9999985351563,2|0,0:0|0:0,0:0:0:0:
78,258,100414,2,0,P|87:227|114:192,1,51.999997619629,2|0,0:0|0:0,0:0:0:0:
211,181,100762,2,0,P|179:220|160:190,1,71.9999978027344,2|0,0:0|0:0,0:0:0:0:
110,353,101114,2,0,P|141:321|184:338,1,77.9999964294435,2|2,0:0|0:0,0:0:0:0:
285,343,102099,1,2,0:0:0:0:
296,358,102984,2,0,L|378:369,1,77.9999964294435,2|0,0:0|0:0,0:0:0:0:
