osu file format v14

[General]
AudioFilename: audio.mp3
AudioLeadIn: 0
PreviewTime: 6830
Countdown: 0
SampleSet: Soft
StackLeniency: 0.3
Mode: 0
LetterboxInBreaks: 0
WidescreenStoryboard: 0

[Editor]
Bookmarks: 12815,18815,30815,38815,50815,56815
DistanceSpacing: 2.9
BeatDivisor: 6
GridSize: 4
TimelineZoom: 0.8

[Metadata]
Title:Sandglass
TitleUnicode:Sandglass
Artist:M2U
ArtistUnicode:M2U
Creator:Hailie
Version:Swell's Insane
Source:Deemo
Tags:Swell ylvy
BeatmapID:1751351
BeatmapSetID:836286

[Difficulty]
HPDrainRate:7
CircleSize:4
OverallDifficulty:7
ApproachRate:9
SliderMultiplier:1.4
SliderTickRate:1

[Events]
//Background and Video events
0,0,"bg.jpg",0,0
//Break Periods
//Storyboard Layer 0 (Background)
//Storyboard Layer 1 (Fail)
//Storyboard Layer 2 (Pass)
//Storyboard Layer 3 (Foreground)
//Storyboard Sound Samples

[TimingPoints]
830,500,4,2,0,20,1,0
6830,-100,4,2,0,10,0,0
8830,-100,4,2,0,40,0,0
12815,-83.3333333333333,4,2,0,40,0,0
14830,-83.3333333333333,4,2,0,30,0,0
16955,-83.3333333333333,4,2,0,20,0,0
18815,-125,4,2,0,20,0,0
18830,-125,4,2,0,30,0,0
30815,-100,4,2,0,30,0,0
30830,-100,4,2,0,40,0,0
34815,-166.666666666667,4,2,0,40,0,0
35330,-166.666666666667,4,2,0,30,0,0
36830,-166.666666666667,4,2,0,40,0,0
38815,-83.3333333333333,4,2,0,40,0,0
38830,-83.3333333333333,4,2,0,50,0,0
50315,-100,4,2,0,50,0,0
50330,-100,4,2,0,40,0,0
50815,-125,4,2,0,40,0,0
53705,-125,4,2,0,30,0,0
54815,-111.111111111111,4,2,0,30,0,0
55315,-100,4,2,0,30,0,0
55330,-100,4,2,0,40,0,0
55815,-90.9090909090909,4,2,0,40,0,0
55830,-90.9090909090909,4,2,0,50,0,0
56315,-83.3333333333333,4,2,0,50,0,0
56330,-83.3333333333333,4,2,0,60,0,0
56815,-66.6666666666667,4,2,0,60,0,0
80315,-83.3333333333333,4,2,0,60,0,0
81330,-83.3333333333333,4,2,0,50,0,0
84830,-83.3333333333333,4,2,0,40,0,0
85330,512.820512820513,4,2,0,40,1,0
85815,-100,4,2,0,40,0,0
85842,545.455555555556,4,2,0,40,1,0
86387,541.76072234763,4,2,0,40,1,0
86657,538.116591928251,4,2,0,40,1,0
86920,-125,4,2,0,40,0,0
87464,570.884871550904,4,2,0,40,1,0
87464,-166.666666666667,4,2,0,40,0,0
88023,582.52427184466,4,2,0,40,1,0
88023,-166.666666666667,4,2,0,40,0,0
88605,631.578947368421,4,2,0,40,1,0
88605,-166.666666666667,4,2,0,40,0,0
89236,659.340659340659,4,2,0,40,1,0
89236,-166.666666666667,4,2,0,40,0,0
89895,564.705882352941,4,2,0,40,1,0
89895,-250,4,2,0,40,0,0
90459,402.684563758389,4,2,0,50,1,0
90660,423.280423280423,4,2,0,50,1,0
90660,-166.666666666667,4,2,0,60,0,0
91084,468.75,4,2,0,60,1,0
91084,-166.666666666667,4,2,0,60,0,0
91553,621.761658031088,4,2,0,60,1,0
91553,-166.666666666667,4,2,0,60,0,0
94350,-250,4,2,0,50,0,0
94648,-166.666666666667,4,2,0,50,0,0
94661,681.818181818182,4,2,0,30,1,0
94661,-166.666666666667,4,2,0,30,0,0
95342,625,4,2,0,30,1,0
95967,645.161290322581,4,2,0,30,1,0
96612,638.297872340426,4,2,0,30,1,0
97250,625,4,2,0,30,1,0
97875,618.556701030928,4,2,0,30,1,0
99112,659.340659340659,4,2,0,30,1,0
99771,616.34074168798,4,2,0,30,1,0
100079,670.391061452514,4,2,0,30,1,0
100414,697.674418604651,4,2,0,40,1,0
100414,-166.666666666667,4,2,0,40,0,0
100762,705.882352941176,4,2,0,30,1,0
100762,-166.666666666667,4,2,0,30,0,0
101114,961.538461538462,4,2,0,30,1,0
101594,1010.49631578947,4,2,0,30,1,0
102102,1764.70588235294,4,2,0,20,1,0
102102,-100,4,2,0,20,0,0
102984,2105.26315789474,4,2,0,20,1,0
105091,2033.89830508475,4,2,0,20,1,0
106107,718.562874251497,4,2,0,10,1,0
106107,-166.666666666667,4,2,0,10,0,0

[Colours]
Combo1 : 248,185,255
Combo2 : 91,255,133
Combo3 : 225,225,225
Combo4 : 255,251,174

[HitObjects]
69,290,830,6,0,P|137:294|182:271,1,105,2|0,0:0|3:0,0:0:0:0:
239,225,1330,2,0,P|287:207|329:235,1,105,2|0,0:0|0:0,0:0:0:0:
469,318,1830,2,0,P|453:361|391:350,1,105,2|2,0:0|3:2,0:0:0:0:
414,257,2330,2,0,P|420:207|396:145,1,105,2|0,0:0|0:0,0:0:0:0:
334,61,2830,5,2,3:2:0:0:
345,138,3080,1,2,0:0:0:0:
311,211,3330,1,2,3:2:0:0:
323,286,3580,1,2,0:0:0:0:
199,169,3767,1,0,0:0:0:0:
199,169,3830,1,0,3:2:0:0:
210,246,4080,1,2,0:0:0:0:
109,182,4330,1,2,3:2:0:0:
115,107,4580,1,2,0:0:0:0:
36,191,4830,6,0,L|67:271,1,70,4|0,3:0|0:0,0:0:0:0:
200,240,5330,2,0,L|176:321,1,70,2|0,0:0|0:0,0:0:0:0:
409,156,5830,2,0,L|383:241,1,70,2|0,0:0|0:0,0:0:0:0:
267,116,6330,2,0,L|283:199,1,70,2|0,3:2|0:0,0:0:0:0:
427,54,6830,5,2,0:0:0:0:
363,98,7080,1,2,0:0:0:0:
400,33,7330,1,2,0:0:0:0:
473,60,7580,1,2,0:0:0:0:
296,153,7767,1,0,0:0:0:0:
296,146,7830,1,2,0:0:0:0:
294,137,8330,2,0,L|303:211,1,70,2|0,0:0|0:0,0:0:0:0:
72,338,8830,6,0,L|145:311,1,70,6|0,0:0|0:0,0:0:0:0:
187,257,9205,1,2,0:0:0:0:
187,257,9330,1,2,3:2:0:0:
6,120,9580,1,2,0:3:0:0:
92,234,9830,6,0,L|102:163,1,70,4|2,0:3|0:0,0:0:0:0:
0,264,10205,1,2,0:0:0:0:
0,264,10330,1,2,3:2:0:0:
233,193,10580,1,2,0:3:0:0:
317,331,10830,6,0,L|293:248,1,70,4|2,0:3|0:0,0:0:0:0:
402,364,11205,1,2,0:0:0:0:
402,364,11330,1,2,3:2:0:0:
431,121,11580,1,2,0:3:0:0:
285,260,11830,5,4,0:3:0:0:
348,115,12080,1,2,3:2:0:0:
147,205,12330,1,2,3:2:0:0:
115,21,12580,1,6,3:3:0:0:
147,205,12830,6,0,P|152:237|144:301,1,83.9999974365235,4|2,0:3|0:0,0:0:0:0:
51,174,13205,1,2,0:0:0:0:
51,174,13330,2,0,P|54:222|47:260,1,83.9999974365235,2|2,3:2|0:3,0:0:0:0:
239,204,13830,2,0,P|279:194|333:208,1,83.9999974365235,6|0,3:0|0:0,0:0:0:0:
129,295,14205,1,0,0:0:0:0:
129,295,14330,2,0,P|84:324|58:361,1,83.9999974365235,6|6,3:0|3:0,0:0:0:0:
408,277,14830,5,2,0:0:0:0:
314,307,15080,1,2,0:0:0:0:
372,360,15330,1,2,0:0:0:0:
470,239,15517,1,0,0:0:0:0:
474,254,15580,1,2,3:0:0:0:
452,343,15830,1,2,0:0:0:0:
383,246,16080,1,2,0:0:0:0:
399,171,16330,1,2,0:0:0:0:
381,73,16580,1,2,3:0:0:0:
381,73,16830,5,0,0:0:0:0:
389,84,16955,1,2,0:0:0:0:
384,108,17080,1,2,0:0:0:0:
351,125,17205,1,2,0:0:0:0:
334,164,17330,1,2,0:0:0:0:
369,200,17455,1,2,0:0:0:0:
384,255,17580,1,2,0:0:0:0:
339,273,17705,1,2,0:0:0:0:
322,308,17830,1,2,3:2:0:0:
366,327,17955,1,2,0:0:0:0:
348,383,18080,1,2,3:2:0:0:
287,376,18205,1,2,0:0:0:0:
229,361,18330,1,2,3:2:0:0:
181,344,18455,1,2,0:0:0:0:
143,326,18580,1,2,0:0:0:0:
129,313,18705,1,0,0:0:0:0:
122,306,18830,6,0,P|81:303|65:337,1,84,6|0,0:0|0:0,0:0:0:0:
105,344,19330,2,0,P|118:308|116:256,1,84,2|0,0:0|0:0,0:0:0:0:
76,194,19830,2,0,P|75:165|98:115,1,84,2|0,0:0|0:0,0:0:0:0:
162,77,20330,1,2,0:0:0:0:
60,243,20767,1,0,0:0:0:0:
52,232,20830,6,0,P|48:208|64:143,1,84,2|0,3:2|0:0,0:0:0:0:
181,135,21330,2,0,L|89:162,1,84,2|0,0:0|0:0,0:0:0:0:
220,210,21830,2,0,L|220:143,2,56,2|2|0,0:0|3:2|0:0,0:0:0:0:
228,216,22767,1,0,0:0:0:0:
228,216,22830,6,0,P|229:169|218:134,1,84,2|0,3:2|0:0,0:0:0:0:
200,16,23330,2,0,P|212:55|208:105,1,84,2|0,0:0|0:0,0:0:0:0:
60,111,23830,2,0,P|82:83|133:78,1,84,2|0,3:2|0:0,0:0:0:0:
145,150,24330,1,2,0:0:0:0:
290,1,24767,1,0,0:0:0:0:
301,19,24830,6,0,P|313:57|309:100,1,84,2|0,3:2|0:0,0:0:0:0:
226,182,25330,1,2,3:2:0:0:
226,182,25580,1,2,0:0:0:0:
286,234,25830,1,2,3:0:0:0:
375,222,26080,1,2,0:0:0:0:
359,143,26330,1,2,3:2:0:0:
349,246,26580,1,2,0:0:0:0:
353,271,26705,1,2,0:0:0:0:
367,292,26830,6,0,P|387:310|449:267,1,112,2|2,3:2|0:0,0:0:0:0:
412,145,27580,1,2,0:0:0:0:
262,191,27767,1,0,0:0:0:0:
250,197,27830,2,0,P|199:178|197:144,1,84,2|0,3:0|0:0,0:0:0:0:
348,102,28330,2,0,P|366:94|349:37,1,84,2|0,3:2|0:0,0:0:0:0:
272,78,28830,5,2,3:0:0:0:
309,161,29080,1,2,0:0:0:0:
343,247,29330,1,2,3:2:0:0:
420,192,29580,1,2,0:0:0:0:
439,255,29830,2,0,L|434:171,1,84,6|0,3:0|0:0,0:0:0:0:
286,98,30330,2,0,L|350:77,1,56,4|2,1:3|0:0,0:0:0:0:
469,33,30767,5,0,0:0:0:0:
461,47,30830,2,0,L|349:23,1,105,6|0,1:2|0:0,0:0:0:0:
193,51,31330,2,0,L|91:85,1,105,2|0,1:0|0:0,0:0:0:0:
61,234,31830,2,0,L|156:174,1,105,2|0,1:2|0:0,0:0:0:0:
329,160,32330,2,0,L|432:183,1,105,2|0,1:0|0:0,0:0:0:0:
323,254,32830,5,2,3:0:0:0:
259,326,33080,1,2,0:0:0:0:
349,346,33330,1,2,0:0:0:0:
298,249,33580,1,2,0:0:0:0:
163,324,33830,2,0,L|89:249,1,105,2|0,0:0|0:0,0:0:0:0:
190,104,34330,2,0,L|157:177,1,70,2|2,3:2|3:0,0:0:0:0:
40,354,34830,6,0,L|25:312,3,41.9999987182618,2|0|2|2,3:0|0:0|0:0|0:0,0:0:0:0:
101,233,35830,2,0,L|83:271,3,41.9999987182618,2|2|2|2,3:2|0:0|0:0|3:2,0:0:0:0:
212,308,36767,5,0,0:0:0:0:
212,308,36830,2,0,B|280:260|134:225|193:166,1,167.999994873047,2|2,1:2|3:2,0:0:0:0:
212,167,38080,1,2,0:0:0:0:
139,188,38330,1,2,3:0:0:0:
66,159,38580,1,2,3:0:0:0:
13,10,38830,5,6,1:2:0:0:
327,65,39330,1,2,3:0:0:0:
349,143,39580,2,0,L|254:149,1,83.9999974365235,2|2,1:2|0:0,0:0:0:0:
58,159,40080,1,2,0:0:0:0:
95,234,40330,2,0,P|132:246|188:232,1,83.9999974365235,0|0,1:0|0:0,0:0:0:0:
415,50,40830,5,6,1:2:0:0:
335,43,41080,1,2,0:0:0:0:
267,77,41330,1,2,0:0:0:0:
230,142,41580,1,2,1:2:0:0:
384,227,41830,2,0,L|463:198,2,83.9999974365235,2|0|2,0:0|0:0|1:2,0:0:0:0:
45,321,42830,1,6,1:0:0:0:
279,157,43330,1,2,3:0:0:0:
342,195,43580,6,0,L|306:280,1,83.9999974365235,2|0,1:0|0:0,0:0:0:0:
160,208,44080,1,2,3:3:0:0:
143,133,44330,1,2,3:3:0:0:
140,218,44580,1,2,0:0:0:0:
133,298,44830,1,6,1:2:0:0:
121,374,45080,1,0,0:0:0:0:
219,181,45330,2,0,P|213:144|205:86,1,83.9999974365235,2|2,3:2|1:2,0:0:0:0:
494,15,46080,1,2,0:0:0:0:
509,89,46330,6,0,P|479:123|429:114,1,83.9999974365235,0|2,1:0|0:0,0:0:0:0:
283,83,46830,2,0,P|237:80|196:103,1,83.9999974365235,2|0,1:2|0:0,0:0:0:0:
112,225,47330,1,2,0:0:0:0:
181,187,47580,2,0,P|215:174|266:185,1,83.9999974365235,2|0,1:2|0:0,0:0:0:0:
360,304,48080,1,2,3:0:0:0:
205,301,48330,5,2,1:2:0:0:
452,97,48830,1,2,1:2:0:0:
459,190,49080,1,2,0:0:0:0:
469,285,49330,1,2,0:0:0:0:
477,377,49580,1,2,1:2:0:0:
374,74,50080,1,0,0:0:0:0:
452,97,50330,6,0,L|444:174,1,70,2|2,0:0|0:0,0:0:0:0:
161,62,50830,2,0,L|184:147,1,84,6|0,3:0|0:0,0:0:0:0:
334,200,51330,2,0,L|312:170,2,28,2|0|2,3:2|0:0|0:0,0:0:0:0:
243,337,51830,2,0,P|219:359|191:363,1,56,2|0,3:2|0:0,0:0:0:0:
120,357,52330,2,0,P|96:340|89:313,1,56,2|0,3:2|0:0,0:0:0:0:
93,242,52830,2,0,P|123:250|147:274,1,56,2|2,3:2|0:0,0:0:0:0:
11,244,53330,5,2,0:0:0:0:
13,231,53455,1,0,0:0:0:0:
17,213,53580,1,0,0:0:0:0:
22,196,53705,1,2,0:0:0:0:
35,208,53830,1,2,3:2:0:0:
47,239,53955,1,2,0:0:0:0:
60,263,54080,1,2,0:0:0:0:
76,292,54205,1,2,0:0:0:0:
92,247,54330,1,2,0:0:0:0:
102,205,54455,1,2,0:0:0:0:
112,160,54580,1,2,0:0:0:0:
127,114,54705,1,0,0:0:0:0:
155,114,54830,6,0,P|189:116|241:151,1,94.499997116089,2|0,1:2|0:0,0:0:0:0:
257,123,55330,2,0,P|272:108|363:101,1,105,2|0,1:2|0:0,0:0:0:0:
491,228,55830,2,0,P|452:210|375:241,1,115.50000352478,2|0,1:2|0:0,0:0:0:0:
303,302,56330,2,0,P|274:290|190:330,1,125.999996154785,2|0,1:0|0:0,0:0:0:0:
323,351,56830,6,0,L|322:128,1,210.000008010865,6|2,1:2|3:0,0:0:0:0:
428,77,57580,1,2,0:0:0:0:
390,235,57830,1,0,1:0:0:0:
288,119,58080,1,2,0:0:0:0:
219,218,58330,1,0,1:2:0:0:
120,186,58580,1,2,0:0:0:0:
49,234,58830,6,0,P|64:213|230:146,2,210.000008010865,2|2|0,1:2|3:0|1:0,0:0:0:0:
276,253,60205,1,2,0:0:0:0:
235,280,60330,1,0,1:2:0:0:
251,314,60455,1,2,0:0:0:0:
300,311,60580,1,2,0:0:0:0:
342,291,60705,1,2,0:0:0:0:
381,269,60830,6,0,B|428:192|349:146|260:207,1,210.000008010865,6|2,1:2|3:0,0:0:0:0:
153,287,61580,1,2,0:0:0:0:
339,178,61830,2,0,B|386:135|459:89|518:110|510:145|457:161,1,210.000008010865,2|0,1:3|1:2,0:0:0:0:
425,154,62455,1,0,0:0:0:0:
380,134,62580,1,2,0:0:0:0:
326,134,62705,1,0,0:0:0:0:
272,146,62830,5,6,1:2:0:0:
0,333,63330,1,2,3:0:0:0:
68,375,63580,1,2,0:0:0:0:
0,98,63830,1,2,1:3:0:0:
402,11,64330,1,2,1:2:0:0:
406,306,64830,2,0,B|427:320|422:358|380:366|341:329|367:229|413:179,1,210.000008010865,6|2,1:1|3:0,0:0:0:0:
472,154,65580,5,2,0:0:0:0:
395,171,65830,1,0,1:0:0:0:
326,210,66080,1,2,0:0:0:0:
250,231,66330,1,0,1:2:0:0:
186,270,66580,1,2,0:0:0:0:
332,206,66830,2,0,B|361:217|402:214|425:156|345:109,1,157.500006008148,6|0,1:2|0:0,0:0:0:0:
215,117,67330,2,0,B|156:127|173:31|240:46|253:109|236:135,1,157.500006008148,2|0,1:2|0:0,0:0:0:0:
180,245,67830,2,0,P|119:254|46:140,2,210.000008010865,6|4|6,1:2|2:2|1:2,0:0:0:0:
278,156,69080,5,2,0:0:0:0:
298,135,69205,1,2,0:0:0:0:
325,148,69330,2,0,B|362:166|352:186|308:194|262:156,1,105.000004005432,2|2,1:2|0:0,0:0:0:0:
130,72,69830,2,0,P|77:29|-18:118,1,210.000008010865,6|2,1:2|1:2,0:0:0:0:
106,176,70580,1,2,0:0:0:0:
144,181,70705,1,0,0:0:0:0:
144,181,70830,6,0,P|140:212|-7:224,1,210.000008010865,6|2,1:2|3:0,0:0:0:0:
39,130,71580,1,2,0:0:0:0:
103,174,71830,1,2,1:2:0:0:
18,320,72080,1,2,0:0:0:0:
135,201,72330,1,0,1:2:0:0:
275,292,72580,1,2,0:0:0:0:
279,296,72705,1,2,0:0:0:0:
281,296,72830,6,0,B|311:304|396:313|432:268|400:235|302:221,1,210.000008010865,6|2,1:2|3:0,0:0:0:0:
210,268,73580,1,2,0:0:0:0:
170,120,73830,2,0,B|103:80|202:4|282:53|251:133|221:165,1,210.000008010865,6|2,1:2|1:2,0:0:0:0:
60,101,74580,1,2,0:0:0:0:
300,163,74830,2,0,P|349:184|427:335,1,210.000008010865,6|2,1:2|3:0,0:0:0:0:
347,360,75580,1,2,0:0:0:0:
496,247,75830,2,0,P|510:157|474:40,1,210.000008010865,4|0,1:2|1:2,0:0:0:0:
368,65,76580,1,2,0:0:0:0:
360,76,76830,5,2,1:2:0:0:
354,91,77330,1,2,3:0:0:0:
360,108,77580,1,2,0:0:0:0:
359,107,77705,1,2,0:0:0:0:
359,107,77830,1,0,1:0:0:0:
367,114,78330,1,0,1:2:0:0:
378,119,78580,1,2,0:0:0:0:
508,136,78830,2,0,B|365:190|219:178|219:178|192:157|169:153|169:153|142:167|123:212|123:212,1,420.000016021729,6|0,1:2|1:0,0:0:0:0:
126,206,80330,6,0,L|213:213,3,83.9999974365235,2|2|2|0,3:2|0:0|1:2|0:0,0:0:0:0:
276,254,81330,1,2,0:0:0:0:
209,297,81580,1,2,0:0:0:0:
136,291,81830,1,2,0:0:0:0:
35,58,82330,5,2,3:0:0:0:
81,20,82580,1,2,0:0:0:0:
209,89,82830,1,2,3:0:0:0:
149,160,83080,1,2,0:0:0:0:
224,272,83330,1,2,0:0:0:0:
360,199,83580,1,2,0:0:0:0:
439,301,83830,2,0,P|414:334|305:294,1,167.999994873047,2|2,0:3|3:0,0:0:0:0:
451,146,84580,5,2,0:0:0:0:
431,170,84705,1,0,0:0:0:0:
410,185,84830,2,0,P|377:211|329:236,2,83.9999974365235,2|0|2,3:2|0:0|0:0,0:0:0:0:
264,179,85586,1,0,0:0:0:0:
292,181,85714,1,0,0:0:0:0:
323,176,85842,2,0,P|353:172|391:148,2,70,2|2|0,0:0|0:0|0:0,0:0:0:0:
405,49,86657,1,2,0:0:0:0:
271,39,86926,6,0,P|229:33|193:45,1,56,2|0,0:0|0:0,0:0:0:0:
112,95,87464,2,0,P|121:124|133:135,1,41.9999987182618,2|2,0:0|0:0,0:0:0:0:
159,132,87892,1,2,0:0:0:0:
229,92,88023,6,0,L|217:135,1,41.9999987182618,6|0,3:0|0:0,0:0:0:0:
112,224,88605,2,0,L|122:259,1,20.9999993591309,6|0,3:0|0:0,0:0:0:0:
140,273,88920,1,2,3:0:0:0:
140,273,89078,1,2,0:0:0:0:
140,273,89236,2,0,L|128:336,1,62.9999980773926,2|0,3:2|0:0,0:0:0:0:
108,343,89895,2,0,L|87:341,1,18.6666666666667,2|0,0:0|0:0,0:0:0:0:
57,325,90271,1,0,0:0:0:0:
36,301,90459,1,0,0:0:0:0:
209,236,90660,6,0,L|186:298,1,62.9999980773926,4|0,1:0|0:0,0:0:0:0:
74,173,91084,2,0,L|82:239,1,62.9999980773926,6|0,1:0|0:0,0:0:0:0:
15,45,91553,2,0,P|37:37|261:61,1,251.999992309571,4|0,1:0|0:0,0:0:0:0:
331,201,94350,5,2,0:0:0:0:
342,168,94506,1,2,0:0:0:0:
354,141,94661,1,6,0:0:0:0:
434,91,95001,1,2,0:0:0:0:
407,169,95342,1,2,0:0:0:0:
329,218,95654,1,2,0:0:0:0:
509,83,95967,1,2,0:0:0:0:
475,204,96289,1,2,0:0:0:0:
373,282,96612,1,2,0:0:0:0:
236,267,96931,1,2,0:0:0:0:
171,177,97250,6,0,P|177:160|224:152,1,70,6|0,0:0|0:0,0:0:0:0:
182,272,97875,1,2,0:0:0:0:
161,202,98184,1,2,0:0:0:0:
163,308,98493,2,0,P|157:329|117:319,1,70,2|0,0:0|0:0,0:0:0:0:
68,228,99112,1,2,0:0:0:0:
38,311,99441,1,2,0:0:0:0:
84,206,99771,1,2,0:0:0:0:
85,120,100079,1,2,0:0:0:0:
133,41,100414,1,2,0:0:0:0:
222,47,100762,1,2,0:0:0:0:
279,139,101114,2,0,P|298:156|337:141,1,70,2|0,0:0|0:0,0:0:0:0:
365,79,102102,1,2,0:0:0:0:
385,220,102984,2,0,P|364:273|323:274,1,105,2|0,0:0|0:0,0:0:0:0:
322,273,105091,6,0,L|324:292,1,17.5
