osu file format v14

[General]
AudioFilename: audio.mp3
AudioLeadIn: 0
PreviewTime: 6830
Countdown: 0
SampleSet: Soft
StackLeniency: 0.7
Mode: 0
LetterboxInBreaks: 0
WidescreenStoryboard: 0

[Editor]
DistanceSpacing: 1
BeatDivisor: 4
GridSize: 4
TimelineZoom: 1.5

[Metadata]
Title:Sandglass
TitleUnicode:Sandglass
Artist:M2U
ArtistUnicode:M2U
Creator:Hailie
Version:Normal
Source:Deemo
Tags:Swell ylvy
BeatmapID:1751350
BeatmapSetID:836286

[Difficulty]
HPDrainRate:4
CircleSize:3
OverallDifficulty:5
ApproachRate:6
SliderMultiplier:1.2
SliderTickRate:1

[Events]
//Background and Video events
0,0,"bg.jpg",0,0
//Break Periods
2,15029,17780
//Storyboard Layer 0 (Background)
//Storyboard Layer 1 (Fail)
//Storyboard Layer 2 (Pass)
//Storyboard Layer 3 (Foreground)
//Storyboard Sound Samples

[TimingPoints]
830,500,4,2,0,20,1,0
830,-133.333333333333,4,2,0,20,0,0
6830,-100,4,2,0,10,0,0
8830,-133.333333333333,4,2,0,40,0,0
14830,-100,4,2,0,30,0,0
16955,-100,4,2,0,20,0,0
18830,-117.647058823529,4,2,0,30,0,0
30830,-111.111111111111,4,2,0,40,0,0
35330,-111.111111111111,4,2,0,30,0,0
36830,-111.111111111111,4,2,0,40,0,0
38830,-111.111111111111,4,2,0,50,0,0
50330,-111.111111111111,4,2,0,40,0,0
53705,-111.111111111111,4,2,0,30,0,0
55330,-111.111111111111,4,2,0,40,0,0
55830,-111.111111111111,4,2,0,50,0,0
56330,-111.111111111111,4,2,0,60,0,0
56830,-100,4,2,0,60,0,1
57330,-100,4,2,0,60,0,0
81330,-100,4,2,0,50,0,0
84830,-100,4,2,0,40,0,0
85330,512.820512820513,4,2,0,40,1,0
85842,545.455555555556,4,2,0,40,1,0
86387,541.76072234763,4,2,0,40,1,0
86657,538.116591928251,4,2,0,40,1,0
87464,570.884871550904,4,2,0,40,1,0
88023,582.52427184466,4,2,0,40,1,0
88605,631.578947368421,4,2,0,40,1,0
89236,659.340659340659,4,2,0,40,1,0
89895,564.705882352941,4,2,0,40,1,0
90459,402.684563758389,4,2,0,50,1,0
90660,423.280423280423,4,2,0,50,1,0
91084,468.75,4,2,0,60,1,0
91553,621.761658031088,4,2,0,60,1,0
94350,-100,4,2,0,50,0,0
94661,681.818181818182,4,2,0,30,1,0
95342,625,4,2,0,30,1,0
95967,645.161290322581,4,2,0,30,1,0
96612,638.297872340426,4,2,0,30,1,0
97250,625,4,2,0,30,1,0
97875,618.556701030928,4,2,0,30,1,0
99112,659.340659340659,4,2,0,30,1,0
99771,616.34074168798,4,2,0,30,1,0
100079,670.391061452514,4,2,0,30,1,0
100414,697.674418604651,4,2,0,40,1,0
100762,705.882352941176,4,2,0,30,1,0
101114,961.538461538462,4,2,0,30,1,0
101114,-100,4,2,0,30,0,0
101594,1010.49631578947,4,2,0,30,1,0
102102,1764.70588235294,4,2,0,20,1,0
102984,2105.26315789474,4,2,0,20,1,0
105091,2033.89830508475,4,2,0,20,1,0
105091,-100,4,2,0,20,0,0
106107,718.562874251497,4,2,0,10,1,0

[Colours]
Combo1 : 248,185,255
Combo2 : 91,255,133
Combo3 : 225,225,225
Combo4 : 255,251,174

[HitObjects]
17,92,830,6,0,P|76:98|112:93,1,90.0000034332276,2|2,0:0|0:0,0:0:0:0:
181,45,1830,2,0,P|190:99|184:137,1,90.0000034332276,2|2,0:0|0:0,0:0:0:0:
270,162,2830,6,0,L|277:211,2,45.0000017166138,2|2|2,3:2|0:0|3:2,0:0:0:0:
336,101,3830,2,0,L|362:53,2,45.0000017166138,0|2|2,3:2|0:0|3:2,0:0:0:0:
373,126,4580,1,2,0:0:0:0:
415,141,4830,6,0,P|441:185|444:226,1,90.0000034332277,4|2,3:0|0:0,0:0:0:0:
365,265,5830,1,2,0:0:0:0:
365,265,6330,2,0,L|354:360,1,90.0000034332277,2|2,3:2|0:0,0:0:0:0:
257,349,7330,5,2,0:0:0:0:
186,293,7830,1,2,0:0:0:0:
186,293,8330,1,2,0:0:0:0:
96,291,8830,5,6,0:2:0:0:
87,201,9330,1,2,3:2:0:0:
87,201,9580,1,2,0:3:0:0:
131,192,9830,6,0,L|224:194,1,90.0000034332277,4|2,0:3|3:2,0:0:0:0:
262,212,10580,1,2,0:3:0:0:
296,241,10830,5,6,3:0:0:0:
380,173,11330,1,2,3:2:0:0:
424,165,11580,1,2,0:3:0:0:
456,134,11830,5,4,0:3:0:0:
397,65,12330,2,0,L|341:56,1,45.0000017166138,2|6,3:2|3:3,0:0:0:0:
307,53,12830,6,0,P|283:101|285:141,1,90.0000034332277,4|2,0:3|3:2,0:0:0:0:
259,174,13580,1,2,0:3:0:0:
275,215,13830,2,0,L|270:311,2,90.0000034332277,6|6|2,3:0|3:0|0:0,0:0:0:0:
284,338,18830,6,0,L|175:339,2,102.000001945496,6|2|2,0:0|0:0|0:0,0:0:0:0:
375,292,20330,1,2,0:0:0:0:
462,344,20830,2,0,P|453:284|460:237,1,102.000001945496,2|2,3:2|0:0,0:0:0:0:
435,143,21830,1,2,0:0:0:0:
263,18,22830,6,0,L|369:4,2,102.000001945496,2|2|2,3:2|0:0|3:2,0:0:0:0:
167,54,24330,1,2,0:0:0:0:
231,132,24830,2,0,P|221:173|224:233,1,102.000001945496,2|2,3:2|3:2,0:0:0:0:
268,327,25830,1,2,3:0:0:0:
169,301,26330,2,0,P|131:299|116:302,1,51.0000009727478,2|2,3:2|0:0,0:0:0:0:
70,318,26830,6,0,P|71:246|37:163,1,153.000002918243,2|2,3:2|0:0,0:0:0:0:
19,125,27830,2,0,P|52:109|70:93,1,51.0000009727478,2|6,3:0|3:0,0:0:0:0:
104,70,28330,2,0,P|176:59|208:53,1,102.000001945496,2|2,3:2|3:0,0:0:0:0:
407,71,29830,1,6,3:0:0:0:
407,71,30330,1,4,1:3:0:0:
483,147,30830,6,0,L|492:31,2,107.999996704102,6|2|2,1:2|1:0|1:2,0:0:0:0:
486,265,32330,1,2,1:0:0:0:
369,285,32830,2,0,P|311:294|257:317,1,107.999996704102,2|2,3:0|0:0,0:0:0:0:
151,347,33830,1,2,0:0:0:0:
151,347,34330,1,2,3:2:0:0:
227,256,34830,1,2,3:0:0:0:
120,43,35830,2,0,L|1:48,2,107.999996704102,2|2|2,3:2|0:0|1:2,0:0:0:0:
356,64,37830,2,0,P|344:110|342:127,1,53.9999983520508,2|2,3:2|0:0,0:0:0:0:
389,154,38330,2,0,P|389:188|379:212,1,53.9999983520508,2|2,3:0|3:0,0:0:0:0:
347,255,38830,6,0,P|385:261|439:309,1,107.999996704102,6|2,1:2|3:0,0:0:0:0:
493,322,39580,2,0,P|449:324|378:349,1,107.999996704102,2|2,1:2|0:0,0:0:0:0:
329,354,40330,1,0,1:0:0:0:
255,260,40830,2,0,L|196:276,2,53.9999983520508,6|2|2,1:2|0:0|0:0,0:0:0:0:
282,207,41580,2,0,L|340:199,2,53.9999983520508,2|2|0,1:2|0:0|0:0,0:0:0:0:
254,160,42330,1,2,1:2:0:0:
190,69,42830,5,6,1:0:0:0:
78,109,43330,1,2,3:0:0:0:
39,154,43580,2,0,P|28:208|17:263,1,107.999996704102,2|2,1:0|3:3,0:0:0:0:
59,302,44330,1,2,3:3:0:0:
105,339,44580,1,2,0:0:0:0:
155,370,44830,2,0,P|203:355|273:354,1,107.999996704102,6|2,1:2|3:2,0:0:0:0:
318,363,45580,1,2,1:2:0:0:
413,212,46330,5,0,1:0:0:0:
409,152,46580,1,2,0:0:0:0:
363,113,46830,2,0,L|295:113,1,53.9999983520508,2|0,1:2|0:0,0:0:0:0:
193,141,47580,2,0,P|195:177|186:213,1,53.9999983520508,2|0,1:2|0:0,0:0:0:0:
161,245,48080,1,2,3:0:0:0:
190,296,48330,2,0,P|223:299|258:319,1,53.9999983520508,2|0,1:2|0:0,0:0:0:0:
292,337,48830,2,0,P|348:351|411:367,1,107.999996704102,2|2,1:2|0:0,0:0:0:0:
452,341,49580,1,2,1:2:0:0:
473,164,50330,5,2,0:0:0:0:
443,112,50580,1,2,0:0:0:0:
386,94,50830,2,0,P|352:96|326:91,1,53.9999983520508,6|0,3:0|0:0,0:0:0:0:
272,96,51330,2,0,P|228:139|206:188,1,107.999996704102,2|2,3:2|3:2,0:0:0:0:
236,295,52330,1,2,3:2:0:0:
345,249,52830,1,2,3:2:0:0:
315,133,53330,1,2,0:0:0:0:
203,174,53830,1,2,3:2:0:0:
203,174,54580,5,2,0:0:0:0:
203,174,54830,2,0,P|152:196|105:241,3,107.999996704102,2|2|2|2,1:2|1:2|1:2|1:0,0:0:0:0:
48,358,56830,6,0,P|39:291|-11:232,1,120,6|2,1:2|3:0,0:0:0:0:
15,170,57580,1,2,0:0:0:0:
76,116,57830,2,0,L|195:114,1,120,0|0,1:0|1:2,0:0:0:0:
260,60,58580,1,2,0:0:0:0:
260,60,58830,2,0,P|247:128|245:179,2,120,2|2|0,1:2|3:0|1:0,0:0:0:0:
421,107,60330,2,0,P|403:138|416:178,1,60,0|2,1:2|0:0,0:0:0:0:
457,227,60830,2,0,P|402:210|329:231,1,120,6|2,1:2|3:0,0:0:0:0:
276,275,61580,5,2,0:0:0:0:
208,325,61830,2,0,L|62:309,1,120,2|0,1:3|1:2,0:0:0:0:
189,177,62830,2,0,L|325:178,2,120,6|2|2,1:2|3:0|1:3,0:0:0:0:
152,101,64080,1,2,0:0:0:0:
152,101,64330,2,0,P|193:99|219:93,1,60,2|2,1:2|0:0,0:0:0:0:
280,47,64830,2,0,P|314:78|335:106,1,60,6|0,1:1|0:0,0:0:0:0:
432,215,65580,6,0,B|397:208|397:208|353:220,2,60,2|0|2,0:0|1:0|0:0,0:0:0:0:
504,172,66330,1,0,1:2:0:0:
466,96,66580,1,2,0:0:0:0:
392,137,66830,1,6,1:2:0:0:
353,298,67330,1,2,1:2:0:0:
190,255,67830,1,6,1:2:0:0:
39,330,68330,2,0,P|28:296|28:270,1,60,4|2,2:2|0:0,0:0:0:0:
27,187,68830,6,0,L|34:42,1,120,6|2,1:2|1:2,0:0:0:0:
115,49,69580,1,2,0:0:0:0:
139,129,69830,2,0,L|112:268,1,120,6|2,1:2|1:2,0:0:0:0:
257,338,70830,2,0,P|318:334|389:343,1,120,6|2,1:2|3:0,0:0:0:0:
463,196,71830,6,0,L|448:127,1,60,2|2,1:2|0:0,0:0:0:0:
423,50,72330,2,0,P|414:89|403:108,1,60,0|2,1:2|0:0,0:0:0:0:
321,121,72830,2,0,P|278:120|241:119,1,60,6|0,1:2|0:0,0:0:0:0:
96,85,73580,1,2,0:0:0:0:
38,146,73830,2,0,P|34:218|28:292,1,120,6|2,1:2|1:2,0:0:0:0:
110,290,74580,1,2,0:0:0:0:
110,290,74830,2,0,P|173:318|231:359,1,120,6|2,1:2|3:0,0:0:0:0:
381,370,75830,2,0,P|421:336|380:307,1,120,4|0,1:2|1:2,0:0:0:0:
487,178,76830,5,2,1:2:0:0:
264,58,77580,1,2,0:0:0:0:
184,32,77830,1,0,1:0:0:0:
132,98,78080,2,0,P|114:129|112:158,2,60,2|0|2,0:0|1:2|0:0,0:0:0:0:
191,157,78830,2,0,P|184:241|150:288,1,120,6|2,1:2|3:0,0:0:0:0:
29,172,79830,1,0,1:0:0:0:
138,299,80330,1,2,3:2:0:0:
217,259,80580,1,2,0:0:0:0:
281,312,80830,6,0,P|339:323|415:324,1,120,2|2,1:2|0:0,0:0:0:0:
462,358,82330,2,0,P|450:333|441:302,1,60,2|2,3:0|0:0,0:0:0:0:
477,226,82830,2,0,P|452:211|415:177,1,60,2|2,3:0|0:0,0:0:0:0:
415,107,83330,1,2,0:0:0:0:
261,39,83830,1,2,0:3:0:0:
100,233,84580,5,2,0:0:0:0:
20,260,84830,2,0,P|85:252|155:271,1,120,2|2,3:2|0:0,0:0:0:0:
209,306,85586,1,2,3:0:0:0:
365,269,86114,1,2,0:0:0:0:
408,199,86387,2,0,P|401:155|400:139,1,60,0|2,3:2|0:0,0:0:0:0:
402,55,86926,2,0,P|384:99|326:159,1,120,2|2,0:0|0:0,0:0:0:0:
202,68,88023,6,0,L|62:80,1,120,6|6,3:0|3:0,0:0:0:0:
67,192,89236,2,0,P|66:230|59:268,1,60,2|2,3:2|0:0,0:0:0:0:
38,317,89895,1,2,0:0:0:0:
38,317,90177,1,2,0:0:0:0:
174,329,90660,6,0,P|230:351|300:363,1,120,0|6,1:0|1:0,0:0:0:0:
324,278,91553,2,0,P|273:270|385:190,1,360,4|0,1:0|0:0,0:0:0:0:
476,33,94350,5,2,0:0:0:0:
476,33,94661,2,0,P|449:82|436:109,1,60,6|2,0:0|0:0,0:0:0:0:
401,132,95342,2,0,P|393:184|389:209,1,60,2|2,0:0|0:0,0:0:0:0:
356,237,95967,2,0,L|301:199,2,60,2|2|2,0:0|0:0|0:0,0:0:0:0:
450,314,97250,1,6,0:0:0:0:
485,198,97875,5,2,0:0:0:0:
492,138,98184,1,2,0:0:0:0:
501,78,98493,1,2,0:0:0:0:
390,58,99112,6,0,P|340:63|257:58,1,120,2|2,0:0|0:0,0:0:0:0:
161,43,100414,1,2,0:0:0:0:
97,103,101114,1,2,0:0:0:0:
110,157,101594,1,2,0:0:0:0:
121,189,102102,1,2,0:0:0:0:
148,231,102984,2,0,L|212:233,1,60,2|0,0:0|0:0,0:0:0:0:
235,288,105091,5,0,3:0:0:0:
