osu file format v14

[General]
AudioFilename: audio.mp3
AudioLeadIn: 0
PreviewTime: 6830
Countdown: 0
SampleSet: Soft
StackLeniency: 0.4
Mode: 0
LetterboxInBreaks: 0
WidescreenStoryboard: 0

[Editor]
DistanceSpacing: 0.8
BeatDivisor: 4
GridSize: 4
TimelineZoom: 2

[Metadata]
Title:Sandglass
TitleUnicode:Sandglass
Artist:M2U
ArtistUnicode:M2U
Creator:Hailie
Version:Hard
Source:Deemo
Tags:Swell ylvy
BeatmapID:1754502
BeatmapSetID:836286

[Difficulty]
HPDrainRate:5
CircleSize:4
OverallDifficulty:7
ApproachRate:7
SliderMultiplier:1.4
SliderTickRate:1

[Events]
//Background and Video events
0,0,"bg.jpg",0,0
//Break Periods
//Storyboard Layer 0 (Background)
//Storyboard Layer 1 (Fail)
//Storyboard Layer 2 (Pass)
//Storyboard Layer 3 (Foreground)
//Storyboard Sound Samples

[TimingPoints]
830,500,4,2,0,20,1,0
830,-181.818181818181,4,2,0,20,0,0
2330,-153.846153846153,4,2,0,20,0,0
6330,-133.333333333333,4,2,0,20,0,0
6830,-133.333333333333,4,2,0,10,0,0
8830,-133.333333333333,4,2,0,40,0,0
14821,-153.846153846153,4,2,0,40,0,0
14830,-153.846153846153,4,2,0,30,0,0
16955,-153.846153846153,4,2,0,20,0,0
18830,-133.333333333333,4,2,0,30,0,0
30830,-111.111111111111,4,2,0,40,0,0
35330,-111.111111111111,4,2,0,30,0,0
36830,-111.111111111111,4,2,0,40,0,0
38830,-111.111111111111,4,2,0,50,0,0
50330,-111.111111111111,4,2,0,40,0,0
53705,-111.111111111111,4,2,0,30,0,0
55330,-100,4,2,0,40,0,0
55830,-90.9090909090909,4,2,0,50,0,0
56330,-83.3333333333333,4,2,0,60,0,0
56830,-90.9090909090909,4,2,0,60,0,1
57330,-90.9090909090909,4,2,0,60,0,0
81330,-90.9090909090909,4,2,0,50,0,0
84830,-90.9090909090909,4,2,0,40,0,0
85330,512.820512820513,4,2,0,40,1,0
85586,-109.289617486339,4,2,0,40,0,0
85842,545.455555555556,4,2,0,40,1,0
86387,541.76072234763,4,2,0,40,1,0
86657,538.116591928251,4,2,0,40,1,0
87464,570.884871550904,4,2,0,40,1,0
88023,582.52427184466,4,2,0,40,1,0
88605,631.578947368421,4,2,0,40,1,0
89236,659.340659340659,4,2,0,40,1,0
89895,564.705882352941,4,2,0,40,1,0
90459,402.684563758389,4,2,0,50,1,0
90660,423.280423280423,4,2,0,50,1,0
91084,468.75,4,2,0,60,1,0
91553,621.761658031088,4,2,0,60,1,0
91591,-125,4,2,0,60,0,0
94350,-125,4,2,0,50,0,0
94661,681.818181818182,4,2,0,30,1,0
95342,625,4,2,0,30,1,0
95967,645.161290322581,4,2,0,30,1,0
96612,638.297872340426,4,2,0,30,1,0
97250,625,4,2,0,30,1,0
97875,618.556701030928,4,2,0,30,1,0
99112,659.340659340659,4,2,0,30,1,0
99771,616.34074168798,4,2,0,30,1,0
100079,670.391061452514,4,2,0,30,1,0
100414,697.674418604651,4,2,0,40,1,0
100762,705.882352941176,4,2,0,30,1,0
101114,961.538461538462,4,2,0,30,1,0
101114,-66.6666666666667,4,2,0,30,0,0
101594,1010.49631578947,4,2,0,30,1,0
102102,1764.70588235294,4,2,0,20,1,0
102984,2105.26315789474,4,2,0,20,1,0
105091,2033.89830508475,4,2,0,20,1,0
105091,-200,4,2,0,20,0,0
106107,718.562874251497,4,2,0,10,1,0

[Colours]
Combo1 : 248,185,255
Combo2 : 91,255,133
Combo3 : 225,225,225
Combo4 : 255,251,174

[HitObjects]
470,59,830,6,0,P|436:67|393:86,1,77.0000023498536,2|2,0:0|0:0,0:0:0:0:
311,74,1830,1,2,0:0:0:0:
264,144,2330,2,0,P|241:130|231:108,1,45.4999979171754,2|0,0:0|0:0,0:0:0:0:
303,164,2830,6,0,L|304:231,1,45.4999979171754,2|2,3:2|0:0,0:0:0:0:
260,221,3330,2,0,L|260:267,1,45.4999979171754,2|2,3:2|0:0,0:0:0:0:
303,355,3830,5,0,3:2:0:0:
383,315,4080,1,2,0:0:0:0:
344,231,4330,1,2,3:2:0:0:
261,266,4580,1,2,0:0:0:0:
221,309,4830,6,0,L|122:313,2,90.9999958343508,4|2|2,3:0|0:0|0:0,0:0:0:0:
215,272,6330,2,0,L|184:203,1,52.5000020027161,2|0,3:2|0:0,0:0:0:0:
242,137,6830,5,2,0:0:0:0:
242,137,7080,1,2,0:0:0:0:
306,155,7330,1,2,0:0:0:0:
306,155,7580,1,2,0:0:0:0:
376,141,7830,1,2,0:0:0:0:
410,99,8330,1,2,0:0:0:0:
420,89,8830,6,0,L|420:176,1,78.7500030040742,6|2,0:0|0:0,0:0:0:0:
437,187,9330,1,2,3:2:0:0:
437,187,9580,1,2,0:3:0:0:
364,237,9830,6,0,L|364:324,1,78.7500030040742,4|2,0:3|0:0,0:0:0:0:
343,336,10330,1,2,3:2:0:0:
343,336,10580,1,2,0:3:0:0:
237,304,10830,6,0,P|206:301|144:307,1,78.7500030040742,4|2,0:3|0:0,0:0:0:0:
147,320,11330,1,2,3:2:0:0:
147,320,11580,1,2,0:3:0:0:
70,243,11830,6,0,L|60:180,1,52.5000020027161,4|2,0:3|3:2,0:0:0:0:
42,80,12330,1,2,3:2:0:0:
123,116,12580,1,6,3:3:0:0:
191,51,12830,6,0,L|278:47,1,78.7500030040742,4|2,0:3|0:0,0:0:0:0:
289,56,13330,1,2,3:2:0:0:
383,25,13580,1,2,0:3:0:0:
435,114,13830,6,0,P|444:163|425:189,1,78.7500030040742,6|0,3:0|0:0,0:0:0:0:
397,202,14330,2,0,P|380:238|378:273,1,52.5000020027161,6|6,3:0|3:0,0:0:0:0:
398,333,14830,6,0,P|373:315|344:304,2,45.4999979171754,2|2|2,0:0|0:0|0:0,0:0:0:0:
307,316,15580,2,0,P|266:328|251:326,2,45.4999979171754,2|2|2,3:0|0:0|0:0,0:0:0:0:
226,309,16330,1,2,0:0:0:0:
162,350,16580,1,2,3:0:0:0:
131,337,16830,2,0,L|118:317,7,22.7499989585877,0|2|2|2|2|2|2|2,0:0|0:0|0:0|0:0|0:0|0:0|0:0|0:0,0:0:0:0:
99,304,17830,2,0,L|99:260,6,22.7499989585877,2|2|2|2|2|2|2,3:2|0:0|3:2|0:0|3:2|0:0|0:0,0:0:0:0:
54,221,18830,5,6,0:0:0:0:
92,188,19330,1,2,0:0:0:0:
131,158,19830,1,2,0:0:0:0:
171,123,20330,1,2,0:0:0:0:
209,94,20830,2,0,L|206:155,1,52.5000020027161,2|0,3:2|0:0,0:0:0:0:
231,178,21330,2,0,L|235:241,1,52.5000020027161,2|2,0:0|0:0,0:0:0:0:
191,250,21830,2,0,L|186:308,2,52.5000020027161,2|2|0,0:0|3:2|0:0,0:0:0:0:
197,330,22830,5,2,3:2:0:0:
252,331,23330,1,2,0:0:0:0:
303,336,23830,1,2,3:2:0:0:
355,350,24330,1,2,0:0:0:0:
396,336,24830,2,0,P|392:312|394:271,1,52.5000020027161,2|0,3:2|0:0,0:0:0:0:
416,258,25330,2,0,P|407:221|396:188,1,52.5000020027161,2|2,3:2|0:0,0:0:0:0:
424,167,25830,2,0,P|419:126|419:100,1,52.5000020027161,2|2,3:0|0:0,0:0:0:0:
355,60,26330,1,2,3:2:0:0:
283,100,26580,1,2,0:0:0:0:
245,94,26830,6,0,P|203:127|91:97,1,157.500006008148,2|2,3:2|0:0,0:0:0:0:
66,153,27830,2,0,P|69:107|38:43,2,105.000004005432,2|2|2,3:0|3:2|3:0,0:0:0:0:
58,191,29830,1,6,3:0:0:0:
204,151,30330,1,4,1:3:0:0:
233,79,30830,6,0,L|225:227,2,125.999996154785,6|2|2,1:2|1:0|1:2,0:0:0:0:
201,32,32330,2,0,P|186:65|184:99,1,62.9999980773926,2|2,1:0|0:0,0:0:0:0:
256,157,32830,2,0,L|336:150,1,62.9999980773926,2|2,3:0|0:0,0:0:0:0:
238,200,33330,2,0,L|155:193,1,62.9999980773926,2|2,0:0|0:0,0:0:0:0:
266,244,33830,1,2,0:0:0:0:
213,340,34330,1,2,3:2:0:0:
213,340,34580,1,2,3:0:0:0:
247,343,34830,6,0,L|391:373,1,125.999996154785,2|2,3:0|0:0,0:0:0:0:
406,363,35830,1,2,3:2:0:0:
317,322,36330,1,2,0:0:0:0:
219,358,36830,2,0,P|187:287|268:143,1,251.999992309571,2|2,1:2|3:2,0:0:0:0:
171,186,38330,1,2,3:0:0:0:
93,143,38580,1,2,3:0:0:0:
54,62,38830,6,0,P|41:151|71:194,1,125.999996154785,6|2,1:2|3:0,0:0:0:0:
98,265,39580,2,0,P|82:197|99:129,1,125.999996154785,2|2,1:2|0:0,0:0:0:0:
178,63,40330,2,0,P|185:102|178:166,1,94.499997116089,0|0,1:0|0:0,0:0:0:0:
210,148,40830,1,6,1:2:0:0:
315,130,41080,1,2,0:0:0:0:
385,69,41330,2,0,L|367:146,2,62.9999980773926,2|2|2,0:0|1:2|0:0,0:0:0:0:
386,156,42330,2,0,L|396:271,1,94.499997116089,2|0,1:2|0:0,0:0:0:0:
417,270,42830,5,6,1:0:0:0:
417,270,43580,2,0,P|356:315|314:361,1,125.999996154785,2|2,1:0|3:3,0:0:0:0:
250,323,44330,1,2,3:3:0:0:
188,369,44580,1,2,0:0:0:0:
106,344,44830,2,0,P|79:307|66:272,1,62.9999980773926,6|0,1:2|0:0,0:0:0:0:
9,338,45330,2,0,P|31:291|41:190,1,125.999996154785,2|0,3:2|0:0,0:0:0:0:
53,210,46330,5,0,1:0:0:0:
112,118,46580,1,2,0:0:0:0:
59,52,46830,2,0,P|98:133|141:195,1,157.499995193482,2|0,1:2|0:0,0:0:0:0:
153,176,47580,2,0,P|207:249|218:283,1,125.999996154785,2|0,1:2|0:0,0:0:0:0:
271,338,48330,2,0,P|257:274|257:242,1,94.499997116089,2|0,1:2|0:0,0:0:0:0:
261,215,48830,2,0,P|273:249|298:284,2,62.9999980773926,2|2|2,1:2|0:0|0:0,0:0:0:0:
319,137,49580,2,0,P|252:127|308:57,1,188.999994232178,2|2,1:2|0:0,0:0:0:0:
402,87,50580,5,2,0:0:0:0:
418,172,50830,1,6,3:0:0:0:
469,158,51330,2,0,L|479:205,3,31.4999990386963,2|0|2|0,3:2|0:0|0:0|0:0,0:0:0:0:
481,214,51830,2,0,L|475:343,1,125.999996154785,2|2,3:2|3:2,0:0:0:0:
440,351,52830,1,2,3:2:0:0:
411,346,53330,1,2,0:0:0:0:
368,337,53830,1,2,3:2:0:0:
315,323,54580,5,2,0:0:0:0:
261,308,54830,2,0,P|175:308|149:307,1,94.499997116089,2|0,1:2|0:0,0:0:0:0:
221,282,55330,2,0,P|265:276|336:261,1,105,2|0,1:2|0:0,0:0:0:0:
290,232,55830,2,0,P|213:221|152:213,1,115.50000352478,2|0,1:2|0:0,0:0:0:0:
178,170,56330,2,0,P|237:157|311:144,1,125.999996154785,2|0,1:0|0:0,0:0:0:0:
376,78,56830,6,0,P|406:162|449:232,1,154.000004699707,6|2,1:2|3:0,0:0:0:0:
487,147,57580,1,2,0:0:0:0:
442,252,57830,2,0,P|368:318|306:376,1,154.000004699707,0|0,1:0|1:2,0:0:0:0:
258,322,58580,1,2,0:0:0:0:
176,303,58830,2,0,L|0:354,2,154.000004699707,2|2|0,1:2|3:0|1:0,0:0:0:0:
143,190,60080,1,0,0:0:0:0:
143,190,60330,2,0,P|125:137|102:80,1,115.50000352478,0|2,1:2|0:0,0:0:0:0:
92,59,60830,2,0,P|77:151|81:222,1,154.000004699707,6|2,1:2|3:0,0:0:0:0:
173,168,61580,5,2,0:0:0:0:
266,213,61830,2,0,P|327:198|306:117,1,154.000004699707,2|0,1:3|1:2,0:0:0:0:
228,104,62580,1,2,0:0:0:0:
349,144,62830,1,6,1:2:0:0:
448,67,63330,1,2,3:0:0:0:
353,165,63830,2,0,P|355:219|363:290,1,115.50000352478,2|0,1:3|0:0,0:0:0:0:
382,291,64330,2,0,P|313:267|259:242,1,115.50000352478,2|0,1:2|0:0,0:0:0:0:
261,231,64830,2,0,P|235:318|286:358,1,154.000004699707,6|2,1:1|3:0,0:0:0:0:
196,335,65580,5,2,0:0:0:0:
131,289,65830,1,0,1:0:0:0:
161,216,66080,1,2,0:0:0:0:
113,151,66330,1,0,1:2:0:0:
168,94,66580,1,2,0:0:0:0:
240,129,66830,2,0,P|309:51|288:21,2,154.000004699707,6|2|6,1:2|1:2|1:2,0:0:0:0:
324,128,68330,2,0,P|268:149|254:205,1,115.50000352478,4|0,2:2|0:0,0:0:0:0:
256,223,68830,2,0,P|351:203|415:206,1,154.000004699707,6|2,1:2|1:2,0:0:0:0:
405,112,69580,1,2,0:0:0:0:
501,184,69830,2,0,P|449:265|399:300,1,154.000004699707,6|2,1:2|1:2,0:0:0:0:
494,278,70580,1,2,0:0:0:0:
378,320,70830,2,0,B|302:322|279:358|195:342,1,154.000004699707,6|2,1:2|3:0,0:0:0:0:
182,339,71830,6,0,P|132:358|108:373,2,77.0000023498536,2|2|0,1:2|0:0|1:2,0:0:0:0:
126,313,72580,1,2,0:0:0:0:
123,217,72830,2,0,P|83:298|6:337,1,154.000004699707,6|2,1:2|3:0,0:0:0:0:
61,257,73580,1,2,0:0:0:0:
153,182,73830,2,0,P|213:172|267:243,1,154.000004699707,6|2,1:2|1:2,0:0:0:0:
269,158,74580,1,2,0:0:0:0:
303,267,74830,2,0,B|352:267|367:209|379:175|423:161,1,154.000004699707,6|2,1:2|3:0,0:0:0:0:
457,80,75580,1,2,0:0:0:0:
323,76,75830,2,0,P|253:87|174:146,1,154.000004699707,4|0,1:2|1:2,0:0:0:0:
110,190,76580,1,2,0:0:0:0:
164,84,76830,5,2,1:2:0:0:
186,133,77580,2,0,L|190:222,2,77.0000023498536,2|0|2,0:0|1:0|0:0,0:0:0:0:
157,215,78330,1,0,1:2:0:0:
207,324,78580,1,2,0:0:0:0:
251,298,78830,2,0,P|315:288|420:333,1,154.000004699707,6|2,1:2|3:0,0:0:0:0:
429,267,79580,1,2,0:0:0:0:
418,249,79705,1,0,0:0:0:0:
396,242,79830,2,0,P|355:172|385:91,1,154.000004699707,0|2,1:0|3:2,0:0:0:0:
357,77,80580,1,2,0:0:0:0:
336,110,80830,6,0,P|328:205|319:292,1,154.000004699707,2|2,1:2|0:0,0:0:0:0:
372,273,81580,1,2,0:0:0:0:
372,273,81830,1,2,0:0:0:0:
302,291,82330,1,2,3:0:0:0:
262,276,82580,1,2,0:0:0:0:
224,282,82830,1,2,3:0:0:0:
196,296,83080,1,2,0:0:0:0:
166,301,83330,1,2,0:0:0:0:
133,289,83580,1,2,0:0:0:0:
117,265,83830,2,0,P|115:198|156:109,1,154.000004699707,2|2,0:3|3:0,0:0:0:0:
227,114,84580,5,2,0:0:0:0:
234,32,84830,2,0,P|239:102|231:193,1,154.000004699707,2|2,3:2|0:0,0:0:0:0:
220,266,85586,2,0,P|272:226|281:223,1,64.0499988516426,2|0,3:0|0:0,0:0:0:0:
343,175,86114,1,0,0:0:0:0:
429,190,86387,1,0,3:2:0:0:
495,127,86657,1,2,0:0:0:0:
497,47,86926,2,0,P|482:106|491:194,1,140,2|2,0:0|0:0,0:0:0:0:
491,278,87749,5,2,0:0:0:0:
477,307,88023,2,0,P|394:307|317:334,1,140,6|6,3:0|3:0,0:0:0:0:
331,356,88920,1,2,3:0:0:0:
233,351,89236,2,0,P|164:357|138:359,1,70,2|2,3:2|0:2,0:0:0:0:
136,242,89895,1,2,0:0:0:0:
136,242,90271,2,0,P|115:275|107:301,1,46.6666666666667,2|0,0:0|0:0,0:0:0:0:
184,217,90660,6,0,P|162:162|121:111,1,105,4|0,1:0|0:0,0:0:0:0:
96,106,91084,2,0,P|165:102|213:85,1,105,6|2,1:0|0:0,0:0:0:0:
292,43,91553,2,0,P|206:108|387:138,1,420,4|0,1:0|0:0,0:0:0:0:
424,169,94350,5,2,0:0:0:0:
424,200,94506,1,2,0:0:0:0:
451,238,94661,2,0,L|432:309,2,70,6|2|2,0:0|0:0|0:0,0:0:0:0:
392,330,95654,1,2,0:0:0:0:
338,338,95967,2,0,L|247:353,2,70,2|2|2,0:0|0:0|0:0,0:0:0:0:
275,370,96931,1,2,0:0:0:0:
229,346,97250,2,0,P|162:353|101:360,1,105,6|0,0:0|0:0,0:0:0:0:
90,313,97875,5,2,0:0:0:0:
80,288,98184,1,2,0:0:0:0:
62,238,98493,1,2,0:0:0:0:
93,156,99112,1,2,0:0:0:0:
99,193,99441,1,2,0:0:0:0:
109,235,99771,1,2,0:0:0:0:
138,263,100079,2,0,L|196:279,1,35,2|0,0:0|0:0,0:0:0:0:
199,254,100414,2,0,L|217:304,1,35,2|0,0:0|0:0,0:0:0:0:
256,303,100762,2,0,L|255:363,1,35,2|0,0:0|0:0,0:0:0:0:
300,358,101114,2,0,P|341:354|396:363,1,78.7500030040742,2|0,0:0|0:0,0:0:0:0:
413,371,101594,2,0,P|429:325|437:303,1,70,2|2,0:0|0:0,0:0:0:0:
461,286,102763,1,2,0:0:0:0:
473,243,105091,2,0,L|471:266,1,17.5,0|0,3:0|0:0,0:0:0:0:
