osu file format v14

[General]
AudioFilename: audio.mp3
AudioLeadIn: 0
PreviewTime: 56705
Countdown: 0
SampleSet: Soft
StackLeniency: 0.2
Mode: 0
LetterboxInBreaks: 0
WidescreenStoryboard: 1

[Editor]
DistanceSpacing: 1.1
BeatDivisor: 8
GridSize: 4
TimelineZoom: 3.399999

[Metadata]
Title:Sandglass
TitleUnicode:Sandglass
Artist:M2U
ArtistUnicode:M2U
Creator:Batatin
Version:Melody
Source:DEEMO
Tags:deemo instrumental vgm piano classical video game videogame english wafer goopert clubber chigamymommy collab collaboration
BeatmapID:2799209
BeatmapSetID:1344173

[Difficulty]
HPDrainRate:5
CircleSize:4.2
OverallDifficulty:8.8
ApproachRate:9
SliderMultiplier:2.2
SliderTickRate:1

[Events]
//Background and Video events
0,0,"bg.jpg",0,0
//Break Periods
//Storyboard Layer 0 (Background)
//Storyboard Layer 1 (Fail)
//Storyboard Layer 2 (Pass)
//Storyboard Layer 3 (Foreground)
//Storyboard Layer 4 (Overlay)
//Storyboard Sound Samples

[TimingPoints]
815,500,4,2,0,30,1,0
815,-133.333333333333,4,2,0,30,0,0
5815,-117.647058823529,4,2,0,30,0,0
6815,-117.647058823529,4,2,0,20,0,0
7815,-100,4,2,0,20,0,0
8815,-68.9655172413793,4,2,0,45,0,0
12065,-60.6060606060606,4,2,0,45,0,0
12315,-54.054054054054,4,2,0,48,0,0
12565,-400,4,2,0,48,0,0
12815,-54.054054054054,4,2,0,45,0,0
13190,-68.9655172413793,4,2,0,45,0,0
13815,-54.054054054054,4,2,0,45,0,0
14190,-68.9655172413793,4,2,0,45,0,0
14815,-68.9655172413793,4,2,0,30,0,0
16565,-117.647058823529,4,2,0,30,0,0
18815,-117.647058823529,4,2,0,35,0,0
20315,-222.222222222222,4,2,0,35,0,0
20565,-117.647058823529,4,2,0,35,0,0
30752,-68.9655172413793,4,2,0,35,0,0
30815,-68.9655172413793,4,2,0,45,0,0
32315,-100,4,2,0,45,0,0
34815,-68.9655172413793,4,2,0,40,0,0
36815,-68.9655172413793,4,2,0,45,0,0
38815,-68.9655172413793,4,2,0,50,0,0
50315,-117.647058823529,4,2,0,50,0,0
50815,-117.647058823529,4,2,0,40,0,0
54815,-222.222222222222,4,2,0,40,0,0
55315,-117.647058823529,4,2,0,45,0,0
55815,-80,4,2,0,50,0,0
56315,-68.9655172413793,4,2,0,50,0,0
56815,-60.6060606060606,4,2,0,60,0,1
62815,-54.054054054054,4,2,0,60,0,1
63315,-60.6060606060606,4,2,0,60,0,1
64815,-117.647058823529,4,2,0,60,0,1
65315,-60.6060606060606,4,2,0,60,0,1
66815,-54.054054054054,4,2,0,60,0,1
67315,-50,4,2,0,60,0,1
67815,-400,4,2,0,60,0,1
68315,-400,4,2,0,52,0,1
68815,-60.6060606060606,4,2,0,60,0,1
71815,-100,4,2,0,60,0,1
72065,-80,4,2,0,60,0,1
72315,-60.6060606060606,4,2,0,60,0,1
74815,-80,4,2,0,60,0,1
75815,-153.846153846154,4,2,0,60,0,1
76815,-100,4,2,0,50,0,0
77815,-117.647058823529,4,2,0,50,0,0
78065,-100,4,2,0,53,0,0
78315,-80,4,2,0,55,0,0
78565,-68.9655172413793,4,2,0,58,0,0
78815,-60.6060606060606,4,2,0,62,0,0
79815,-400,4,2,0,62,0,0
80315,-117.647058823529,4,2,0,62,0,0
80815,-117.647058823529,4,2,0,40,0,0
85252,-117.647058823529,4,2,1,5,0,0
85330,512.820512820513,4,2,0,40,1,0
85330,-133.333333333333,4,2,0,40,0,0
85778,-117.647058823529,4,2,1,5,0,0
85842,545.455555555556,4,2,0,40,1,0
86319,-117.647058823529,4,2,1,5,0,0
86387,541.76072234763,4,2,0,40,1,0
86657,538.116591928251,4,2,0,40,1,0
86926,-100,4,2,0,35,0,0
87464,570.884871550904,4,2,0,40,1,0
88023,582.52427184466,4,2,0,30,1,0
88605,631.578947368421,4,2,0,30,1,0
89236,659.340659340659,4,2,0,30,1,0
89895,564.705882352941,4,2,0,30,1,0
90459,402.684563758389,4,2,0,30,1,0
90660,423.280423280423,4,2,0,40,1,0
90660,-68.9655172413793,4,2,0,40,0,0
91084,468.75,4,2,0,40,1,0
91084,-68.9655172413793,4,2,0,40,0,0
91553,621.761658031088,5,2,0,40,1,0
91553,-1000,4,2,0,40,0,0
92174,-1000,4,2,1,25,0,0
92796,-1000,4,2,0,15,0,0
93418,-1000,4,2,1,5,0,0
94350,-100,4,2,0,30,0,0
94661,681.818181818182,4,2,0,30,1,0
94661,-100,4,2,0,30,0,0
95342,625,4,2,0,30,1,0
95967,645.161290322581,4,2,0,30,1,0
96612,638.297872340426,4,2,0,30,1,0
97250,625,4,2,0,30,1,0
97875,618.556701030928,4,2,0,30,1,0
99112,659.340659340659,4,2,0,30,1,0
99771,616.34074168798,4,2,0,30,1,0
100079,670.391061452514,4,2,0,30,1,0
100414,697.674418604651,4,2,0,40,1,0
100762,705.882352941176,4,2,0,30,1,0
101114,961.538461538462,4,2,0,30,1,0
101594,1010.49631578947,4,2,0,30,1,0
102102,1764.70588235294,4,2,0,20,1,0
102102,-100,4,2,0,30,0,0
102984,2105.26315789474,4,2,0,20,1,0
105091,2033.89830508475,4,2,0,20,1,0
106107,718.562874251497,4,2,0,20,1,0

[Colours]
Combo1 : 184,153,204
Combo2 : 255,156,108
Combo3 : 240,219,100
Combo4 : 168,204,204

[HitObjects]
406,55,815,5,2,0:0:0:0:
343,166,1190,1,0,0:0:0:0:
346,182,1315,1,2,0:0:0:0:
430,143,1815,5,2,0:0:0:0:
271,198,2190,1,0,0:0:0:0:
304,267,2315,1,2,0:0:0:0:
158,237,2752,5,2,0:0:0:0:
158,237,2815,1,2,0:0:0:0:
237,296,3065,1,2,0:0:0:0:
156,354,3315,1,2,0:0:0:0:
78,291,3565,1,2,0:0:0:0:
159,159,3752,5,2,0:0:0:0:
159,159,3815,1,2,0:0:0:0:
65,105,4065,1,2,0:0:0:0:
119,12,4315,1,2,0:0:0:0:
211,66,4565,1,2,0:0:0:0:
271,198,4815,6,0,P|356:206|406:153,1,123.750004720688,2|0,0:3|0:0,0:0:0:0:
389,158,5315,2,0,P|443:132|502:146,1,123.750004720688,2|0,0:3|0:0,0:0:0:0:
438,268,5815,6,0,B|393:291|393:291|368:330|368:330|326:349,1,140.250002675057,2|0,0:0|0:0,0:0:0:0:
174,214,6315,2,0,B|202:247|202:247|208:293|208:293|238:333,1,140.250002675057,2|0,0:3|0:0,0:0:0:0:
297,266,6815,5,2,0:0:0:0:
303,259,7065,1,0,0:0:0:0:
296,252,7315,1,0,0:0:0:0:
163,355,7565,1,0,0:0:0:0:
54,245,7752,5,0,0:0:0:0:
54,245,7815,2,0,B|85:217|85:217|88:88,1,165,2|0,0:0|0:0,0:0:0:0:
202,11,8315,2,2,B|171:39|171:39|168:168,1,165,2|0,0:0|0:0,0:1:0:0:
301,306,8815,6,0,B|273:262|228:253|235:285|189:277|165:242,1,159.500004867554,6|0,1:0|0:0,0:0:0:0:
267,145,9190,5,2,0:0:0:0:
283,136,9315,2,0,P|327:132|362:146,1,79.7500024337769,2|0,1:0|0:0,0:0:0:0:
463,314,9565,2,0,L|476:220,1,79.7500024337769,2|0,1:0|0:0,0:0:0:0:
441,9,9815,6,0,B|412:52|423:96|449:77|461:122|440:159,1,159.500004867554,2|2,1:0|0:0,0:0:0:0:
362,260,10190,5,2,0:0:0:0:
348,275,10315,2,0,P|302:262|274:233,1,79.7500024337769,2|0,1:0|0:0,0:0:0:0:
198,47,10565,2,0,L|180:140,1,79.7500024337769,2|0,1:0|0:0,0:0:0:0:
47,269,10815,6,0,P|120:231|209:275,1,159.500004867554,2|2,1:0|0:0,0:0:0:0:
289,360,11190,5,2,0:0:0:0:
306,363,11315,2,0,P|362:348|385:316,1,79.7500024337769,2|0,1:0|0:0,0:0:0:0:
367,171,11565,2,0,P|338:221|344:260,1,79.7500024337769,2|0,1:0|0:0,0:0:0:0:
512,290,11815,6,0,P|481:265|442:260,1,79.7500024337769,2|0,0:1|0:0,0:0:0:0:
445,135,12065,2,0,P|405:139|363:175,1,90.7500008654595,2|0,1:0|0:0,0:0:0:0:
271,103,12315,2,0,P|246:133|246:197,1,101.749999611855,2|0,0:1|0:0,0:0:0:0:
372,319,12565,6,0,L|376:338,1,13.75,2|0,1:0|0:0,0:0:0:0:
386,359,12815,6,0,B|333:327|272:352|302:370|245:400|177:360,1,203.499999223709,6|0,1:0|0:0,0:0:0:0:
45,200,13190,5,2,0:0:0:0:
57,182,13315,2,0,P|102:181|135:204,1,79.7500024337769,2|0,1:0|0:0,0:0:0:0:
106,301,13565,2,0,P|66:303|32:284,1,79.7500024337769,2|0,1:0|0:0,0:0:0:0:
223,97,13815,6,0,P|237:193|236:316,1,203.499999223709,6|0,1:0|0:0,0:0:0:0:
270,196,14190,5,2,0:0:0:0:
286,185,14315,2,0,P|340:186|371:208,1,79.7500024337769,6|0,1:0|0:0,0:0:0:0:
386,359,14565,2,0,P|355:333|342:296,1,79.7500024337769,2|0,0:0|0:0,0:0:0:0:
459,217,14815,5,2,0:3:0:0:
475,225,15065,1,2,0:0:0:0:
436,87,15315,5,2,0:0:0:0:
502,144,15502,5,0,0:0:0:0:
502,144,15565,1,2,3:0:0:0:
303,105,15815,5,2,0:0:0:0:
375,9,16065,1,2,0:0:0:0:
377,154,16315,5,2,0:0:0:0:
286,24,16565,2,0,P|232:29|186:64,1,93.500001783371,2|0,0:3|0:0,0:0:0:0:
206,161,16940,5,0,0:0:0:0:
194,153,17065,1,0,0:0:0:0:
180,148,17190,1,0,0:0:0:0:
124,201,17315,5,2,0:0:0:0:
141,244,17440,1,0,0:0:0:0:
181,267,17565,1,0,0:0:0:0:
227,262,17690,1,0,0:0:0:0:
264,233,17815,6,0,L|270:174,1,46.7500008916855,2|0,0:0|0:0,0:0:0:0:
410,149,18065,1,0,0:0:0:0:
391,150,18190,1,0,0:0:0:0:
372,149,18315,2,0,L|366:90,1,46.7500008916855,2|0,0:0|0:0,0:0:0:0:
365,248,18565,2,0,L|360:294,1,46.7500008916855
275,109,18815,5,2,0:1:0:0:
199,72,19065,1,0,0:0:0:0:
138,130,19315,1,2,0:1:0:0:
60,24,19565,5,0,0:0:0:0:
138,130,19815,2,0,L|127:222,1,93.500001783371,2|0,0:0|0:0,0:0:0:0:
300,141,20315,6,0,L|294:91,1,49.4999984893799
221,194,20648,5,2,0:0:0:0:
224,227,20731,1,2,0:0:0:0:
226,261,20815,2,0,P|276:259|324:285,1,93.500001783371,2|0,0:1|0:0,0:0:0:0:
344,354,21315,5,2,0:0:0:0:
315,277,21565,1,0,0:0:0:0:
454,277,21815,1,2,0:0:0:0:
454,277,22065,2,0,P|419:248|371:234,1,93.500001783371,2|0,0:0|0:0,0:0:0:0:
482,123,22752,5,0,0:0:0:0:
482,123,22815,1,2,0:1:0:0:
409,166,23065,1,0,0:0:0:0:
324,162,23315,1,2,0:1:0:0:
265,101,23565,1,0,0:0:0:0:
349,87,23815,6,0,L|408:71,1,46.7500008916855,2|0,0:0|0:0,0:0:0:0:
237,175,24065,2,0,B|186:134|116:169|151:210|83:243|3:189,1,233.750004458428,2|0,0:0|0:0,0:0:0:0:
21,175,24752,5,2,0:0:0:0:
21,175,24815,2,0,L|41:75,1,93.500001783371,2|0,0:1|0:0,0:0:0:0:
135,153,25315,5,2,0:0:0:0:
185,220,25565,1,2,0:0:0:0:
133,286,25815,1,2,0:0:0:0:
199,234,26065,1,2,0:0:0:0:
279,258,26315,1,2,0:0:0:0:
309,336,26565,5,2,0:0:0:0:
319,349,26690,1,0,0:0:0:0:
329,362,26815,2,0,P|408:345|418:267,1,140.250002675057,2|0,0:1|0:0,0:0:0:0:
369,220,27315,5,2,0:0:0:0:
425,295,27565,1,2,0:0:0:0:
475,163,27752,5,0,0:0:0:0:
475,163,27815,1,2,0:1:0:0:
503,319,28065,1,2,0:0:0:0:
369,220,28315,6,0,B|322:204|322:204|260:231,1,93.500001783371,2|0,0:0|0:0,0:0:0:0:
151,329,28752,1,2,0:0:0:0:
151,329,28815,2,0,B|198:345|198:345|238:327,1,93.500001783371,2|2,0:1|0:0,0:0:0:0:
194,218,29315,5,2,0:0:0:0:
112,196,29565,1,0,0:0:0:0:
178,145,29815,1,2,0:1:0:0:
207,255,30065,5,2,0:0:0:0:
103,122,30315,1,2,0:1:0:0:
32,274,30565,1,2,0:3:0:0:
253,187,30752,5,0,0:0:0:0:
253,187,30815,2,0,B|304:185|335:167|335:167|397:193|397:193|441:171|495:167,1,239.250007301331,2|0,1:0|0:0,0:0:0:0:
508,143,31315,6,0,B|519:119|519:119|423:129|423:129|453:183|467:254,1,239.250007301331,2|0,0:1|0:0,0:0:0:0:
449,331,31815,6,0,B|397:296|328:316|351:378|288:398|200:347,1,239.250007301331,2|0,0:1|0:0,0:0:0:0:
232,259,32315,6,0,P|255:272|273:293,1,55,2|0,0:1|0:0,0:0:0:0:
326,171,32565,2,0,P|333:198|331:225,1,55
204,162,32815,5,2,0:0:0:0:
331,224,33065,1,0,0:0:0:0:
189,175,33315,5,2,0:0:0:0:
270,112,33565,1,0,0:0:0:0:
146,242,33815,6,0,P|81:194|86:111,1,165,2|0,0:0|0:0,0:0:0:0:
152,37,34315,6,0,P|179:31|207:33,1,55,2|0,0:0|0:0,0:0:0:0:
269,111,34565,2,0,P|297:114|324:108,1,55,2|0,0:0|0:0,0:0:0:0:
439,64,34815,6,0,B|435:-8|330:-1|319:84|343:150|415:172,1,239.250007301331,2|0,0:0|0:0,0:0:0:0:
401,168,35315,5,0,0:0:0:0:
480,212,35565,1,0,0:0:0:0:
348,284,35815,5,2,0:0:0:0:
473,300,36065,1,0,0:0:0:0:
307,200,36315,5,2,0:0:0:0:
396,353,36565,1,0,0:0:0:0:
266,272,36815,6,2,B|220:231|155:246|155:246|115:302|37:277,1,239.250007301331,2|0,0:0|0:0,0:1:0:0:
80,194,37315,6,0,P|73:154|37:118,1,79.7500024337769
100,126,37565,2,0,P|66:102|15:102,1,79.7500024337769
175,5,37815,6,0,P|136:11|105:36,1,79.7500024337769,2|0,0:0|0:0,0:0:0:0:
251,111,38065,2,0,P|218:88|179:84,1,79.7500024337769,2|0,0:0|0:0,0:0:0:0:
181,174,38315,6,0,P|157:205|153:245,1,79.7500024337769,2|0,0:0|0:0,0:0:0:0:
276,203,38565,2,0,P|315:195|346:171,1,79.7500024337769,2|0,0:0|0:0,0:0:0:0:
322,23,38815,6,0,B|396:60|396:60|419:131|419:131|503:175,1,239.250007301331,6|0,1:0|0:0,0:0:0:0:
487,262,39315,6,0,P|431:243|396:254,1,79.7500024337769,2|0,0:0|0:0,0:0:0:0:
313,348,39565,2,0,P|387:316|295:233,1,239.250007301331,2|0,1:0|0:0,0:0:0:0:
191,263,40065,6,0,P|193:293|176:269,1,79.7500024337769,2|0,0:0|0:0,0:0:0:0:
176,115,40315,2,2,B|146:185|180:250|226:210|255:286|222:357,1,239.250007301331,2|0,0:1|0:0,0:1:0:0:
49,217,40815,6,2,B|57:176|57:176|91:205,1,79.7500024337769,2|0,0:0|0:0,0:1:0:0:
161,322,41065,2,2,B|132:346|132:346|124:305,1,79.7500024337769,2|0,0:0|0:0,0:1:0:0:
176,115,41315,2,2,B|210:91|210:91|214:136,1,79.7500024337769,2|0,0:0|0:0,0:1:0:0:
295,236,41565,2,2,B|292:274|292:274|258:251,1,79.7500024337769,2|0,0:0|0:0,0:1:0:0:
328,124,41815,2,0,B|378:99|414:41|414:41|424:108|475:180,1,239.250007301331,2|0,0:1|0:0,0:0:0:0:
485,272,42315,6,0,P|435:257|388:270,1,79.7500024337769,2|0,0:1|0:0,0:0:0:0:
351,358,42565,2,0,P|311:360|274:346,1,79.7500024337769,2|0,0:1|0:0,0:0:0:0:
194,204,42815,2,0,B|239:179|315:208|275:254|340:288|410:258,1,239.250007301331,6|0,1:0|0:0,0:0:0:0:
279,111,43315,6,0,P|252:143|248:208,1,79.7500024337769,2|0,0:0|0:0,0:0:0:0:
155,327,43565,2,0,P|189:247|74:275,1,239.250007301331,2|0,1:0|0:0,0:0:0:0:
60,331,44065,6,0,P|22:314|-4:254,1,79.7500024337769,2|0,0:0|0:0,0:0:0:0:
41,157,44315,2,2,B|107:112|173:116|144:158|232:156|278:101,1,239.250007301331,2|2,0:1|0:0,0:1:0:0:
203,59,44815,6,2,P|233:18|291:7,1,79.7500024337769,2|0,0:0|0:0,0:1:0:0:
377,76,45065,2,0,P|370:127|344:152,1,79.7500024337769
426,219,45315,2,2,P|385:250|349:250,1,79.7500024337769,2|0,0:0|0:0,0:1:0:0:
241,212,45565,6,2,P|332:265|212:336,1,239.250007301331,2|0,0:0|0:0,0:1:0:0:
181,288,46065,5,2,0:0:0:0:
74,222,46315,1,2,0:0:0:0:
128,54,46565,1,2,0:0:0:0:
316,85,46815,6,0,B|272:82|226:64|226:64|168:96|168:96|129:77|67:70,1,239.250007301331,6|0,1:0|0:0,0:0:0:0:
94,171,47315,6,0,P|105:198|80:182,1,79.7500024337769,2|0,0:0|0:0,0:0:0:0:
209,195,47565,2,0,P|116:222|197:302,1,239.250007301331,2|0,0:1|0:0,0:0:0:0:
274,269,48065,5,2,0:1:0:0:
415,364,48315,2,2,B|440:319|411:243|365:283|331:218|360:150,1,239.250007301331,2|0,0:0|0:0,0:1:0:0:
417,77,48815,5,2,0:0:0:0:
331,37,49065,1,2,0:0:0:0:
279,169,49315,1,2,0:0:0:0:
48,27,49565,6,2,B|160:45|93:98|242:93|242:93|187:131|198:185,1,319.000009735108,2|0,0:0|0:0,0:1:0:0:
286,251,50315,5,2,0:0:0:0:
279,169,50565,1,2,0:0:0:0:
253,322,50815,2,0,P|308:326|351:293,1,93.500001783371,2|0,0:0|0:0,0:0:0:0:
356,204,51315,5,2,0:0:0:0:
356,204,51565,1,0,0:0:0:0:
199,260,51815,2,0,P|152:244|80:237,1,93.500001783371,2|0,0:0|0:0,0:0:0:0:
131,146,52315,2,0,P|178:162|250:169,1,93.500001783371,2|0,0:0|0:0,0:0:0:0:
355,73,52815,5,2,0:0:0:0:
203,22,53315,1,2,0:0:0:0:
286,251,53815,1,2,0:0:0:0:
286,251,54315,5,0,0:0:0:0:
300,133,54565,1,0,0:0:0:0:
7,223,54815,6,2,P|49:193|92:192,1,74.2499977340699,2|0,0:0|0:0,0:1:0:0:
250,292,55315,6,2,P|180:297|116:241,1,140.250002675057,2|0,0:0|0:0,0:1:0:0:
114,6,55815,6,2,P|157:42|142:197,1,206.25,2|0,0:0|0:0,0:1:0:0:
80,111,56315,6,2,B|143:69|222:107|172:136|238:176|324:135,1,239.250007301331,2|0,0:0|0:0,0:1:0:0:
436,80,56815,6,2,B|418:52|431:15|431:15|376:38|383:104|463:107|407:200,1,272.250002596378,6|0,1:0|0:0,0:1:0:0:
301,259,57315,2,0,P|255:246|214:212,1,90.7500008654595,2|0,0:0|0:0,0:0:0:0:
409,197,57565,2,2,P|455:210|496:244,1,90.7500008654595,2|0,0:0|0:0,0:1:0:0:
393,325,57815,2,2,P|263:358|112:347,1,272.250002596378,2|0,1:0|0:0,0:1:0:0:
42,268,58315,6,0,B|31:222|31:222|55:178,1,90.7500008654595,2|0,0:0|0:0,0:0:0:0:
148,187,58565,2,2,B|169:229|169:229|153:275,1,90.7500008654595,2|0,0:0|0:0,0:1:0:0:
110,97,58815,6,2,B|198:61|257:121|196:174|275:228|348:190,1,272.250002596378,2|0,1:1|0:0,0:1:0:0:
362,64,59315,6,0,P|327:77|302:139,1,90.7500008654595,2|0,0:1|0:0,0:1:0:0:
455,199,59565,2,0,P|435:159|394:141,1,90.7500008654595,2|0,0:0|0:0,0:0:0:0:
271,283,59815,1,2,0:1:0:0:
200,63,60065,5,0,0:0:0:0:
164,53,60190,1,0,0:0:0:0:
110,97,60315,2,2,P|114:192|135:227,1,90.7500008654595,2|0,0:0|0:0,0:1:0:0:
193,237,60565,2,0,P|189:332|168:367,1,90.7500008654595
93,282,60815,6,2,B|166:254|256:304|183:307|281:362|359:317,1,272.250002596378,6|0,0:0|0:0,0:1:0:0:
475,359,61315,6,0,P|436:323|430:279,1,90.7500008654595,2|0,0:0|0:0,0:0:0:0:
512,149,61565,2,2,P|487:195|446:213,1,90.7500008654595,2|0,0:0|0:0,0:1:0:0:
173,94,61815,2,2,P|266:90|376:236,1,272.250002596378,2|0,1:0|0:0,0:1:0:0:
282,245,62315,6,2,P|230:207|179:219,1,90.7500008654595,2|0,0:0|0:0,0:1:0:0:
133,160,62565,2,2,P|95:108|107:57,1,90.7500008654595,2|0,0:0|0:0,0:1:0:0:
300,23,62815,6,2,B|344:93|302:194|233:120|192:237|260:327,1,305.249998835564,2|0,1:0|0:0,0:1:0:0:
394,243,63315,6,2,P|339:229|287:250,1,90.7500008654595,2|0,0:0|0:0,0:1:0:0:
206,207,63565,2,2,P|175:239|164:283,1,90.7500008654595,2|0,0:0|0:0,0:1:0:0:
332,373,63815,6,2,P|397:347|282:258,1,272.250002596378,6|0,1:0|0:0,0:1:0:0:
228,345,64315,2,2,B|164:348|96:385|96:385|109:309|85:246,1,272.250002596378,6|0,1:0|0:0,0:1:0:0:
4,57,64815,6,2,P|38:101|71:188,1,140.250002675057,2|0,0:1|0:0,0:1:0:0:
13,280,65315,5,2,0:0:0:0:
140,169,65565,1,2,0:0:0:0:
164,282,65815,6,2,P|213:270|284:304,1,90.7500008654595,2|0,0:0|0:0,0:1:0:0:
344,305,66065,2,2,P|388:314|431:302,1,90.7500008654595,2|0,0:0|0:0,0:1:0:0:
493,161,66315,6,2,P|449:187|423:261,1,90.7500008654595,2|0,0:0|0:0,0:1:0:0:
431,302,66565,2,2,P|455:339|494:361,1,90.7500008654595,2|0,0:0|0:0,0:1:0:0:
411,125,66815,6,2,B|353:82|244:107|307:181|203:215|117:159,1,305.249998835564,2|0,0:1|0:0,0:1:0:0:
159,51,67315,2,2,B|221:37|320:114|220:160|311:244|399:230,1,330,2|0,0:0|0:0,0:1:0:0:
134,168,67815,6,2,L|141:217,1,41.25,6|0,0:0|0:0,0:1:0:0:
163,281,68315,2,2,L|157:321,1,41.25,6|0,0:0|0:0,0:1:0:0:
269,128,68815,6,2,P|308:158|322:223,1,90.7500008654595,2|0,0:0|0:0,0:1:0:0:
315,286,69065,2,2,P|304:334|251:374,1,90.7500008654595,2|0,0:0|0:0,0:1:0:0:
112,228,69315,5,2,0:0:0:0:
127,190,69440,1,2,0:0:0:0:
164,282,69565,6,2,P|212:278|257:226,1,90.7500008654595,2|0,0:0|0:0,0:1:0:0:
351,89,69815,6,2,B|347:17|242:24|231:109|255:175|327:197,1,272.250002596378,2|0,1:0|0:0,0:1:0:0:
503,172,70315,2,2,P|446:177|443:325,1,181.500001730919,2|2,0:0|0:0,0:1:0:0:
493,339,70690,5,2,0:0:0:0:
481,315,70815,2,0,B|422:275|336:311|389:353|301:384|231:339,1,272.250002596378,2|0,0:0|0:0,0:0:0:0:
233,200,71315,6,2,P|270:225|282:296,1,90.7500008654595,2|0,0:0|0:0,0:1:0:0:
140,336,71565,2,2,P|156:294|193:269,1,90.7500008654595,2|0,0:0|0:0,0:1:0:0:
227,123,71815,6,2,P|175:146|160:179,1,55,2|0,0:0|0:0,0:1:0:0:
103,108,72065,6,0,P|82:161|95:194,1,68.75,2|2,0:0|0:0,0:0:0:0:
4,216,72315,6,2,P|27:267|59:283,1,90.7500008654595,2|0,0:0|0:0,0:1:0:0:
211,248,72565,5,2,0:0:0:0:
216,281,72690,1,2,0:0:0:0:
291,225,72815,2,2,B|329:172|337:135|337:135|406:104|406:104|418:55|451:10,1,272.250002596378,2|0,1:0|0:0,0:1:0:0:
308,151,73315,6,2,P|266:127|216:131,1,90.7500008654595,2|0,0:0|0:0,0:1:0:0:
217,40,73565,2,2,P|170:52|137:90,1,90.7500008654595,2|0,0:0|0:0,0:1:0:0:
45,295,73815,2,2,P|122:246|144:108,1,181.500001730919,2|0,1:0|0:0,0:1:0:0:
23,196,74315,6,2,P|70:196|115:233,1,90.7500008654595,2|0,0:0|0:0,0:1:0:0:
148,285,74565,2,2,P|160:330|136:383,1,90.7500008654595,2|0,0:0|0:0,0:1:0:0:
220,209,74815,6,2,P|312:196|429:206,1,206.25,2|0,1:0|0:0,0:1:0:0:
492,258,75315,6,2,L|482:339,1,68.75,2|0,0:0|0:0,0:1:0:0:
390,380,75565,2,2,L|381:311,1,68.75,2|0,0:0|0:0,0:1:0:0:
496,182,75815,6,2,P|490:121|482:65,1,107.249995090485,2|0,1:0|0:0,0:1:0:0:
349,108,76315,6,0,L|294:104,1,35.749998363495,2|0,0:0|0:0,0:0:0:0:
260,33,76565,2,0,L|224:35,1,35.749998363495,2|0,0:0|0:0,0:0:0:0:
76,63,76815,6,0,P|138:90|65:190,1,220,2|2,0:0|0:0,0:0:0:0:
188,225,77565,1,2,0:0:0:0:
198,335,77690,1,2,0:0:0:0:
198,335,77752,1,2,0:0:0:0:
198,335,77815,6,2,P|239:311|274:317,1,46.7500008916855,2|2,0:0|0:0,0:1:0:0:
384,370,78065,6,2,P|338:357|317:328,1,55,2|2,0:0|0:0,0:1:0:0:
256,186,78315,6,2,P|301:198|322:227,1,68.75,2|2,0:0|0:0,0:1:0:0:
456,284,78565,6,2,P|432:243|438:208,1,79.7500024337769,2|0,0:0|0:0,0:1:0:0:
444,69,78815,6,2,B|485:46|524:71|524:71|492:-26|348:19|386:122|317:131|233:115|219:54|219:54|274:74|324:49,1,544.500005192757,6|0,1:0|0:0,0:1:0:0:
303,57,79815,2,0,L|303:86,1,27.5,2|0,1:0|0:0,0:0:0:0:
259,184,80315,6,0,P|219:168|160:166,1,93.500001783371,2|2,0:0|0:0,0:0:0:0:
31,320,80815,2,0,P|95:298|124:203,1,140.250002675057,2|0,0:0|0:0,0:0:0:0:
74,173,81315,5,2,0:0:0:0:
126,236,81565,1,2,0:0:0:0:
186,299,81815,2,0,B|278:285|235:342|329:331,1,140.250002675057,2|0,0:0|0:0,0:0:0:0:
365,258,82315,5,2,0:0:0:0:
339,168,82565,1,2,0:0:0:0:
389,89,82815,1,2,0:0:0:0:
347,4,83065,1,2,0:0:0:0:
415,162,83315,5,2,0:0:0:0:
292,68,83565,1,2,0:0:0:0:
294,227,83815,2,0,P|202:222|174:121,1,187.000003566742,2|2,0:0|0:0,0:0:0:0:
235,113,84565,5,0,0:0:0:0:
50,75,84815,2,0,P|131:118|127:196,1,163.625003120899,2|0,0:0|0:0,0:0:0:0:
51,208,85330,2,0,P|55:299|112:327,1,144.375005507469,2|0,0:0|0:0,0:0:0:0:
166,268,85842,2,0,B|227:248|267:273|246:307|294:340|347:309,1,192.5,2|0,0:0|0:0,0:0:0:0:
378,169,86387,2,0,P|324:198|319:262,1,110,2|2,0:0|0:0,0:0:0:0:
453,261,86791,5,2,0:0:0:0:
464,269,86926,2,0,L|475:143,1,110,2|2,0:0|0:0,0:0:0:0:
398,67,87329,5,0,0:0:0:0:
387,59,87464,2,0,L|376:185,1,110,2|0,0:0|0:0,0:0:0:0:
308,233,87892,5,0,0:0:0:0:
301,216,88023,2,0,P|249:184|181:190,1,110,2|0,0:0|0:0,0:0:0:0:
140,257,88605,5,2,0:0:0:0:
216,88,88920,1,0,0:0:0:0:
87,129,89236,1,2,0:0:0:0:
161,180,89565,1,0,0:0:0:0:
181,152,89895,1,2,0:0:0:0:
152,158,90177,1,2,0:0:0:0:
442,297,90459,5,2,0:0:0:0:
406,282,90559,1,0,0:0:0:0:
386,250,90660,2,2,P|379:158|513:73,1,239.250007301331,2|0,0:2|0:0,0:1:0:0:
497,190,91084,6,2,B|433:192|394:140|437:109|390:53|320:60,1,239.250007301331,2|0,0:2|0:0,0:1:0:0:
243,150,91553,6,2,L|252:239,1,88,6|0,0:0|0:0,0:1:0:0:
138,328,94350,5,2,0:0:0:0:
149,340,94506,1,2,0:0:0:0:
93,267,94661,2,0,P|81:207|103:143,1,110,2|2,0:0|0:0,0:0:0:0:
216,160,95342,2,0,P|227:213|215:266,1,110,2|2,0:0|0:0,0:0:0:0:
148,93,95967,5,2,0:0:0:0:
211,42,96289,1,2,0:0:0:0:
316,53,96612,1,2,0:0:0:0:
386,159,96931,1,2,0:0:0:0:
373,156,97250,6,0,P|435:148|447:247,1,165,2|0,0:0|0:0,0:0:0:0:
364,246,97875,5,2,0:0:0:0:
304,307,98184,2,0,L|313:361,1,55,2|0,0:0|0:0,0:0:0:0:
225,275,98493,2,0,P|161:258|90:308,1,110,2|0,0:0|0:0,0:0:0:0:
168,351,99112,5,2,0:0:0:0:
66,345,99441,1,2,0:0:0:0:
121,272,99771,2,0,P|137:212|115:153,1,110,2|2,0:0|0:0,0:0:0:0:
49,144,100414,5,2,0:0:0:0:
110,88,100762,1,2,0:0:0:0:
144,90,101114,1,2,0:0:0:0:
154,96,101594,1,2,0:0:0:0:
154,96,102102,2,0,B|212:81|200:127|274:94,1,110,2|2,0:0|0:0,0:0:0:0:
307,38,105091,5,2,3:0:0:0:
304,307,106107,5,2,0:0:0:0:
