osu file format v14

[General]
AudioFilename: Quo Vadis.mp3
AudioLeadIn: 0
PreviewTime: 105000
Countdown: 0
SampleSet: Soft
StackLeniency: 0.7
Mode: 3
LetterboxInBreaks: 0
SpecialStyle: 1
WidescreenStoryboard: 0

[Editor]
DistanceSpacing: 1.2
BeatDivisor: 4
GridSize: 4
TimelineZoom: 2.799999

[Metadata]
Title:Quo Vadis
TitleUnicode:Quo Vadis
Artist:M2U
ArtistUnicode:M2U
Creator:JamesHappy
Version:lZenxl's 7K SHD
Source:Rhythm Master
Tags:bms hellgert z3nx ethnic house instrumental latin dance arcwinolivirus Evening
BeatmapID:908806
BeatmapSetID:227037

[Difficulty]
HPDrainRate:8
CircleSize:7
OverallDifficulty:8
ApproachRate:5
SliderMultiplier:1.4
SliderTickRate:1

[Events]
//Background and Video events
0,0,"mlg.jpg",0,0
//Break Periods
//Storyboard Layer 0 (Background)
//Storyboard Layer 1 (Fail)
//Storyboard Layer 2 (Pass)
//Storyboard Layer 3 (Foreground)
//Storyboard Sound Samples

[TimingPoints]
3000,375,4,2,1,20,1,0
19500,-58.8235294117647,4,2,1,35,0,0
19593,-333.333333333333,4,2,1,35,0,0
19687,-58.8235294117647,4,2,1,35,0,0
19781,-333.333333333333,4,2,1,35,0,0
19875,-58.8235294117647,4,2,1,35,0,0
19968,-333.333333333333,4,2,1,35,0,0
20062,-58.8235294117647,4,2,1,35,0,0
20156,-333.333333333333,4,2,1,35,0,0
20250,-58.8235294117647,4,2,1,35,0,0
20343,-142.857142857143,4,2,1,35,0,0
20625,-10,4,2,1,35,0,1
20648,-142.857142857143,4,2,1,35,0,0
21000,-100,4,2,1,35,0,0
44250,-58.8235294117647,4,2,1,35,0,0
44343,-333.333333333333,4,2,1,35,0,0
44437,-58.8235294117647,4,2,1,35,0,0
44531,-333.333333333333,4,2,1,35,0,0
44625,-10,4,2,1,35,0,1
44648,-142.857142857143,4,2,1,35,0,0
45000,-100,4,2,1,35,0,0
67500,-58.8235294117647,4,2,1,35,0,0
67593,-333.333333333333,4,2,1,35,0,0
67687,-58.8235294117647,4,2,1,35,0,0
67781,-333.333333333333,4,2,1,35,0,0
67875,-58.8235294117647,4,2,1,35,0,0
67968,-333.333333333333,4,2,1,35,0,0
68062,-58.8235294117647,4,2,1,35,0,0
68156,-333.333333333333,4,2,1,35,0,0
68250,-10,4,2,1,35,0,0
68273,-142.857142857143,4,2,1,35,0,0
68625,-10,4,2,1,35,0,1
68648,-142.857142857143,4,2,1,35,0,0
69000,-100,4,2,1,25,0,0
75000,-100,4,2,1,35,0,0
80625,-100,4,2,1,35,0,1
80671,-100,4,2,1,35,0,0
81000,-111.111111111111,4,2,1,25,0,0
86993,-100,4,2,1,25,0,0
91125,-100,4,2,1,35,0,0
92250,-58.8235294117647,4,2,1,35,0,0
92343,-333.333333333333,4,2,1,35,0,0
92437,-58.8235294117647,4,2,1,35,0,0
92531,-333.333333333333,4,2,1,35,0,0
92625,-100,4,2,1,35,0,1
92671,-100,4,2,1,35,0,0
103500,-10,4,2,1,35,0,0
103523,-142.857142857143,4,2,1,35,0,0
103875,-117.647058823529,4,2,1,35,0,0
104625,-10,4,2,1,35,0,1
104648,-142.857142857143,4,2,1,35,0,0
105000,-100,4,2,1,35,0,0
130500,-55.5555555555556,4,2,1,35,0,0
130593,-500,4,2,1,35,0,0
130687,-55.5555555555556,4,2,1,35,0,0
130781,-500,4,2,1,35,0,0
130875,-55.5555555555556,4,2,1,35,0,0
130968,-500,4,2,1,35,0,0
131062,-55.5555555555556,4,2,1,35,0,0
131156,-500,4,2,1,35,0,0
131250,-10,4,2,1,35,0,0
131273,-142.857142857143,4,2,1,35,0,0
131625,-100,4,2,1,35,0,1
131671,-100,4,2,1,35,0,0

[HitObjects]
36,192,2625,5,0,0:0:0:0:
109,192,2812,1,0,0:0:0:0:
182,192,2906,1,0,0:0:0:0:
256,192,3000,1,4,0:0:0:0:
402,192,3000,1,0,0:0:0:0:
475,192,3000,1,0,0:0:0:0:
109,192,3187,1,0,0:0:0:0:
36,192,3281,1,0,0:0:0:0:
182,192,3375,1,8,0:0:0:0:
475,192,3375,1,0,0:0:0:0:
329,192,3375,1,0,0:0:0:0:
256,192,3562,1,0,0:0:0:0:
36,192,3562,1,0,0:0:0:0:
402,192,3750,1,0,0:0:0:0:
182,192,3750,128,0,3937:0:0:0:0:
329,192,3937,1,0,0:0:0:0:
36,192,3937,1,0,0:0:0:0:
475,192,4125,1,8,0:0:0:0:
182,192,4125,128,0,4312:0:0:0:0:
36,192,4312,1,0,0:0:0:0:
256,192,4312,1,0,0:0:0:0:
402,192,4500,1,0,0:0:0:0:
109,192,4500,1,0,0:0:0:0:
475,192,4687,1,0,0:0:0:0:
182,192,4687,1,0,0:0:0:0:
329,192,4781,1,0,0:0:0:0:
36,192,4781,1,0,0:0:0:0:
475,192,4875,128,8,5062:0:0:0:0:
182,192,4875,1,0,0:0:0:0:
329,192,5062,1,0,0:0:0:0:
109,192,5062,1,0,0:0:0:0:
475,192,5250,1,0,0:0:0:0:
402,192,5281,1,0,0:0:0:0:
36,192,5437,1,0,0:0:0:0:
36,192,5625,1,8,0:0:0:0:
109,192,5656,1,0,0:0:0:0:
475,192,5812,1,0,0:0:0:0:
402,192,6000,1,0,0:0:0:0:
256,192,6000,1,0,0:0:0:0:
109,192,6000,1,0,0:0:0:0:
182,192,6187,1,0,0:0:0:0:
36,192,6281,1,0,0:0:0:0:
182,192,6375,1,8,0:0:0:0:
402,192,6375,128,0,6562:0:0:0:0:
256,192,6562,1,0,0:0:0:0:
109,192,6562,1,0,0:0:0:0:
475,192,6750,128,0,6937:0:0:0:0:
182,192,6750,1,0,0:0:0:0:
256,192,6937,1,0,0:0:0:0:
36,192,6937,1,0,0:0:0:0:
402,192,7125,1,8,0:0:0:0:
109,192,7125,128,0,7312:0:0:0:0:
475,192,7312,1,0,0:0:0:0:
256,192,7312,1,0,0:0:0:0:
402,192,7500,1,0,0:0:0:0:
182,192,7500,1,0,0:0:0:0:
36,192,7500,1,0,0:0:0:0:
475,192,7687,1,0,0:0:0:0:
329,192,7781,1,0,0:0:0:0:
475,192,7875,1,8,0:0:0:0:
182,192,7875,1,0,0:0:0:0:
36,192,7875,1,0,0:0:0:0:
109,192,8062,1,0,0:0:0:70:LR2_Snare+Hat.wav
182,192,8125,1,0,0:0:0:70:LR2_Snare+Hat.wav
256,192,8187,1,0,0:0:0:70:LR2_Snare+Hat.wav
329,192,8250,1,2,0:0:0:70:LR2_Snare+Hat.wav
475,192,8343,1,2,0:0:0:70:LR2_Snare+Hat.wav
36,192,8343,1,0,0:0:0:0:
329,192,8437,1,2,0:0:0:70:LR2_Snare+Hat.wav
182,192,8437,1,0,0:0:0:0:
475,192,8531,1,0,0:0:0:70:LR2_Snare+Hat.wav
36,192,8531,1,0,0:0:0:0:
329,192,8625,1,8,0:0:0:30:LR_Kick Low Strong Beat.wav
182,192,8625,1,0,0:0:0:0:
109,192,8812,1,0,0:0:0:0:
182,192,8906,1,0,0:0:0:0:
256,192,9000,1,4,0:0:0:0:
109,192,9000,1,2,0:0:0:0:
36,192,9000,1,0,0:0:0:0:
329,192,9000,1,0,0:0:0:0:
402,192,9000,1,0,0:0:0:0:
475,192,9000,1,0,0:0:0:0:
182,192,9187,1,0,0:0:0:0:
329,192,9281,1,0,0:0:0:0:
182,192,9375,1,8,0:0:0:0:
36,192,9375,1,0,0:0:0:0:
475,192,9375,1,0,0:0:0:0:
256,192,9375,1,0,0:0:0:0:
402,192,9562,1,0,0:0:0:0:
36,192,9656,1,0,0:0:0:0:
256,192,9750,1,2,0:0:0:0:
182,192,9750,1,0,0:0:0:0:
475,192,9750,1,0,0:0:0:0:
329,192,9750,1,0,0:0:0:0:
109,192,9937,1,0,0:0:0:0:
329,192,10031,1,0,0:0:0:0:
475,192,10125,1,8,0:0:0:0:
256,192,10125,1,0,0:0:0:0:
182,192,10125,1,0,0:0:0:0:
36,192,10125,1,0,0:0:0:0:
182,192,10312,1,0,0:0:0:0:
475,192,10500,1,2,0:0:0:0:
256,192,10500,1,0,0:0:0:0:
109,192,10500,1,0,0:0:0:0:
329,192,10500,1,0,0:0:0:0:
36,192,10687,1,0,0:0:0:0:
182,192,10781,1,0,0:0:0:0:
36,192,10875,1,8,0:0:0:0:
475,192,10875,1,0,0:0:0:0:
256,192,10875,1,0,0:0:0:0:
329,192,10875,1,0,0:0:0:0:
182,192,11062,1,0,0:0:0:0:
256,192,11250,1,2,0:0:0:0:
109,192,11250,1,0,0:0:0:0:
402,192,11250,1,0,0:0:0:0:
475,192,11250,1,0,0:0:0:0:
329,192,11437,1,0,0:0:0:0:
475,192,11625,1,8,0:0:0:0:
256,192,11625,1,0,0:0:0:0:
182,192,11625,1,0,0:0:0:0:
36,192,11625,1,0,0:0:0:0:
402,192,11812,1,0,0:0:0:0:
182,192,12000,1,6,0:0:0:0:
36,192,12000,1,4,0:0:0:0:
256,192,12000,1,0,0:0:0:0:
329,192,12000,1,0,0:0:0:0:
475,192,12000,1,0,0:0:0:0:
109,192,12187,1,0,0:0:0:0:
36,192,12281,1,0,0:0:0:0:
182,192,12375,1,8,0:0:0:0:
256,192,12375,1,0,0:0:0:0:
475,192,12375,1,0,0:0:0:0:
329,192,12562,1,0,0:0:0:0:
475,192,12750,1,2,0:0:0:0:
182,192,12750,1,0,0:0:0:0:
256,192,12750,1,0,0:0:0:0:
36,192,12750,1,0,0:0:0:0:
109,192,12937,1,0,0:0:0:0:
475,192,13125,1,8,0:0:0:0:
329,192,13125,1,0,0:0:0:0:
256,192,13125,1,0,0:0:0:0:
182,192,13125,1,0,0:0:0:0:
402,192,13312,1,0,0:0:0:0:
329,192,13500,1,2,0:0:0:0:
256,192,13500,1,0,0:0:0:0:
36,192,13500,1,0,0:0:0:0:
109,192,13500,1,0,0:0:0:0:
475,192,13687,1,0,0:0:0:0:
36,192,13687,1,0,0:0:0:0:
329,192,13781,1,0,0:0:0:0:
475,192,13875,1,8,0:0:0:0:
256,192,13875,1,0,0:0:0:0:
36,192,13875,1,0,0:0:0:0:
182,192,13968,1,0,0:0:0:0:
329,192,13968,1,0,0:0:0:0:
109,192,14062,1,0,0:0:0:70:LR2_Snare+Hat.wav
402,192,14062,1,0,0:0:0:0:
182,192,14156,1,0,0:0:0:70:LR2_Snare+Hat.wav
329,192,14156,1,0,0:0:0:0:
36,192,14250,1,2,0:0:0:70:LR2_Snare+Hat.wav
475,192,14250,1,0,0:0:0:0:
256,192,14250,1,0,0:0:0:0:
329,192,14343,1,0,0:0:0:70:LR2_Snare+Hat.wav
182,192,14343,1,0,0:0:0:0:
109,192,14437,1,2,0:0:0:70:LR2_Snare+Hat.wav
402,192,14437,1,0,0:0:0:0:
329,192,14531,1,0,0:0:0:70:LR2_Snare+Hat.wav
182,192,14531,1,0,0:0:0:0:
475,192,14625,1,8,0:0:0:0:
36,192,14625,1,0,0:0:0:0:
256,192,14625,1,0,0:0:0:0:
109,192,14625,1,0,0:0:0:0:
402,192,14625,1,0,0:0:0:0:
36,192,15000,1,4,0:0:0:0:
182,192,15000,1,2,0:0:0:0:
329,192,15000,128,0,15375:0:0:0:0:
475,192,15000,128,0,15375:0:0:0:0:
402,192,15000,128,0,15375:0:0:0:0:
182,192,15187,1,0,0:0:0:0:
36,192,15187,1,0,0:0:0:0:
182,192,15375,1,8,0:0:0:0:
36,192,15375,1,0,0:0:0:0:
475,192,15468,1,0,0:0:0:0:
402,192,15468,1,0,0:0:0:0:
256,192,15562,1,2,0:0:0:0:
109,192,15562,1,0,0:0:0:0:
475,192,15656,1,0,0:0:0:0:
402,192,15656,1,0,0:0:0:0:
182,192,15750,1,6,0:0:0:0:
36,192,15750,1,4,0:0:0:0:
329,192,15937,1,0,0:0:0:0:
182,192,15937,1,0,0:0:0:0:
36,192,15937,1,0,0:0:0:0:
109,192,16125,1,8,0:0:0:0:
256,192,16125,1,0,0:0:0:0:
402,192,16125,1,0,0:0:0:0:
182,192,16312,1,2,0:0:0:0:
329,192,16312,1,0,0:0:0:0:
475,192,16312,1,0,0:0:0:0:
256,192,16406,1,0,0:0:0:0:
109,192,16500,1,4,0:0:0:0:
329,192,16500,1,2,0:0:0:0:
402,192,16500,1,0,0:0:0:0:
182,192,16687,1,0,0:0:0:0:
36,192,16687,1,0,0:0:0:0:
402,192,16781,1,0,0:0:0:0:
256,192,16781,1,0,0:0:0:0:
109,192,16875,1,12,0:0:0:0:
329,192,16968,1,0,0:0:0:0:
182,192,17062,1,0,0:0:0:0:
36,192,17062,1,0,0:0:0:0:
402,192,17156,1,0,0:0:0:0:
256,192,17156,1,0,0:0:0:0:
109,192,17250,1,6,0:0:0:0:
329,192,17343,1,0,0:0:0:0:
475,192,17343,1,0,0:0:0:0:
182,192,17437,1,0,0:0:0:0:
36,192,17437,1,0,0:0:0:0:
256,192,17531,1,0,0:0:0:0:
329,192,17625,1,12,0:0:0:0:
402,192,17625,1,8,0:0:0:0:
475,192,17625,1,0,0:0:0:0:
109,192,17718,1,0,0:0:0:0:
475,192,17812,1,2,0:0:0:0:
402,192,17812,1,0,0:0:0:0:
329,192,17812,1,0,0:0:0:0:
182,192,17812,1,0,0:0:0:0:
36,192,17906,1,0,0:0:0:0:
402,192,18000,1,6,0:0:0:0:
329,192,18000,1,4,0:0:0:0:
475,192,18000,1,0,0:0:0:0:
182,192,18000,1,0,0:0:0:0:
36,192,18187,1,0,0:0:0:0:
256,192,18187,1,0,0:0:0:0:
402,192,18281,1,0,0:0:0:0:
109,192,18375,1,8,0:0:0:0:
182,192,18375,1,0,0:0:0:0:
329,192,18468,1,0,0:0:0:0:
475,192,18468,1,0,0:0:0:0:
36,192,18562,1,0,0:0:0:0:
256,192,18562,1,0,0:0:0:0:
402,192,18656,1,0,0:0:0:0:
109,192,18750,1,6,0:0:0:0:
182,192,18843,1,0,0:0:0:0:
475,192,18843,1,0,0:0:0:0:
36,192,18937,1,0,0:0:0:0:
329,192,18937,1,0,0:0:0:0:
402,192,19031,1,0,0:0:0:0:
182,192,19031,1,0,0:0:0:0:
109,192,19125,1,8,0:0:0:0:
329,192,19125,1,0,0:0:0:0:
182,192,19218,1,0,0:0:0:0:
475,192,19218,1,0,0:0:0:0:
36,192,19312,1,0,0:0:0:0:
329,192,19312,1,0,0:0:0:0:
402,192,19406,1,0,0:0:0:0:
256,192,19500,1,6,0:0:0:0:
36,192,19500,1,4,0:0:0:0:
109,192,19500,1,0,0:0:0:0:
109,192,19687,1,0,0:0:0:0:
329,192,19687,1,0,0:0:0:0:
182,192,19687,1,0,0:0:0:0:
182,192,19875,1,0,0:0:0:0:
402,192,19875,1,0,0:0:0:0:
256,192,19875,1,0,0:0:0:0:
256,192,20062,1,0,0:0:0:0:
475,192,20062,1,0,0:0:0:0:
329,192,20062,1,0,0:0:0:0:
402,192,20250,1,0,0:0:0:0:
329,192,20250,1,0,0:0:0:0:
182,192,20250,1,0,0:0:0:0:
109,192,20250,1,0,0:0:0:0:
182,192,20625,128,8,21000:0:0:0:0:
329,192,20625,1,0,0:0:0:0:
402,192,20625,1,0,0:0:0:0:
475,192,20625,1,0,0:0:0:0:
36,192,21000,128,6,21187:0:0:0:0:
329,192,21000,128,0,21187:0:0:0:0:
256,192,21000,1,0,0:0:0:0:
402,192,21000,1,0,0:0:0:0:
182,192,21187,128,0,21562:0:0:0:0:
475,192,21187,128,0,21562:0:0:0:0:
256,192,21375,1,8,0:0:0:0:
402,192,21562,1,0,0:0:0:0:
109,192,21562,1,0,0:0:0:0:
36,192,21750,128,2,22125:0:0:0:0:
329,192,21750,128,0,22125:0:0:0:0:
256,192,21750,1,0,0:0:0:0:
475,192,22125,1,8,0:0:0:0:
256,192,22125,1,0,0:0:0:0:
109,192,22125,1,0,0:0:0:0:
182,192,22218,1,0,0:0:0:0:
36,192,22312,1,0,0:0:0:0:
329,192,22312,1,0,0:0:0:0:
182,192,22406,1,0,0:0:0:0:
402,192,22406,1,0,0:0:0:0:
109,192,22500,128,2,22687:0:0:0:0:
475,192,22500,128,0,22687:0:0:0:0:
329,192,22687,128,0,22875:0:0:0:0:
36,192,22687,128,0,22875:0:0:0:0:
182,192,22875,128,8,23062:0:0:0:0:
402,192,22875,128,0,23062:0:0:0:0:
329,192,23062,128,0,23250:0:0:0:0:
109,192,23062,128,0,23250:0:0:0:0:
256,192,23250,128,2,23625:0:0:0:0:
182,192,23250,1,0,0:0:0:0:
475,192,23625,1,8,0:0:0:0:
329,192,23625,1,0,0:0:0:0:
182,192,23625,1,0,0:0:0:0:
36,192,23625,128,0,23812:0:0:0:0:
402,192,23812,1,0,0:0:0:0:
329,192,23906,1,0,0:0:0:0:
256,192,24000,128,2,24187:0:0:0:0:
109,192,24000,128,0,24187:0:0:0:0:
475,192,24187,128,0,24375:0:0:0:0:
329,192,24187,128,0,24375:0:0:0:0:
182,192,24375,128,8,24562:0:0:0:0:
36,192,24375,128,0,24562:0:0:0:0:
402,192,24562,1,0,0:0:0:0:
256,192,24562,1,0,0:0:0:0:
36,192,24750,128,2,24937:0:0:0:0:
182,192,24750,128,0,24937:0:0:0:0:
329,192,24937,128,0,25125:0:0:0:0:
475,192,24937,128,0,25125:0:0:0:0:
256,192,25125,128,8,25312:0:0:0:0:
109,192,25125,128,0,25312:0:0:0:0:
182,192,25312,128,0,25500:0:0:0:0:
329,192,25312,128,0,25500:0:0:0:0:
256,192,25500,128,2,25781:0:0:0:0:
402,192,25500,128,0,25781:0:0:0:0:
109,192,25500,1,0,0:0:0:0:
36,192,25781,1,0,0:0:0:0:
109,192,25875,1,8,0:0:0:0:
475,192,25875,1,0,0:0:0:0:
329,192,25875,1,0,0:0:0:0:
182,192,25968,1,0,0:0:0:0:
36,192,26062,1,2,0:0:0:0:
329,192,26062,1,0,0:0:0:0:
475,192,26062,1,0,0:0:0:0:
182,192,26156,1,0,0:0:0:0:
36,192,26250,1,2,0:0:0:0:
256,192,26250,128,0,26625:0:0:0:0:
475,192,26250,1,0,0:0:0:0:
329,192,26250,1,0,0:0:0:0:
402,192,26625,1,8,0:0:0:0:
329,192,26625,1,0,0:0:0:0:
109,192,26625,1,0,0:0:0:0:
182,192,26625,128,0,27000:0:0:0:0:
475,192,27000,1,6,0:0:0:0:
329,192,27000,1,0,0:0:0:0:
256,192,27000,1,0,0:0:0:0:
36,192,27000,1,0,0:0:0:0:
402,192,27187,128,0,27562:0:0:0:0:
256,192,27375,1,8,0:0:0:0:
109,192,27375,1,0,0:0:0:0:
329,192,27562,1,0,0:0:0:0:
36,192,27562,1,0,0:0:0:0:
109,192,27750,128,2,28125:0:0:0:0:
402,192,27750,128,0,28125:0:0:0:0:
182,192,27750,1,0,0:0:0:0:
256,192,28125,1,8,0:0:0:0:
36,192,28125,1,0,0:0:0:0:
329,192,28125,1,0,0:0:0:0:
402,192,28218,1,0,0:0:0:0:
475,192,28312,1,0,0:0:0:0:
36,192,28312,1,0,0:0:0:0:
402,192,28406,1,0,0:0:0:0:
109,192,28406,1,0,0:0:0:0:
182,192,28500,1,2,0:0:0:0:
329,192,28500,128,0,28687:0:0:0:0:
36,192,28687,128,0,29062:0:0:0:0:
475,192,28687,1,0,0:0:0:0:
402,192,28875,1,8,0:0:0:0:
256,192,28875,1,0,0:0:0:0:
329,192,29062,128,0,29250:0:0:0:0:
182,192,29062,1,0,0:0:0:0:
475,192,29250,128,2,29625:0:0:0:0:
256,192,29250,1,0,0:0:0:0:
36,192,29250,1,0,0:0:0:0:
182,192,29437,1,0,0:0:0:0:
36,192,29437,1,0,0:0:0:0:
36,192,29625,1,8,0:0:0:0:
182,192,29625,128,0,29812:0:0:0:0:
256,192,29812,1,0,0:0:0:0:
109,192,29906,1,0,0:0:0:0:
475,192,30000,1,2,0:0:0:0:
329,192,30000,1,0,0:0:0:0:
402,192,30187,128,0,30562:0:0:0:0:
182,192,30375,1,8,0:0:0:0:
109,192,30375,1,0,0:0:0:0:
36,192,30375,1,0,0:0:0:0:
256,192,30562,1,0,0:0:0:0:
475,192,30562,1,0,0:0:0:0:
182,192,30750,128,2,30937:0:0:0:0:
36,192,30750,1,0,0:0:0:0:
402,192,30750,1,0,0:0:0:0:
475,192,30937,128,0,31125:0:0:0:0:
329,192,30937,128,0,31125:0:0:0:0:
402,192,31125,128,8,31312:0:0:0:0:
256,192,31125,128,0,31312:0:0:0:0:
36,192,31125,1,0,0:0:0:0:
329,192,31312,128,0,31500:0:0:0:0:
182,192,31312,128,0,31500:0:0:0:0:
256,192,31500,128,2,32062:0:0:0:0:
36,192,31500,1,0,0:0:0:0:
475,192,31500,1,0,0:0:0:0:
182,192,31687,1,2,0:0:0:0:
329,192,31687,1,0,0:0:0:0:
36,192,31687,1,0,0:0:0:0:
475,192,31687,1,0,0:0:0:0:
36,192,32062,1,2,0:0:0:0:
475,192,32062,1,0,0:0:0:0:
329,192,32156,1,0,0:0:0:0:
182,192,32156,1,0,0:0:0:0:
36,192,32250,1,2,0:0:0:0:
475,192,32250,1,0,0:0:0:0:
402,192,32250,1,0,0:0:0:0:
109,192,32250,1,0,0:0:0:0:
475,192,32437,1,0,0:0:0:0:
329,192,32531,1,0,0:0:0:0:
256,192,32625,1,8,0:0:0:0:
36,192,32625,1,0,0:0:0:0:
109,192,32625,1,0,0:0:0:0:
475,192,32625,128,0,33000:0:0:0:0:
182,192,32625,1,0,0:0:0:0:
36,192,33000,128,6,33187:0:0:0:0:
329,192,33000,128,0,33187:0:0:0:0:
256,192,33000,1,0,0:0:0:0:
475,192,33187,128,0,33562:0:0:0:0:
182,192,33187,128,0,33562:0:0:0:0:
256,192,33375,1,8,0:0:0:0:
109,192,33562,1,0,0:0:0:0:
402,192,33562,1,0,0:0:0:0:
329,192,33750,128,2,34125:0:0:0:0:
36,192,33750,128,0,34125:0:0:0:0:
256,192,33750,1,0,0:0:0:0:
256,192,34125,1,8,0:0:0:0:
475,192,34125,1,0,0:0:0:0:
109,192,34125,1,0,0:0:0:0:
182,192,34218,1,0,0:0:0:0:
329,192,34312,1,0,0:0:0:0:
36,192,34312,1,0,0:0:0:0:
402,192,34406,1,0,0:0:0:0:
182,192,34406,1,0,0:0:0:0:
475,192,34500,128,2,34687:0:0:0:0:
109,192,34500,128,0,34687:0:0:0:0:
36,192,34687,128,0,34875:0:0:0:0:
329,192,34687,128,0,34875:0:0:0:0:
182,192,34875,128,8,35062:0:0:0:0:
402,192,34875,128,0,35062:0:0:0:0:
109,192,35062,128,0,35250:0:0:0:0:
329,192,35062,128,0,35250:0:0:0:0:
256,192,35250,128,2,35625:0:0:0:0:
182,192,35250,1,0,0:0:0:0:
182,192,35625,1,8,0:0:0:0:
475,192,35625,1,0,0:0:0:0:
329,192,35625,1,0,0:0:0:0:
36,192,35625,128,0,35812:0:0:0:0:
109,192,35812,1,0,0:0:0:0:
182,192,35906,1,0,0:0:0:0:
402,192,36000,128,2,36187:0:0:0:0:
109,192,36000,128,0,36187:0:0:0:0:
182,192,36187,128,0,36375:0:0:0:0:
475,192,36187,128,0,36375:0:0:0:0:
329,192,36375,128,8,36562:0:0:0:0:
36,192,36375,128,0,36562:0:0:0:0:
402,192,36562,1,0,0:0:0:0:
109,192,36562,1,0,0:0:0:0:
256,192,36750,128,2,36937:0:0:0:0:
36,192,36750,128,0,36937:0:0:0:0:
182,192,36937,128,0,37125:0:0:0:0:
475,192,36937,128,0,37125:0:0:0:0:
36,192,37125,1,8,0:0:0:0:
256,192,37125,1,0,0:0:0:0:
109,192,37312,1,0,0:0:0:0:
329,192,37312,1,0,0:0:0:0:
475,192,37500,128,2,37781:0:0:0:0:
256,192,37500,1,0,0:0:0:0:
402,192,37500,128,0,37781:0:0:0:0:
182,192,37687,1,0,0:0:0:0:
36,192,37781,1,0,0:0:0:0:
475,192,37875,1,8,0:0:0:0:
109,192,37875,1,0,0:0:0:0:
329,192,37875,1,0,0:0:0:0:
182,192,37968,1,0,0:0:0:0:
329,192,38062,1,2,0:0:0:0:
475,192,38062,1,0,0:0:0:0:
36,192,38062,1,0,0:0:0:0:
182,192,38156,1,0,0:0:0:0:
109,192,38250,1,2,0:0:0:0:
329,192,38250,1,0,0:0:0:0:
475,192,38250,1,0,0:0:0:0:
36,192,38250,1,0,0:0:0:0:
256,192,38250,128,0,38625:0:0:0:0:
402,192,38625,1,8,0:0:0:0:
182,192,38625,128,0,39000:0:0:0:0:
109,192,38625,1,0,0:0:0:0:
329,192,38625,1,0,0:0:0:0:
329,192,39000,1,4,0:0:0:0:
475,192,39000,1,2,0:0:0:0:
256,192,39000,1,0,0:0:0:0:
36,192,39000,1,0,0:0:0:0:
402,192,39187,128,0,39562:0:0:0:0:
109,192,39375,1,8,0:0:0:0:
256,192,39375,1,0,0:0:0:0:
36,192,39562,1,0,0:0:0:0:
329,192,39562,1,0,0:0:0:0:
402,192,39750,128,2,40125:0:0:0:0:
182,192,39750,1,0,0:0:0:0:
109,192,39750,128,0,40125:0:0:0:0:
256,192,40125,1,8,0:0:0:0:
329,192,40125,1,0,0:0:0:0:
36,192,40125,1,0,0:0:0:0:
402,192,40218,1,0,0:0:0:0:
475,192,40312,1,0,0:0:0:0:
36,192,40312,1,0,0:0:0:0:
109,192,40406,1,0,0:0:0:0:
402,192,40406,1,0,0:0:0:0:
329,192,40500,128,2,40687:0:0:0:0:
182,192,40500,1,0,0:0:0:0:
36,192,40687,128,0,41062:0:0:0:0:
475,192,40687,1,0,0:0:0:0:
256,192,40875,1,8,0:0:0:0:
402,192,40875,1,0,0:0:0:0:
329,192,41062,128,0,41250:0:0:0:0:
182,192,41062,1,0,0:0:0:0:
36,192,41250,1,2,0:0:0:0:
256,192,41250,1,0,0:0:0:0:
475,192,41250,128,0,41625:0:0:0:0:
36,192,41437,1,0,0:0:0:0:
182,192,41437,1,0,0:0:0:0:
36,192,41625,1,8,0:0:0:0:
182,192,41625,128,0,41812:0:0:0:0:
256,192,41812,1,0,0:0:0:0:
109,192,41906,1,0,0:0:0:0:
329,192,42000,1,2,0:0:0:0:
475,192,42000,1,0,0:0:0:0:
402,192,42187,128,0,42562:0:0:0:0:
36,192,42375,1,8,0:0:0:0:
182,192,42375,1,0,0:0:0:0:
109,192,42375,1,0,0:0:0:0:
256,192,42562,1,0,0:0:0:0:
475,192,42562,1,0,0:0:0:0:
182,192,42750,128,2,42937:0:0:0:0:
36,192,42750,1,0,0:0:0:0:
402,192,42750,1,0,0:0:0:0:
475,192,42937,128,0,43125:0:0:0:0:
329,192,42937,128,0,43125:0:0:0:0:
36,192,43125,1,8,0:0:0:0:
402,192,43125,128,0,43312:0:0:0:0:
256,192,43125,128,0,43312:0:0:0:0:
182,192,43312,128,0,43500:0:0:0:0:
329,192,43312,128,0,43500:0:0:0:0:
36,192,43500,1,6,0:0:0:0:
475,192,43500,1,4,0:0:0:0:
182,192,43687,1,0,0:0:0:0:
36,192,43687,1,0,0:0:0:0:
109,192,43687,1,0,0:0:0:0:
256,192,43781,1,0,0:0:0:0:
329,192,43875,1,8,0:0:0:0:
475,192,43875,1,0,0:0:0:0:
402,192,43875,1,0,0:0:0:0:
182,192,44062,1,2,0:0:0:0:
36,192,44062,1,0,0:0:0:0:
109,192,44062,1,0,0:0:0:0:
256,192,44156,1,0,0:0:0:0:
329,192,44250,1,2,0:0:0:0:
475,192,44250,1,0,0:0:0:0:
402,192,44250,1,0,0:0:0:0:
402,192,44437,1,0,0:0:0:0:
182,192,44437,1,0,0:0:0:0:
36,192,44437,1,0,0:0:0:0:
256,192,44437,1,0,0:0:0:0:
256,192,44625,1,0,0:0:0:30:LR_Kick Low Strong Beat.wav
36,192,44625,1,0,0:0:0:0:
182,192,44625,1,0,0:0:0:0:
402,192,44625,128,0,45000:0:0:0:0:
329,192,45000,1,6,0:0:0:0:
109,192,45000,1,0,0:0:0:0:
475,192,45000,1,0,0:0:0:0:
402,192,45187,1,0,0:0:0:0:
256,192,45187,1,0,0:0:0:0:
182,192,45375,1,8,0:0:0:0:
36,192,45375,1,0,0:0:0:0:
475,192,45375,1,0,0:0:0:0:
329,192,45375,1,0,0:0:0:0:
109,192,45562,1,0,0:0:0:0:
475,192,45687,1,0,0:0:0:0:
402,192,45718,1,0,0:0:0:0:
329,192,45750,1,2,0:0:0:0:
256,192,45750,1,0,0:0:0:0:
36,192,45750,1,0,0:0:0:0:
109,192,45937,1,0,0:0:0:0:
475,192,45937,1,0,0:0:0:0:
256,192,46125,1,8,0:0:0:0:
182,192,46125,1,0,0:0:0:0:
329,192,46125,1,0,0:0:0:0:
402,192,46125,1,0,0:0:0:0:
36,192,46312,1,0,0:0:0:0:
182,192,46406,1,0,0:0:0:0:
36,192,46500,1,2,0:0:0:0:
256,192,46500,1,0,0:0:0:0:
475,192,46500,1,0,0:0:0:0:
329,192,46500,1,0,0:0:0:0:
109,192,46687,1,0,0:0:0:0:
402,192,46687,1,0,0:0:0:0:
182,192,46781,1,0,0:0:0:0:
329,192,46781,1,0,0:0:0:0:
36,192,46875,1,8,0:0:0:0:
475,192,46875,1,0,0:0:0:0:
329,192,46968,1,0,0:0:0:0:
182,192,46968,1,0,0:0:0:0:
402,192,47062,1,0,0:0:0:0:
256,192,47156,1,0,0:0:0:0:
182,192,47187,1,0,0:0:0:0:
109,192,47218,1,0,0:0:0:0:
36,192,47250,1,2,0:0:0:0:
475,192,47250,1,0,0:0:0:0:
329,192,47250,1,0,0:0:0:0:
402,192,47437,1,0,0:0:0:0:
182,192,47437,1,0,0:0:0:0:
256,192,47531,1,0,0:0:0:0:
109,192,47625,1,8,0:0:0:0:
329,192,47625,1,0,0:0:0:0:
475,192,47625,1,0,0:0:0:0:
182,192,47718,1,0,0:0:0:0:
256,192,47812,1,0,0:0:0:0:
36,192,47812,1,0,0:0:0:0:
402,192,47812,1,0,0:0:0:0:
109,192,47906,1,0,0:0:0:0:
182,192,48000,1,2,0:0:0:0:
329,192,48000,1,0,0:0:0:0:
475,192,48000,1,0,0:0:0:0:
109,192,48187,1,0,0:0:0:0:
329,192,48187,1,0,0:0:0:0:
36,192,48375,1,8,0:0:0:0:
256,192,48375,1,0,0:0:0:0:
475,192,48375,1,0,0:0:0:0:
109,192,48468,1,0,0:0:0:0:
329,192,48468,1,0,0:0:0:0:
182,192,48562,1,0,0:0:0:0:
475,192,48562,1,0,0:0:0:0:
109,192,48656,1,0,0:0:0:0:
329,192,48656,1,0,0:0:0:0:
256,192,48750,1,2,0:0:0:0:
475,192,48750,1,0,0:0:0:0:
36,192,48750,128,0,48937:0:0:0:0:
182,192,48937,1,0,0:0:0:0:
109,192,48937,1,0,0:0:0:0:
329,192,49031,1,0,0:0:0:0:
402,192,49031,1,0,0:0:0:0:
109,192,49125,1,8,0:0:0:0:
36,192,49125,1,0,0:0:0:0:
475,192,49218,1,0,0:0:0:0:
402,192,49218,1,0,0:0:0:0:
36,192,49312,1,0,0:0:0:0:
329,192,49312,1,0,0:0:0:0:
182,192,49406,1,0,0:0:0:0:
475,192,49406,1,0,0:0:0:0:
256,192,49500,1,2,0:0:0:0:
36,192,49500,1,0,0:0:0:0:
402,192,49500,1,0,0:0:0:0:
329,192,49687,1,0,0:0:0:0:
109,192,49687,1,0,0:0:0:0:
182,192,49875,1,8,0:0:0:0:
36,192,49875,1,0,0:0:0:0:
475,192,49875,1,0,0:0:0:0:
329,192,49968,1,0,0:0:0:0:
182,192,50062,1,2,0:0:0:0:
36,192,50062,1,2,0:0:0:0:
475,192,50062,1,0,0:0:0:0:
329,192,50156,1,0,0:0:0:0:
182,192,50250,1,2,0:0:0:0:
36,192,50250,1,0,0:0:0:0:
475,192,50250,1,0,0:0:0:0:
256,192,50437,1,0,0:0:0:0:
109,192,50437,1,0,0:0:0:0:
475,192,50531,1,0,0:0:0:0:
402,192,50578,1,0,0:0:0:0:
329,192,50625,1,8,0:0:0:0:
182,192,50625,1,0,0:0:0:0:
109,192,50625,1,0,0:0:0:0:
109,192,50812,1,0,0:0:0:0:
475,192,50812,1,0,0:0:0:0:
182,192,50906,1,0,0:0:0:0:
329,192,50906,1,0,0:0:0:0:
402,192,51000,1,6,0:0:0:0:
256,192,51000,1,4,0:0:0:0:
36,192,51000,1,0,0:0:0:0:
329,192,51187,1,0,0:0:0:0:
36,192,51187,1,0,0:0:0:0:
256,192,51375,1,8,0:0:0:0:
109,192,51375,1,0,0:0:0:0:
475,192,51468,1,0,0:0:0:0:
36,192,51562,1,0,0:0:0:0:
182,192,51562,1,0,0:0:0:0:
329,192,51562,1,0,0:0:0:0:
475,192,51656,1,0,0:0:0:0:
402,192,51703,1,0,0:0:0:0:
329,192,51750,1,2,0:0:0:0:
109,192,51750,128,0,51937:0:0:0:0:
182,192,51937,128,0,52125:0:0:0:0:
402,192,51937,1,0,0:0:0:0:
329,192,52125,1,8,0:0:0:0:
256,192,52125,1,0,0:0:0:0:
36,192,52125,1,0,0:0:0:0:
109,192,52312,1,0,0:0:0:0:
402,192,52312,1,0,0:0:0:0:
182,192,52406,1,0,0:0:0:0:
329,192,52406,1,0,0:0:0:0:
36,192,52500,1,2,0:0:0:0:
256,192,52500,1,0,0:0:0:0:
475,192,52500,1,0,0:0:0:0:
402,192,52687,1,0,0:0:0:0:
182,192,52687,1,0,0:0:0:0:
109,192,52781,1,0,0:0:0:0:
329,192,52781,1,0,0:0:0:0:
36,192,52875,1,8,0:0:0:0:
256,192,52875,1,0,0:0:0:0:
475,192,52875,1,0,0:0:0:0:
182,192,52968,1,0,0:0:0:0:
109,192,53062,1,0,0:0:0:0:
256,192,53156,1,0,0:0:0:0:
329,192,53203,1,0,0:0:0:0:
36,192,53250,1,2,0:0:0:0:
475,192,53250,1,0,0:0:0:0:
402,192,53250,1,0,0:0:0:0:
109,192,53437,1,0,0:0:0:0:
329,192,53437,1,0,0:0:0:0:
256,192,53531,1,0,0:0:0:0:
475,192,53531,1,0,0:0:0:0:
36,192,53625,1,8,0:0:0:0:
329,192,53625,1,0,0:0:0:0:
182,192,53718,1,0,0:0:0:0:
475,192,53718,1,0,0:0:0:0:
109,192,53812,1,0,0:0:0:0:
402,192,53812,1,0,0:0:0:0:
256,192,53906,1,0,0:0:0:0:
36,192,54000,1,2,0:0:0:0:
329,192,54000,1,0,0:0:0:0:
182,192,54000,1,0,0:0:0:0:
475,192,54000,1,0,0:0:0:0:
256,192,54187,1,0,0:0:0:0:
109,192,54281,1,0,0:0:0:0:
402,192,54375,1,8,0:0:0:0:
256,192,54375,1,0,0:0:0:0:
109,192,54468,1,0,0:0:0:0:
256,192,54562,1,0,0:0:0:0:
402,192,54562,1,0,0:0:0:0:
36,192,54656,1,0,0:0:0:0:
182,192,54750,1,2,0:0:0:0:
329,192,54750,1,0,0:0:0:0:
475,192,54750,1,0,0:0:0:0:
36,192,54937,1,0,0:0:0:0:
256,192,54937,1,0,0:0:0:0:
475,192,55031,1,0,0:0:0:0:
402,192,55078,1,0,0:0:0:0:
329,192,55125,1,8,0:0:0:0:
182,192,55125,1,0,0:0:0:0:
109,192,55218,1,0,0:0:0:0:
36,192,55312,1,0,0:0:0:0:
329,192,55312,1,0,0:0:0:0:
109,192,55406,1,0,0:0:0:0:
475,192,55500,1,6,0:0:0:0:
402,192,55500,1,4,0:0:0:0:
256,192,55500,1,0,0:0:0:0:
182,192,55500,1,0,0:0:0:0:
36,192,55687,1,0,0:0:0:0:
329,192,55687,1,0,0:0:0:0:
109,192,55781,1,0,0:0:0:0:
182,192,55828,1,0,0:0:0:0:
256,192,55875,1,8,0:0:0:0:
475,192,55875,1,0,0:0:0:0:
402,192,55875,1,0,0:0:0:0:
329,192,55968,1,0,0:0:0:0:
402,192,56062,1,2,0:0:0:0:
109,192,56062,1,2,0:0:0:0:
36,192,56062,1,0,0:0:0:0:
182,192,56156,1,0,0:0:0:0:
475,192,56250,1,2,0:0:0:0:
329,192,56250,1,0,0:0:0:0:
256,192,56250,1,0,0:0:0:0:
402,192,56437,1,0,0:0:0:0:
109,192,56437,1,0,0:0:0:0:
36,192,56437,1,0,0:0:0:0:
182,192,56531,1,0,0:0:0:0:
329,192,56625,1,8,0:0:0:0:
475,192,56625,1,0,0:0:0:0:
256,192,56625,1,0,0:0:0:0:
36,192,57000,1,6,0:0:0:0:
402,192,57000,1,0,0:0:0:0:
256,192,57000,1,0,0:0:0:0:
109,192,57187,1,0,0:0:0:0:
402,192,57187,1,0,0:0:0:0:
256,192,57187,1,0,0:0:0:0:
182,192,57375,1,8,0:0:0:0:
36,192,57375,1,0,0:0:0:0:
329,192,57375,1,0,0:0:0:0:
475,192,57375,1,0,0:0:0:0:
109,192,57562,1,0,0:0:0:0:
475,192,57562,1,0,0:0:0:0:
329,192,57562,1,0,0:0:0:0:
36,192,57750,1,2,0:0:0:0:
402,192,57750,1,0,0:0:0:0:
182,192,57843,1,0,0:0:0:0:
256,192,57843,1,0,0:0:0:0:
329,192,57843,1,0,0:0:0:0:
36,192,57937,128,0,58312:0:0:0:0:
402,192,57937,128,0,58312:0:0:0:0:
182,192,58312,1,0,0:0:0:0:
329,192,58312,1,0,0:0:0:0:
36,192,58406,1,0,0:0:0:0:
475,192,58406,1,0,0:0:0:0:
182,192,58500,1,2,0:0:0:0:
329,192,58500,1,0,0:0:0:0:
109,192,58687,1,0,0:0:0:0:
329,192,58687,1,0,0:0:0:0:
402,192,58687,1,0,0:0:0:0:
182,192,58875,1,8,0:0:0:0:
36,192,58875,1,0,0:0:0:0:
475,192,58875,1,0,0:0:0:0:
329,192,58875,1,0,0:0:0:0:
109,192,59062,1,0,0:0:0:0:
475,192,59062,1,0,0:0:0:0:
329,192,59062,1,0,0:0:0:0:
36,192,59250,1,2,0:0:0:0:
475,192,59250,1,0,0:0:0:0:
402,192,59250,1,0,0:0:0:0:
182,192,59343,1,0,0:0:0:0:
256,192,59343,1,0,0:0:0:0:
36,192,59437,128,0,59812:0:0:0:0:
475,192,59437,128,0,59812:0:0:0:0:
402,192,59437,128,0,59812:0:0:0:0:
182,192,59812,1,0,0:0:0:0:
256,192,59812,1,0,0:0:0:0:
329,192,59812,1,0,0:0:0:0:
36,192,59906,1,0,0:0:0:0:
402,192,59906,1,0,0:0:0:0:
182,192,60000,1,2,0:0:0:0:
256,192,60000,1,0,0:0:0:0:
329,192,60000,1,0,0:0:0:0:
109,192,60187,1,0,0:0:0:0:
402,192,60187,1,0,0:0:0:0:
182,192,60375,1,8,0:0:0:0:
36,192,60375,1,0,0:0:0:0:
329,192,60375,128,0,60562:0:0:0:0:
109,192,60562,1,0,0:0:0:0:
182,192,60609,1,0,0:0:0:0:
256,192,60656,1,0,0:0:0:0:
329,192,60703,1,0,0:0:0:0:
402,192,60750,1,2,0:0:0:0:
475,192,60750,128,0,61781:0:0:0:0:
36,192,60937,128,0,61781:0:0:0:0:
402,192,61125,128,8,61781:0:0:0:0:
256,192,61125,1,0,0:0:0:0:
329,192,61125,1,0,0:0:0:0:
109,192,61312,128,0,61781:0:0:0:0:
182,192,61500,128,2,61781:0:0:0:0:
329,192,61500,128,0,61781:0:0:0:0:
182,192,61875,1,8,0:0:0:0:
109,192,61875,1,0,0:0:0:0:
36,192,61875,1,0,0:0:0:0:
402,192,61875,1,0,0:0:0:0:
475,192,61875,1,0,0:0:0:0:
329,192,61875,1,0,0:0:0:0:
182,192,62062,1,2,0:0:0:0:
329,192,62062,1,0,0:0:0:0:
256,192,62250,1,2,0:0:0:0:
402,192,62250,1,0,0:0:0:0:
182,192,62343,1,0,0:0:0:0:
36,192,62343,1,0,0:0:0:0:
475,192,62437,1,0,0:0:0:0:
329,192,62437,1,0,0:0:0:0:
256,192,62531,1,0,0:0:0:0:
109,192,62531,1,0,0:0:0:0:
329,192,62625,128,8,63000:0:0:0:0:
475,192,62625,128,0,63000:0:0:0:0:
36,192,63000,1,6,0:0:0:0:
402,192,63000,1,0,0:0:0:0:
256,192,63000,1,0,0:0:0:0:
402,192,63187,1,0,0:0:0:0:
109,192,63187,1,0,0:0:0:0:
256,192,63187,1,0,0:0:0:0:
475,192,63375,1,8,0:0:0:0:
329,192,63375,1,0,0:0:0:0:
36,192,63375,1,0,0:0:0:0:
182,192,63375,1,0,0:0:0:0:
109,192,63562,1,0,0:0:0:0:
475,192,63562,1,0,0:0:0:0:
329,192,63562,1,0,0:0:0:0:
36,192,63750,1,2,0:0:0:0:
402,192,63750,1,0,0:0:0:0:
182,192,63843,1,0,0:0:0:0:
256,192,63843,1,0,0:0:0:0:
329,192,63843,1,0,0:0:0:0:
36,192,63937,128,0,64312:0:0:0:0:
402,192,63937,128,0,64312:0:0:0:0:
182,192,64312,1,0,0:0:0:0:
329,192,64312,1,0,0:0:0:0:
36,192,64406,1,0,0:0:0:0:
475,192,64406,1,0,0:0:0:0:
182,192,64500,1,2,0:0:0:0:
329,192,64500,1,0,0:0:0:0:
402,192,64687,1,0,0:0:0:0:
329,192,64687,1,0,0:0:0:0:
109,192,64687,1,0,0:0:0:0:
182,192,64875,1,8,0:0:0:0:
329,192,64875,1,0,0:0:0:0:
475,192,64875,1,0,0:0:0:0:
36,192,64875,1,0,0:0:0:0:
329,192,65062,1,0,0:0:0:0:
109,192,65062,1,0,0:0:0:0:
475,192,65062,1,0,0:0:0:0:
36,192,65250,1,2,0:0:0:0:
475,192,65250,1,0,0:0:0:0:
402,192,65250,1,0,0:0:0:0:
182,192,65343,1,0,0:0:0:0:
256,192,65343,1,0,0:0:0:0:
402,192,65437,128,0,65812:0:0:0:0:
36,192,65437,128,0,65812:0:0:0:0:
475,192,65437,128,0,65812:0:0:0:0:
256,192,65812,1,0,0:0:0:0:
329,192,65812,1,0,0:0:0:0:
182,192,65812,1,0,0:0:0:0:
36,192,65906,1,0,0:0:0:0:
402,192,65906,1,0,0:0:0:0:
182,192,66000,1,2,0:0:0:0:
329,192,66000,1,0,0:0:0:0:
256,192,66000,1,0,0:0:0:0:
109,192,66187,1,0,0:0:0:0:
402,192,66187,1,0,0:0:0:0:
36,192,66375,1,8,0:0:0:0:
256,192,66375,128,0,66562:0:0:0:0:
182,192,66375,1,0,0:0:0:0:
109,192,66562,1,0,0:0:0:0:
402,192,66562,1,0,0:0:0:0:
182,192,66609,1,0,0:0:0:0:
329,192,66609,1,0,0:0:0:0:
36,192,66656,1,0,0:0:0:0:
475,192,66656,1,0,0:0:0:0:
402,192,66703,1,0,0:0:0:0:
109,192,66703,1,0,0:0:0:0:
182,192,66750,1,2,0:0:0:0:
256,192,66750,128,0,66937:0:0:0:0:
329,192,66750,1,0,0:0:0:0:
402,192,66937,1,0,0:0:0:0:
109,192,66937,1,0,0:0:0:0:
475,192,67125,1,8,0:0:0:0:
329,192,67125,1,0,0:0:0:0:
182,192,67125,1,0,0:0:0:0:
36,192,67125,1,0,0:0:0:0:
402,192,67312,1,0,0:0:0:0:
256,192,67312,1,0,0:0:0:0:
109,192,67312,1,0,0:0:0:0:
256,192,67500,128,2,68250:0:0:0:0:
109,192,67500,1,0,0:0:0:0:
36,192,67500,1,0,0:0:0:0:
475,192,67500,1,0,0:0:0:0:
402,192,67500,1,0,0:0:0:0:
475,192,67687,1,0,0:0:0:0:
402,192,67687,1,0,0:0:0:0:
109,192,67687,1,0,0:0:0:0:
36,192,67687,1,0,0:0:0:0:
402,192,67875,1,8,0:0:0:0:
329,192,67875,1,0,0:0:0:0:
182,192,67875,1,0,0:0:0:0:
109,192,67875,1,0,0:0:0:0:
182,192,68062,1,2,0:0:0:0:
109,192,68062,1,0,0:0:0:0:
402,192,68062,1,0,0:0:0:0:
329,192,68062,1,0,0:0:0:0:
182,192,68250,1,2,0:0:0:0:
36,192,68250,1,0,0:0:0:0:
329,192,68250,1,0,0:0:0:0:
475,192,68250,1,0,0:0:0:0:
475,192,68625,1,8,0:0:0:0:
402,192,68625,1,0,0:0:0:0:
329,192,68625,1,0,0:0:0:0:
256,192,68625,1,0,0:0:0:0:
182,192,68625,1,0,0:0:0:0:
109,192,68625,1,0,0:0:0:0:
36,192,69000,1,6,0:0:0:0:
109,192,69000,1,4,0:0:0:0:
329,192,69000,1,0,0:0:0:0:
475,192,69000,1,0,0:0:0:0:
182,192,69187,1,0,0:0:0:0:
109,192,69281,1,0,0:0:0:0:
329,192,69281,1,0,0:0:0:0:
182,192,69375,128,8,69750:1:0:0:0:
402,192,69375,1,0,0:0:0:0:
329,192,69562,128,0,69750:0:0:0:0:
109,192,69750,128,0,70125:0:0:0:0:
256,192,69750,128,0,70125:0:0:0:0:
402,192,69937,128,0,70125:0:0:0:0:
329,192,70125,128,8,70500:1:0:0:0:
182,192,70125,128,0,70500:0:0:0:0:
475,192,70312,128,0,70500:0:0:0:0:
36,192,70500,128,0,71250:0:0:0:0:
256,192,70500,1,0,0:0:0:0:
475,192,70687,1,0,0:0:0:0:
329,192,70781,1,0,0:0:0:0:
475,192,70875,128,8,71250:1:0:0:0:
329,192,71062,128,0,71250:0:0:0:0:
182,192,71062,128,0,71250:0:0:0:0:
109,192,71250,128,0,71625:0:0:0:0:
402,192,71250,128,0,71625:0:0:0:0:
256,192,71437,128,0,71625:0:0:0:0:
182,192,71625,128,8,72000:1:0:0:0:
329,192,71625,128,0,72000:0:0:0:0:
36,192,71812,128,0,72000:0:0:0:0:
475,192,71812,128,0,72000:0:0:0:0:
402,192,72000,1,0,0:0:0:0:
109,192,72000,1,0,0:0:0:0:
36,192,72187,1,0,0:0:0:0:
329,192,72187,1,0,0:0:0:0:
182,192,72281,1,0,0:0:0:0:
475,192,72281,1,0,0:0:0:0:
36,192,72375,128,8,72750:1:0:0:0:
329,192,72375,128,0,72750:0:0:0:0:
256,192,72562,128,0,72750:0:0:0:0:
109,192,72750,128,0,73125:0:0:0:0:
402,192,72750,128,0,73125:0:0:0:0:
256,192,72937,128,0,73125:0:0:0:0:
182,192,73125,128,8,73500:1:0:0:0:
475,192,73125,128,0,73500:0:0:0:0:
256,192,73312,128,0,73500:0:0:0:0:
402,192,73500,1,0,0:0:0:0:
109,192,73500,1,0,0:0:0:0:
36,192,73687,1,0,0:0:0:0:
329,192,73687,1,0,0:0:0:0:
182,192,73781,1,0,0:0:0:0:
475,192,73781,1,0,0:0:0:0:
36,192,73875,1,8,1:0:0:0:
329,192,73875,1,0,0:0:0:0:
256,192,73875,1,0,0:0:0:0:
109,192,74062,1,0,0:0:0:70:LR2_Snare+Hat.wav
402,192,74062,1,0,0:0:0:0:
182,192,74109,1,0,0:0:0:0:
329,192,74109,1,0,0:0:0:0:
256,192,74156,1,0,0:0:0:0:
36,192,74203,1,0,0:0:0:0:
475,192,74203,1,0,0:0:0:0:
109,192,74250,1,0,0:0:0:70:LR2_Snare+Hat.wav
402,192,74250,1,0,0:0:0:0:
182,192,74343,1,0,0:0:0:70:LR2_Snare+Hat.wav
329,192,74343,1,0,0:0:0:0:
109,192,74437,1,0,0:0:0:70:LR2_Snare+Hat.wav
402,192,74437,1,0,0:0:0:0:
182,192,74531,1,0,0:0:0:70:LR2_Snare+Hat.wav
329,192,74531,1,0,0:0:0:0:
402,192,74625,1,0,0:0:0:70:LR_Kick Low Strong Beat.wav
256,192,74625,1,0,0:0:0:0:
109,192,74625,128,0,75000:0:0:0:0:
475,192,74812,1,0,0:0:0:0:
329,192,74906,1,0,0:0:0:0:
475,192,75000,1,6,0:0:0:0:
402,192,75000,1,4,0:0:0:0:
256,192,75000,1,0,0:0:0:0:
182,192,75000,1,0,0:0:0:0:
36,192,75000,1,0,0:0:0:0:
109,192,75187,1,0,0:0:0:0:
329,192,75187,1,0,0:0:0:0:
182,192,75281,1,0,0:0:0:0:
109,192,75375,1,8,0:0:0:0:
36,192,75375,1,0,0:0:0:0:
256,192,75375,1,0,0:0:0:0:
402,192,75375,1,0,0:0:0:0:
475,192,75375,1,0,0:0:0:0:
402,192,75562,1,0,0:0:0:0:
182,192,75562,1,0,0:0:0:0:
329,192,75656,1,0,0:0:0:0:
256,192,75750,1,2,0:0:0:0:
402,192,75750,1,0,0:0:0:0:
475,192,75750,1,0,0:0:0:0:
109,192,75750,1,0,0:0:0:0:
36,192,75750,1,0,0:0:0:0:
109,192,75937,1,0,0:0:0:0:
329,192,75937,1,0,0:0:0:0:
182,192,76031,1,0,0:0:0:0:
256,192,76125,1,8,0:0:0:0:
109,192,76125,1,0,0:0:0:0:
36,192,76125,1,0,0:0:0:0:
402,192,76125,1,0,0:0:0:0:
475,192,76125,1,0,0:0:0:0:
182,192,76312,1,0,0:0:0:0:
329,192,76312,1,0,0:0:0:0:
475,192,76500,1,2,0:0:0:0:
36,192,76500,1,0,0:0:0:0:
329,192,76500,1,0,0:0:0:0:
256,192,76500,1,0,0:0:0:0:
109,192,76500,1,0,0:0:0:0:
182,192,76687,1,0,0:0:0:0:
402,192,76687,1,0,0:0:0:0:
329,192,76781,1,0,0:0:0:0:
182,192,76875,1,8,0:0:0:0:
109,192,76875,1,0,0:0:0:0:
475,192,76875,1,0,0:0:0:0:
256,192,76875,1,0,0:0:0:0:
329,192,77062,1,0,0:0:0:0:
36,192,77062,1,0,0:0:0:0:
182,192,77156,1,0,0:0:0:0:
475,192,77250,1,2,0:0:0:0:
109,192,77250,1,0,0:0:0:0:
256,192,77250,1,0,0:0:0:0:
402,192,77250,1,0,0:0:0:0:
182,192,77437,1,0,0:0:0:0:
36,192,77437,1,0,0:0:0:0:
329,192,77531,1,0,0:0:0:0:
256,192,77625,1,8,0:0:0:0:
109,192,77625,1,0,0:0:0:0:
475,192,77625,1,0,0:0:0:0:
402,192,77625,1,0,0:0:0:0:
182,192,77812,1,0,0:0:0:0:
36,192,77812,1,0,0:0:0:0:
475,192,78000,1,6,0:0:0:0:
256,192,78000,1,4,0:0:0:0:
329,192,78000,1,0,0:0:0:0:
182,192,78000,1,0,0:0:0:0:
109,192,78000,1,0,0:0:0:0:
402,192,78187,1,0,0:0:0:0:
36,192,78187,1,0,0:0:0:0:
109,192,78281,1,0,0:0:0:0:
182,192,78375,1,8,0:0:0:0:
256,192,78375,1,0,0:0:0:0:
329,192,78375,1,0,0:0:0:0:
402,192,78375,1,0,0:0:0:0:
36,192,78562,1,0,0:0:0:0:
475,192,78562,1,0,0:0:0:0:
182,192,78656,1,0,0:0:0:0:
36,192,78750,1,6,0:0:0:0:
256,192,78750,1,4,0:0:0:0:
329,192,78750,1,0,0:0:0:0:
109,192,78750,1,0,0:0:0:0:
402,192,78750,1,0,0:0:0:0:
182,192,78937,1,0,0:0:0:0:
475,192,78937,1,0,0:0:0:0:
36,192,79031,1,0,0:0:0:0:
256,192,79125,1,8,0:0:0:0:
109,192,79125,1,0,0:0:0:0:
402,192,79125,1,0,0:0:0:0:
329,192,79125,1,0,0:0:0:0:
182,192,79312,1,0,0:0:0:0:
402,192,79312,1,0,0:0:0:0:
329,192,79406,1,0,0:0:0:0:
36,192,79500,1,6,0:0:0:0:
256,192,79500,1,4,0:0:0:0:
475,192,79500,1,0,0:0:0:0:
402,192,79500,1,0,0:0:0:0:
182,192,79500,1,0,0:0:0:0:
109,192,79687,1,0,0:0:0:0:
329,192,79687,1,0,0:0:0:0:
182,192,79781,1,0,0:0:0:0:
475,192,79781,1,0,0:0:0:0:
36,192,79875,1,8,0:0:0:0:
402,192,79875,1,0,0:0:0:0:
182,192,79968,1,0,0:0:0:0:
329,192,79968,1,0,0:0:0:0:
109,192,80062,1,0,0:0:0:0:
402,192,80062,1,0,0:0:0:0:
182,192,80156,1,0,0:0:0:0:
329,192,80156,1,0,0:0:0:0:
36,192,80250,1,2,0:0:0:0:
475,192,80250,1,0,0:0:0:0:
109,192,80250,1,0,0:0:0:0:
402,192,80250,1,0,0:0:0:0:
256,192,80343,1,0,0:0:0:0:
329,192,80437,1,2,0:0:0:0:
182,192,80437,1,0,0:0:0:0:
256,192,80531,1,0,0:0:0:0:
36,192,80625,1,8,0:0:0:0:
475,192,80625,1,0,0:0:0:0:
402,192,80625,1,0,0:0:0:0:
109,192,80625,1,0,0:0:0:0:
329,192,80625,1,0,0:0:0:0:
182,192,80625,1,0,0:0:0:0:
182,192,81000,1,4,0:0:0:0:
36,192,81000,1,0,0:0:0:0:
475,192,81000,1,0,0:0:0:0:
256,192,81000,1,0,0:0:0:0:
182,192,81187,1,0,0:0:0:0:
36,192,81187,1,0,0:0:0:0:
475,192,81375,1,2,3:0:0:0:
329,192,81375,1,0,0:0:0:0:
109,192,81375,1,0,0:0:0:0:
402,192,81656,1,0,0:0:0:0:
256,192,81656,1,0,0:0:0:0:
36,192,81656,1,0,0:0:0:0:
402,192,81750,1,0,0:0:0:0:
256,192,81750,1,0,0:0:0:0:
36,192,81750,1,0,0:0:0:0:
109,192,81937,1,0,0:0:0:0:
182,192,82125,1,2,3:0:0:0:
329,192,82125,1,0,0:0:0:0:
402,192,82312,1,0,0:0:0:0:
182,192,82500,1,0,0:0:0:0:
36,192,82500,1,0,0:0:0:0:
475,192,82500,1,0,0:0:0:0:
109,192,82687,1,0,0:0:0:0:
329,192,82687,1,0,0:0:0:0:
182,192,82781,1,0,0:0:0:0:
402,192,82781,1,0,0:0:0:0:
256,192,82875,1,2,3:0:0:0:
475,192,82875,1,0,0:0:0:0:
475,192,83062,1,0,0:0:0:0:
182,192,83062,1,0,0:0:0:0:
329,192,83250,1,0,0:0:0:0:
36,192,83250,1,0,0:0:0:0:
109,192,83250,1,0,0:0:0:0:
182,192,83437,1,0,0:0:0:0:
109,192,83625,1,2,3:0:0:0:
36,192,83625,1,0,0:0:0:0:
329,192,83625,1,0,0:0:0:0:
36,192,84000,1,0,0:0:0:0:
182,192,84000,1,0,0:0:0:0:
402,192,84000,1,0,0:0:0:0:
256,192,84187,1,0,0:0:0:0:
329,192,84375,1,2,3:0:0:0:
475,192,84375,1,0,0:0:0:0:
182,192,84375,1,0,0:0:0:0:
402,192,84656,1,0,0:0:0:0:
256,192,84656,1,0,0:0:0:0:
109,192,84656,1,0,0:0:0:0:
256,192,84750,1,0,0:0:0:0:
109,192,84750,1,0,0:0:0:0:
402,192,84750,1,0,0:0:0:0:
182,192,84937,1,0,0:0:0:0:
256,192,85125,1,2,3:0:0:0:
475,192,85125,1,0,0:0:0:0:
109,192,85312,1,0,0:0:0:0:
475,192,85500,1,0,0:0:0:0:
256,192,85500,1,0,0:0:0:0:
36,192,85500,1,0,0:0:0:0:
329,192,85687,1,0,0:0:0:0:
402,192,85781,1,0,0:0:0:0:
475,192,85875,1,8,0:0:0:0:
256,192,85875,1,0,0:0:0:0:
36,192,85875,1,0,0:0:0:0:
182,192,86062,1,0,0:0:0:70:LR2_Snare+Hat.wav
109,192,86156,1,0,0:0:0:0:
36,192,86250,1,0,0:0:0:70:LR2_Snare+Hat.wav
256,192,86250,1,0,0:0:0:0:
475,192,86250,1,0,0:0:0:0:
109,192,86343,1,0,0:0:0:70:LR2_Snare+Hat.wav
182,192,86437,1,0,0:0:0:70:LR2_Snare+Hat.wav
256,192,86531,1,0,0:0:0:70:LR2_Snare+Hat.wav
329,192,86625,1,0,0:0:0:30:LR_Kick Low Strong Beat.wav
36,192,86625,1,0,0:0:0:0:
182,192,86718,1,0,0:0:0:0:
109,192,86812,1,0,0:0:0:0:
182,192,86906,1,0,0:0:0:0:
256,192,87000,1,4,0:0:0:0:
402,192,87000,1,0,0:0:0:0:
182,192,87093,1,0,0:0:0:0:
109,192,87187,1,0,0:0:0:0:
182,192,87281,1,0,0:0:0:0:
256,192,87375,1,2,3:0:0:0:
402,192,87375,1,0,0:0:0:0:
182,192,87468,1,0,0:0:0:0:
109,192,87562,1,0,0:0:0:0:
182,192,87656,1,0,0:0:0:0:
256,192,87750,1,0,0:0:0:0:
402,192,87750,1,0,0:0:0:0:
182,192,87843,1,0,0:0:0:0:
109,192,87937,1,0,0:0:0:0:
182,192,88031,1,0,0:0:0:0:
475,192,88125,1,2,3:0:0:0:
329,192,88125,1,0,0:0:0:0:
256,192,88218,1,0,0:0:0:0:
109,192,88312,1,0,0:0:0:0:
182,192,88406,1,0,0:0:0:0:
402,192,88500,1,0,0:0:0:0:
475,192,88500,1,0,0:0:0:0:
329,192,88593,1,0,0:0:0:0:
256,192,88687,1,0,0:0:0:0:
36,192,88687,1,0,0:0:0:0:
329,192,88781,1,0,0:0:0:0:
109,192,88781,1,0,0:0:0:0:
402,192,88875,1,2,3:0:0:0:
475,192,88875,1,0,0:0:0:0:
182,192,88875,1,0,0:0:0:0:
256,192,88968,1,0,0:0:0:0:
475,192,89062,1,0,0:0:0:0:
402,192,89062,1,0,0:0:0:0:
182,192,89062,1,0,0:0:0:0:
256,192,89156,1,0,0:0:0:0:
109,192,89250,1,0,0:0:0:0:
36,192,89250,1,0,0:0:0:0:
329,192,89250,1,0,0:0:0:0:
182,192,89343,1,0,0:0:0:0:
256,192,89437,1,0,0:0:0:0:
182,192,89531,1,0,0:0:0:0:
109,192,89625,1,2,3:0:0:0:
36,192,89625,1,0,0:0:0:0:
475,192,89625,1,0,0:0:0:0:
402,192,89625,1,0,0:0:0:0:
329,192,89718,1,0,0:0:0:0:
256,192,89812,1,0,0:0:0:0:
329,192,89906,1,0,0:0:0:0:
402,192,90000,1,4,0:0:0:0:
475,192,90000,1,0,0:0:0:0:
182,192,90000,1,0,0:0:0:0:
36,192,90187,1,0,0:0:0:0:
109,192,90281,1,0,0:0:0:0:
182,192,90375,1,2,3:0:0:0:
402,192,90375,1,0,0:0:0:0:
109,192,90468,1,0,0:0:0:0:
329,192,90468,1,0,0:0:0:0:
36,192,90562,1,0,0:0:0:0:
256,192,90562,1,0,0:0:0:0:
329,192,90656,1,0,0:0:0:0:
402,192,90750,1,4,0:0:0:0:
475,192,90750,1,0,0:0:0:0:
182,192,90750,1,0,0:0:0:0:
256,192,90937,1,0,0:0:0:0:
475,192,91125,1,2,3:0:0:0:
329,192,91125,1,0,0:0:0:0:
182,192,91125,1,0,0:0:0:0:
402,192,91312,1,0,0:0:0:0:
256,192,91312,1,0,0:0:0:0:
109,192,91312,1,0,0:0:0:0:
475,192,91500,1,4,0:0:0:0:
329,192,91500,1,0,0:0:0:0:
36,192,91500,1,0,0:0:0:0:
109,192,91500,1,0,0:0:0:0:
402,192,91687,1,0,0:0:0:0:
256,192,91687,1,0,0:0:0:0:
329,192,91875,1,8,0:0:0:0:
182,192,91875,1,0,0:0:0:0:
475,192,91875,1,0,0:0:0:0:
256,192,92062,1,0,0:0:0:0:
109,192,92062,1,0,0:0:0:0:
475,192,92062,1,0,0:0:0:0:
36,192,92250,1,0,0:0:0:0:
182,192,92250,1,0,0:0:0:0:
475,192,92250,1,0,0:0:0:0:
475,192,92437,1,8,0:0:0:0:
329,192,92437,1,0,0:0:0:0:
182,192,92437,1,0,0:0:0:0:
36,192,92437,1,0,0:0:0:0:
475,192,92625,1,8,0:0:0:0:
402,192,92625,1,0,0:0:0:0:
329,192,92625,1,0,0:0:0:0:
182,192,92625,1,0,0:0:0:0:
109,192,92625,1,0,0:0:0:0:
36,192,92625,1,0,0:0:0:0:
256,192,92812,1,0,0:0:0:0:
329,192,92906,1,0,0:0:0:0:
402,192,93000,1,6,0:0:0:0:
475,192,93000,1,4,0:0:0:0:
109,192,93000,1,0,0:0:0:0:
36,192,93000,1,0,0:0:0:0:
182,192,93187,1,8,0:0:0:0:
329,192,93187,1,0,0:0:0:0:
402,192,93375,1,0,0:0:0:0:
36,192,93375,1,0,0:0:0:0:
182,192,93468,1,0,0:0:0:0:
329,192,93562,1,2,0:0:0:0:
109,192,93656,1,0,0:0:0:0:
475,192,93656,1,0,0:0:0:0:
329,192,93750,1,8,0:0:0:0:
36,192,93750,1,0,0:0:0:0:
256,192,93750,1,0,0:0:0:0:
36,192,93937,1,0,0:0:0:0:
329,192,93937,1,0,0:0:0:0:
256,192,93937,1,0,0:0:0:0:
182,192,94125,128,8,94312:0:0:0:0:
475,192,94125,128,0,94312:0:0:0:0:
36,192,94312,1,0,0:0:0:0:
329,192,94312,1,0,0:0:0:0:
109,192,94406,1,0,0:0:0:0:
402,192,94406,1,0,0:0:0:0:
182,192,94500,1,2,0:0:0:0:
475,192,94500,1,0,0:0:0:0:
475,192,94687,1,8,0:0:0:0:
256,192,94687,1,0,0:0:0:0:
182,192,94687,1,0,0:0:0:0:
109,192,94781,1,0,0:0:0:0:
329,192,94781,1,0,0:0:0:0:
182,192,94875,1,0,0:0:0:0:
402,192,94875,1,0,0:0:0:0:
36,192,94968,1,0,0:0:0:0:
329,192,94968,1,0,0:0:0:0:
182,192,95062,1,2,0:0:0:0:
402,192,95062,1,0,0:0:0:0:
109,192,95156,1,0,0:0:0:0:
475,192,95156,1,0,0:0:0:0:
182,192,95250,1,8,0:0:0:0:
329,192,95250,128,0,95625:0:0:0:0:
36,192,95531,1,0,0:0:0:0:
109,192,95562,1,0,0:0:0:0:
182,192,95593,1,0,0:0:0:0:
256,192,95625,1,8,0:0:0:0:
402,192,95625,1,0,0:0:0:0:
475,192,95625,1,0,0:0:0:0:
182,192,95812,1,0,0:0:0:0:
329,192,95812,1,0,0:0:0:0:
256,192,96000,1,2,0:0:0:0:
36,192,96000,1,0,0:0:0:0:
475,192,96000,1,0,0:0:0:0:
109,192,96187,1,8,0:0:0:0:
329,192,96187,1,0,0:0:0:0:
182,192,96281,1,0,0:0:0:0:
402,192,96281,1,0,0:0:0:0:
256,192,96375,1,0,0:0:0:0:
36,192,96375,1,0,0:0:0:0:
475,192,96375,1,0,0:0:0:0:
109,192,96468,1,0,0:0:0:0:
329,192,96468,1,0,0:0:0:0:
182,192,96562,1,2,0:0:0:0:
402,192,96562,1,0,0:0:0:0:
256,192,96656,1,0,0:0:0:0:
329,192,96750,1,8,0:0:0:0:
475,192,96750,1,0,0:0:0:0:
109,192,96750,1,0,0:0:0:0:
36,192,96750,1,0,0:0:0:0:
182,192,96937,1,0,0:0:0:0:
256,192,97031,1,0,0:0:0:0:
329,192,97125,1,8,0:0:0:0:
475,192,97125,1,0,0:0:0:0:
109,192,97125,1,0,0:0:0:0:
36,192,97125,1,0,0:0:0:0:
182,192,97218,1,0,0:0:0:0:
109,192,97312,1,0,0:0:0:0:
402,192,97312,1,0,0:0:0:0:
182,192,97406,1,0,0:0:0:0:
256,192,97500,1,2,0:0:0:0:
329,192,97500,1,0,0:0:0:0:
475,192,97500,1,0,0:0:0:0:
109,192,97687,1,8,0:0:0:0:
36,192,97687,1,0,0:0:0:0:
329,192,97781,1,0,0:0:0:0:
475,192,97781,1,0,0:0:0:0:
182,192,97875,1,0,0:0:0:0:
109,192,97875,1,0,0:0:0:0:
329,192,97968,1,0,0:0:0:0:
475,192,97968,1,0,0:0:0:0:
109,192,98062,1,2,0:0:0:0:
36,192,98062,1,0,0:0:0:0:
475,192,98156,1,0,0:0:0:0:
329,192,98156,1,0,0:0:0:0:
256,192,98250,1,8,0:0:0:0:
182,192,98250,1,0,0:0:0:0:
109,192,98250,1,0,0:0:0:0:
36,192,98250,1,0,0:0:0:0:
256,192,98437,1,0,0:0:0:0:
182,192,98625,1,8,0:0:0:0:
109,192,98625,1,0,0:0:0:0:
402,192,98625,1,0,0:0:0:0:
329,192,98718,1,0,0:0:0:0:
475,192,98812,1,0,0:0:0:0:
182,192,98812,1,0,0:0:0:0:
256,192,98906,1,0,0:0:0:0:
36,192,98906,1,0,0:0:0:0:
109,192,99000,1,4,0:0:0:0:
182,192,99000,1,2,0:0:0:0:
402,192,99000,1,0,0:0:0:0:
329,192,99000,128,0,99187:0:0:0:0:
256,192,99187,1,8,0:0:0:0:
36,192,99187,1,0,0:0:0:0:
475,192,99187,1,0,0:0:0:0:
109,192,99375,1,8,1:0:0:30:LR2_Snare+Hat.wav
402,192,99375,1,0,0:0:0:0:
182,192,99468,1,0,0:0:0:0:
329,192,99468,1,0,0:0:0:0:
36,192,99562,1,2,0:0:0:0:
475,192,99562,1,0,0:0:0:0:
256,192,99562,1,0,0:0:0:0:
182,192,99656,1,0,0:0:0:0:
329,192,99656,1,0,0:0:0:0:
36,192,99750,1,8,0:0:0:0:
475,192,99750,1,0,0:0:0:0:
36,192,99937,1,0,0:0:0:0:
475,192,99937,1,0,0:0:0:0:
402,192,100125,1,8,0:0:0:30:LR2_Snare+Hat.wav
109,192,100125,1,8,1:0:0:0:
182,192,100312,1,0,0:0:0:0:
256,192,100406,1,0,0:0:0:0:
329,192,100500,1,2,0:0:0:0:
475,192,100500,1,0,0:0:0:0:
36,192,100500,1,0,0:0:0:0:
475,192,100687,1,8,0:0:0:0:
329,192,100687,1,0,0:0:0:0:
36,192,100687,1,0,0:0:0:0:
182,192,100781,1,0,0:0:0:0:
36,192,100875,1,8,1:0:0:30:LR2_Snare+Hat.wav
402,192,100875,1,0,0:0:0:0:
182,192,100968,1,0,0:0:0:0:
36,192,101062,1,2,0:0:0:0:
329,192,101062,1,0,0:0:0:0:
475,192,101062,1,0,0:0:0:0:
182,192,101156,1,0,0:0:0:0:
256,192,101250,1,8,0:0:0:0:
402,192,101250,128,0,101625:0:0:0:0:
36,192,101531,1,0,0:0:0:0:
109,192,101578,1,0,0:0:0:0:
182,192,101625,1,8,0:0:0:30:LR2_Snare+Hat.wav
256,192,101625,1,8,1:0:0:0:
329,192,101625,1,0,0:0:0:0:
402,192,101812,1,0,0:0:0:0:
329,192,101812,1,0,0:0:0:0:
256,192,101812,1,0,0:0:0:0:
256,192,102000,1,2,0:0:0:0:
182,192,102000,1,0,0:0:0:0:
36,192,102000,1,0,0:0:0:0:
475,192,102000,1,0,0:0:0:0:
109,192,102187,1,8,0:0:0:0:
329,192,102187,1,0,0:0:0:0:
182,192,102281,1,0,0:0:0:0:
402,192,102281,1,0,0:0:0:0:
256,192,102375,1,8,1:0:0:30:LR2_Snare+Hat.wav
36,192,102375,1,0,0:0:0:0:
475,192,102375,1,0,0:0:0:0:
109,192,102468,1,0,0:0:0:0:
402,192,102468,1,0,0:0:0:0:
182,192,102562,1,2,0:0:0:0:
329,192,102562,1,0,0:0:0:0:
109,192,102656,1,0,0:0:0:0:
402,192,102656,1,0,0:0:0:0:
182,192,102750,1,8,0:0:0:0:
329,192,102750,1,0,0:0:0:0:
475,192,102843,1,0,0:0:0:0:
36,192,102843,1,0,0:0:0:0:
256,192,102937,1,0,0:0:0:0:
36,192,103031,1,0,0:0:0:0:
475,192,103031,1,0,0:0:0:0:
402,192,103125,1,8,0:0:0:30:LR2_Snare+Hat.wav
109,192,103125,1,8,1:0:0:0:
329,192,103218,1,0,0:0:0:0:
182,192,103218,1,0,0:0:0:0:
475,192,103312,1,0,0:0:0:0:
36,192,103312,1,0,0:0:0:0:
182,192,103406,1,0,0:0:0:0:
329,192,103406,1,0,0:0:0:0:
36,192,103500,1,6,0:0:0:0:
475,192,103500,1,4,0:0:0:0:
256,192,103500,1,0,0:0:0:0:
256,192,103875,128,8,104531:0:0:0:0:
109,192,103875,128,8,104531:0:0:0:0:
402,192,103875,128,0,104531:0:0:0:0:
475,192,103875,128,0,104531:0:0:0:0:
36,192,103875,128,0,104531:0:0:0:0:
36,192,104625,1,0,0:0:0:0:
109,192,104625,1,0,0:0:0:0:
256,192,104625,1,0,0:0:0:0:
402,192,104625,1,0,0:0:0:0:
475,192,104625,1,0,0:0:0:0:
475,192,105000,1,6,0:0:0:0:
329,192,105000,1,0,0:0:0:0:
182,192,105000,1,0,0:0:0:0:
36,192,105000,1,0,0:0:0:0:
109,192,105187,1,0,0:0:0:0:
475,192,105187,1,0,0:0:0:0:
329,192,105187,1,0,0:0:0:0:
402,192,105375,1,8,0:0:0:0:
256,192,105375,1,0,0:0:0:0:
36,192,105375,1,0,0:0:0:0:
109,192,105562,1,0,0:0:0:0:
329,192,105562,1,0,0:0:0:0:
475,192,105562,1,0,0:0:0:0:
36,192,105750,1,2,0:0:0:0:
109,192,105750,1,0,0:0:0:0:
475,192,105750,1,0,0:0:0:0:
402,192,105750,1,0,0:0:0:0:
256,192,105843,1,0,0:0:0:0:
109,192,105937,128,0,106312:0:0:0:0:
36,192,105937,128,0,106312:0:0:0:0:
402,192,105937,128,0,106312:0:0:0:0:
475,192,105937,128,0,106312:0:0:0:0:
256,192,106312,1,0,0:0:0:0:
36,192,106406,1,0,0:0:0:0:
475,192,106406,1,0,0:0:0:0:
329,192,106500,1,2,0:0:0:0:
182,192,106500,1,0,0:0:0:0:
475,192,106687,1,0,0:0:0:0:
256,192,106687,1,0,0:0:0:0:
109,192,106687,1,0,0:0:0:0:
402,192,106875,1,8,0:0:0:0:
36,192,106875,1,0,0:0:0:0:
256,192,106875,1,0,0:0:0:0:
475,192,107062,1,0,0:0:0:0:
329,192,107062,1,0,0:0:0:0:
182,192,107062,1,0,0:0:0:0:
109,192,107250,1,2,0:0:0:0:
402,192,107250,1,0,0:0:0:0:
182,192,107343,1,0,0:0:0:0:
329,192,107343,1,0,0:0:0:0:
109,192,107437,128,0,107812:0:0:0:0:
36,192,107437,128,0,107812:0:0:0:0:
475,192,107437,128,0,107812:0:0:0:0:
402,192,107437,128,0,107812:0:0:0:0:
182,192,107812,1,0,0:0:0:0:
329,192,107812,1,0,0:0:0:0:
256,192,107906,1,0,0:0:0:0:
475,192,108000,1,2,0:0:0:0:
109,192,108000,1,0,0:0:0:0:
329,192,108000,1,0,0:0:0:0:
402,192,108187,1,0,0:0:0:0:
256,192,108187,1,0,0:0:0:0:
36,192,108187,1,0,0:0:0:0:
329,192,108375,1,8,0:0:0:0:
475,192,108375,1,0,0:0:0:0:
109,192,108375,128,0,108750:0:0:0:0:
256,192,108562,1,0,0:0:0:0:
329,192,108656,1,0,0:0:0:0:
475,192,108750,128,2,109781:0:0:0:0:
402,192,108750,128,0,109781:0:0:0:0:
329,192,108937,128,0,109781:0:0:0:0:
182,192,109125,128,8,109781:0:0:0:0:
109,192,109312,128,0,109781:0:0:0:0:
36,192,109500,128,2,109781:0:0:0:0:
182,192,109875,1,8,0:0:0:0:
109,192,109875,1,0,0:0:0:0:
36,192,109875,1,0,0:0:0:0:
475,192,109875,1,0,0:0:0:0:
402,192,109875,1,0,0:0:0:0:
329,192,109875,1,0,0:0:0:0:
402,192,110062,1,2,0:0:0:0:
109,192,110062,1,2,0:0:0:0:
402,192,110250,1,2,0:0:0:0:
329,192,110250,1,0,0:0:0:0:
182,192,110343,1,0,0:0:0:0:
109,192,110343,1,0,0:0:0:0:
475,192,110437,1,0,0:0:0:0:
402,192,110437,1,0,0:0:0:0:
109,192,110531,1,0,0:0:0:0:
36,192,110531,1,0,0:0:0:0:
475,192,110625,1,8,0:0:0:0:
329,192,110625,1,0,0:0:0:0:
182,192,110625,1,0,0:0:0:0:
256,192,110625,128,0,111000:0:0:0:0:
329,192,111000,1,6,0:0:0:0:
182,192,111000,1,4,0:0:0:0:
36,192,111000,1,0,0:0:0:0:
402,192,111187,1,0,0:0:0:0:
256,192,111187,1,0,0:0:0:0:
109,192,111187,1,0,0:0:0:0:
475,192,111375,1,8,0:0:0:0:
329,192,111375,1,0,0:0:0:0:
36,192,111375,1,0,0:0:0:0:
36,192,111562,1,0,0:0:0:0:
329,192,111562,1,0,0:0:0:0:
475,192,111562,1,0,0:0:0:0:
182,192,111750,1,2,0:0:0:0:
109,192,111750,1,0,0:0:0:0:
402,192,111843,1,0,0:0:0:0:
329,192,111843,1,0,0:0:0:0:
109,192,111937,128,0,112312:0:0:0:0:
182,192,111937,128,0,112312:0:0:0:0:
36,192,111937,128,0,112312:0:0:0:0:
475,192,112312,1,0,0:0:0:0:
329,192,112312,1,0,0:0:0:0:
182,192,112406,1,0,0:0:0:0:
109,192,112406,1,0,0:0:0:0:
475,192,112500,1,2,0:0:0:0:
402,192,112500,1,0,0:0:0:0:
256,192,112500,1,0,0:0:0:0:
329,192,112687,1,0,0:0:0:0:
182,192,112687,1,0,0:0:0:0:
36,192,112687,1,0,0:0:0:0:
402,192,112875,1,8,0:0:0:0:
256,192,112875,1,0,0:0:0:0:
109,192,112875,1,0,0:0:0:0:
109,192,113062,1,0,0:0:0:0:
256,192,113062,1,0,0:0:0:0:
475,192,113062,1,0,0:0:0:0:
475,192,113250,1,2,0:0:0:0:
402,192,113250,1,0,0:0:0:0:
182,192,113343,1,0,0:0:0:0:
36,192,113343,1,0,0:0:0:0:
475,192,113437,128,0,113812:0:0:0:0:
402,192,113437,128,0,113812:0:0:0:0:
329,192,113437,128,0,113812:0:0:0:0:
182,192,113812,1,0,0:0:0:0:
109,192,113812,1,0,0:0:0:0:
402,192,113906,1,0,0:0:0:0:
329,192,113906,1,0,0:0:0:0:
182,192,114000,1,2,0:0:0:0:
36,192,114000,1,0,0:0:0:0:
256,192,114000,128,0,114187:0:0:0:0:
402,192,114187,1,0,0:0:0:0:
475,192,114375,1,8,0:0:0:0:
329,192,114375,1,0,0:0:0:0:
182,192,114375,1,0,0:0:0:0:
329,192,114562,1,0,0:0:0:0:
402,192,114609,1,0,0:0:0:0:
36,192,114656,1,0,0:0:0:0:
475,192,114656,1,0,0:0:0:0:
109,192,114703,1,0,0:0:0:0:
256,192,114750,128,2,114937:0:0:0:0:
182,192,114750,1,0,0:0:0:0:
109,192,114937,1,0,0:0:0:0:
402,192,114937,1,0,0:0:0:0:
475,192,115125,1,8,0:0:0:0:
329,192,115125,1,0,0:0:0:0:
182,192,115125,1,0,0:0:0:0:
329,192,115312,1,0,0:0:0:0:
182,192,115312,1,0,0:0:0:0:
36,192,115312,1,0,0:0:0:0:
475,192,115500,128,2,115687:0:0:0:0:
256,192,115500,128,0,115687:0:0:0:0:
329,192,115687,128,0,115875:0:0:0:0:
109,192,115687,128,0,115875:0:0:0:0:
475,192,115875,128,8,116062:0:0:0:0:
182,192,116062,1,2,0:0:0:0:
109,192,116109,1,0,0:0:0:0:
36,192,116156,1,0,0:0:0:0:
475,192,116156,1,0,0:0:0:0:
402,192,116203,1,0,0:0:0:0:
256,192,116250,128,2,116437:0:0:0:0:
329,192,116250,1,0,0:0:0:0:
109,192,116437,1,0,0:0:0:0:
402,192,116437,1,0,0:0:0:0:
329,192,116531,1,0,0:0:0:0:
182,192,116531,1,0,0:0:0:0:
256,192,116625,128,8,117000:0:0:0:0:
36,192,116812,128,0,117000:0:0:0:0:
475,192,116812,128,0,117000:0:0:0:0:
402,192,117000,1,4,0:0:0:0:
109,192,117000,1,2,0:0:0:0:
182,192,117000,1,0,0:0:0:0:
475,192,117187,1,0,0:0:0:0:
329,192,117187,1,0,0:0:0:0:
36,192,117187,1,0,0:0:0:0:
109,192,117375,1,8,0:0:0:0:
402,192,117375,1,0,0:0:0:0:
256,192,117375,1,0,0:0:0:0:
109,192,117562,1,0,0:0:0:0:
256,192,117562,1,0,0:0:0:0:
402,192,117562,1,0,0:0:0:0:
36,192,117750,1,2,0:0:0:0:
475,192,117750,1,0,0:0:0:0:
182,192,117843,1,0,0:0:0:0:
329,192,117843,1,0,0:0:0:0:
256,192,117843,1,0,0:0:0:0:
36,192,117937,128,0,118312:0:0:0:0:
475,192,117937,128,0,118312:0:0:0:0:
182,192,118312,1,0,0:0:0:0:
329,192,118312,1,0,0:0:0:0:
36,192,118406,1,0,0:0:0:0:
475,192,118406,1,0,0:0:0:0:
402,192,118500,1,2,0:0:0:0:
256,192,118500,1,0,0:0:0:0:
109,192,118500,1,0,0:0:0:0:
475,192,118687,1,0,0:0:0:0:
329,192,118687,1,0,0:0:0:0:
182,192,118687,1,0,0:0:0:0:
256,192,118875,1,8,0:0:0:0:
36,192,118875,1,0,0:0:0:0:
402,192,118875,1,0,0:0:0:0:
402,192,119062,1,0,0:0:0:0:
256,192,119062,1,0,0:0:0:0:
36,192,119062,1,0,0:0:0:0:
36,192,119250,1,2,0:0:0:0:
109,192,119250,1,0,0:0:0:0:
475,192,119250,1,0,0:0:0:0:
402,192,119250,1,0,0:0:0:0:
182,192,119343,1,0,0:0:0:0:
329,192,119343,1,0,0:0:0:0:
109,192,119437,128,0,119812:0:0:0:0:
36,192,119437,128,0,119812:0:0:0:0:
402,192,119437,128,0,119812:0:0:0:0:
475,192,119437,128,0,119812:0:0:0:0:
256,192,119812,1,0,0:0:0:0:
182,192,119906,1,0,0:0:0:0:
329,192,119906,1,0,0:0:0:0:
109,192,120000,1,2,0:0:0:0:
36,192,120000,1,0,0:0:0:0:
402,192,120000,1,0,0:0:0:0:
475,192,120187,1,0,0:0:0:0:
256,192,120187,1,0,0:0:0:0:
182,192,120187,1,0,0:0:0:0:
402,192,120375,1,8,0:0:0:0:
182,192,120375,1,0,0:0:0:0:
36,192,120375,1,0,0:0:0:0:
109,192,120562,1,0,0:0:0:0:
329,192,120562,1,0,0:0:0:0:
182,192,120656,1,0,0:0:0:0:
256,192,120750,1,2,0:0:0:0:
329,192,120750,1,0,0:0:0:0:
36,192,120750,1,0,0:0:0:0:
475,192,120750,128,0,121781:0:0:0:0:
402,192,120937,128,0,121781:0:0:0:0:
329,192,121125,128,8,121781:0:0:0:0:
182,192,121125,128,0,121781:0:0:0:0:
109,192,121312,128,0,121781:0:0:0:0:
36,192,121500,128,2,121781:0:0:0:0:
182,192,121875,1,8,0:0:0:0:
109,192,121875,1,0,0:0:0:0:
36,192,121875,1,0,0:0:0:0:
475,192,121875,1,0,0:0:0:0:
402,192,121875,1,0,0:0:0:0:
329,192,121875,1,0,0:0:0:0:
329,192,122062,1,2,0:0:0:0:
182,192,122062,1,0,0:0:0:0:
109,192,122250,1,2,0:0:0:0:
36,192,122250,1,0,0:0:0:0:
182,192,122250,1,0,0:0:0:0:
329,192,122343,1,0,0:0:0:0:
256,192,122343,1,0,0:0:0:0:
402,192,122437,1,0,0:0:0:0:
475,192,122437,1,0,0:0:0:0:
329,192,122531,1,0,0:0:0:0:
256,192,122531,1,0,0:0:0:0:
109,192,122625,1,8,0:0:0:0:
36,192,122625,1,0,0:0:0:0:
475,192,122625,1,0,0:0:0:0:
182,192,122625,128,0,123000:0:0:0:0:
402,192,123000,1,6,0:0:0:0:
256,192,123000,1,0,0:0:0:0:
109,192,123000,1,0,0:0:0:0:
475,192,123187,1,0,0:0:0:0:
329,192,123187,1,0,0:0:0:0:
36,192,123187,1,0,0:0:0:0:
109,192,123375,1,8,0:0:0:0:
182,192,123375,1,0,0:0:0:0:
402,192,123375,1,0,0:0:0:0:
402,192,123562,1,0,0:0:0:0:
182,192,123562,1,0,0:0:0:0:
109,192,123562,1,0,0:0:0:0:
256,192,123750,1,2,0:0:0:0:
182,192,123750,1,0,0:0:0:0:
329,192,123750,1,0,0:0:0:0:
36,192,123843,1,0,0:0:0:0:
475,192,123843,1,0,0:0:0:0:
182,192,123937,128,0,124312:0:0:0:0:
329,192,123937,128,0,124312:0:0:0:0:
109,192,124312,1,0,0:0:0:0:
36,192,124312,1,0,0:0:0:0:
475,192,124406,1,0,0:0:0:0:
402,192,124406,1,0,0:0:0:0:
256,192,124500,1,2,0:0:0:0:
109,192,124500,1,0,0:0:0:0:
329,192,124687,1,0,0:0:0:0:
182,192,124687,1,0,0:0:0:0:
475,192,124687,1,0,0:0:0:0:
256,192,124875,1,8,0:0:0:0:
36,192,124875,1,0,0:0:0:0:
402,192,124875,1,0,0:0:0:0:
329,192,125062,1,0,0:0:0:0:
475,192,125062,1,0,0:0:0:0:
36,192,125062,1,0,0:0:0:0:
109,192,125250,1,2,0:0:0:0:
402,192,125250,1,0,0:0:0:0:
182,192,125343,1,0,0:0:0:0:
329,192,125343,1,0,0:0:0:0:
36,192,125437,128,0,125812:0:0:0:0:
475,192,125437,128,0,125812:0:0:0:0:
329,192,125812,1,0,0:0:0:0:
182,192,125812,1,0,0:0:0:0:
402,192,125906,1,0,0:0:0:0:
109,192,125906,1,0,0:0:0:0:
475,192,126000,1,2,0:0:0:0:
256,192,126000,1,0,0:0:0:0:
36,192,126000,1,0,0:0:0:0:
402,192,126187,1,0,0:0:0:0:
329,192,126187,1,0,0:0:0:0:
182,192,126187,1,0,0:0:0:0:
256,192,126375,1,8,0:0:0:0:
475,192,126375,1,0,0:0:0:0:
36,192,126375,1,0,0:0:0:0:
182,192,126562,1,0,0:0:0:0:
256,192,126609,1,0,0:0:0:0:
329,192,126656,1,0,0:0:0:0:
36,192,126656,1,0,0:0:0:0:
109,192,126703,1,0,0:0:0:0:
402,192,126703,1,0,0:0:0:0:
182,192,126750,128,2,126937:0:0:0:0:
475,192,126750,128,0,126937:0:0:0:0:
402,192,126937,1,0,0:0:0:0:
256,192,126937,1,0,0:0:0:0:
109,192,126937,1,0,0:0:0:0:
475,192,127125,1,8,0:0:0:0:
329,192,127125,1,0,0:0:0:0:
182,192,127125,1,0,0:0:0:0:
402,192,127312,1,0,0:0:0:0:
256,192,127312,1,0,0:0:0:0:
109,192,127312,1,0,0:0:0:0:
329,192,127500,1,6,0:0:0:0:
475,192,127500,1,0,0:0:0:0:
182,192,127500,1,0,0:0:0:0:
36,192,127500,1,0,0:0:0:0:
402,192,127687,1,0,0:0:0:0:
109,192,127687,1,0,0:0:0:0:
182,192,127781,1,0,0:0:0:0:
329,192,127781,1,0,0:0:0:0:
256,192,127875,1,8,0:0:0:0:
36,192,127875,1,0,0:0:0:0:
475,192,127875,1,0,0:0:0:0:
109,192,127968,1,0,0:0:0:0:
402,192,127968,1,0,0:0:0:0:
182,192,128062,1,2,0:0:0:0:
329,192,128062,1,2,0:0:0:0:
36,192,128156,1,0,0:0:0:0:
475,192,128156,1,0,0:0:0:0:
182,192,128250,1,2,0:0:0:0:
329,192,128250,1,0,0:0:0:0:
256,192,128250,128,0,128625:0:0:0:0:
475,192,128625,1,8,0:0:0:0:
329,192,128625,1,0,0:0:0:0:
182,192,128625,1,0,0:0:0:0:
36,192,128812,1,0,0:0:0:0:
402,192,128812,1,0,0:0:0:0:
182,192,128906,1,0,0:0:0:0:
256,192,128906,1,0,0:0:0:0:
36,192,129000,1,2,0:0:0:0:
402,192,129000,1,2,0:0:0:0:
475,192,129187,1,0,0:0:0:0:
329,192,129187,1,0,0:0:0:0:
182,192,129187,1,0,0:0:0:0:
402,192,129375,1,8,0:0:0:0:
256,192,129375,1,8,0:0:0:0:
109,192,129375,1,0,0:0:0:0:
329,192,129562,1,0,0:0:0:0:
256,192,129609,1,0,0:0:0:0:
475,192,129656,1,0,0:0:0:0:
182,192,129656,1,0,0:0:0:0:
402,192,129703,1,0,0:0:0:0:
109,192,129703,1,0,0:0:0:0:
329,192,129750,128,2,129937:0:0:0:0:
36,192,129750,128,2,129937:0:0:0:0:
402,192,129937,1,0,0:0:0:0:
109,192,129937,1,0,0:0:0:0:
256,192,129937,1,0,0:0:0:0:
475,192,130125,1,8,0:0:0:0:
329,192,130125,1,0,0:0:0:0:
182,192,130125,1,0,0:0:0:0:
402,192,130312,1,0,0:0:0:0:
256,192,130312,1,0,0:0:0:0:
109,192,130312,1,0,0:0:0:0:
182,192,130500,128,4,130687:0:0:0:0:
36,192,130500,128,4,130687:0:0:0:0:
109,192,130500,128,0,130687:0:0:0:0:
475,192,130687,128,0,130875:0:0:0:0:
402,192,130687,128,0,130875:0:0:0:0:
329,192,130687,128,0,130875:0:0:0:0:
182,192,130875,128,8,131062:0:0:0:0:
109,192,130875,128,0,131062:0:0:0:0:
36,192,130875,128,0,131062:0:0:0:0:
329,192,131062,128,2,131250:0:0:0:0:
402,192,131062,128,0,131250:0:0:0:0:
475,192,131062,128,0,131250:0:0:0:0:
256,192,131250,1,2,0:0:0:0:
182,192,131250,1,0,0:0:0:0:
109,192,131250,1,0,0:0:0:0:
36,192,131250,1,0,0:0:0:0:
475,192,131625,1,8,0:0:0:0:
329,192,131625,1,0,0:0:0:0:
256,192,131625,1,0,0:0:0:0:
182,192,131625,1,0,0:0:0:0:
36,192,131625,1,0,0:0:0:0:
