osu file format v14

[General]
AudioFilename: Quo Vadis.mp3
AudioLeadIn: 0
PreviewTime: 105000
Countdown: 0
SampleSet: None
StackLeniency: 0.7
Mode: 3
LetterboxInBreaks: 0
SpecialStyle: 0
WidescreenStoryboard: 0

[Editor]
Bookmarks: 134990
DistanceSpacing: 1.2
BeatDivisor: 4
GridSize: 4
TimelineZoom: 1.7

[Metadata]
Title:Quo Vadis
TitleUnicode:Quo Vadis
Artist:M2U
ArtistUnicode:M2U
Creator:JamesHappy
Version:Xleonq's 4K SHD
Source:Rhythm Master
Tags:bms hellgert z3nx ethnic house instrumental latin dance arcwinolivirus Evening
BeatmapID:908807
BeatmapSetID:227037

[Difficulty]
HPDrainRate:8
CircleSize:4
OverallDifficulty:9
ApproachRate:5
SliderMultiplier:1.4
SliderTickRate:1

[Events]
//Background and Video events
0,0,"4K SHD.jpg",0,0
//Break Periods
//Storyboard Layer 0 (Background)
//Storyboard Layer 1 (Fail)
//Storyboard Layer 2 (Pass)
//Storyboard Layer 3 (Foreground)
//Storyboard Sound Samples
Sample,8624,0,"LR_Kick Low Strong Beat.wav",70
Sample,104625,0,"soft-hitclap.wav",70

[TimingPoints]
3000,375,4,2,1,20,1,0
20625,-50,4,2,1,35,0,0
20812,-200,4,2,1,35,0,0
21000,-100,4,2,1,35,0,1
45000,-100,4,2,1,35,0,0
57000,-100,4,2,1,35,0,1
69000,-105.263157894737,4,2,1,25,0,0
75000,-100,4,2,1,35,0,0
81000,-105.263157894737,4,2,1,25,0,0
91125,-100,4,2,1,35,0,0
104625,-50,4,2,1,35,0,0
104812,-200,4,2,1,35,0,0
105000,-100,4,2,1,35,0,1
131625,-100,4,2,1,35,0,0

[HitObjects]
64,192,2625,5,0,0:0:0:0:
320,192,2812,1,0,0:0:0:0:
192,192,2906,1,0,0:0:0:0:
448,192,3000,1,4,0:0:0:0:
64,192,3000,1,0,0:0:0:0:
320,192,3187,1,0,0:0:0:0:
448,192,3281,1,0,0:0:0:0:
192,192,3375,1,8,0:0:0:0:
64,192,3375,1,0,0:0:0:0:
320,192,3562,1,0,0:0:0:0:
64,192,3750,1,0,0:0:0:0:
192,192,3937,1,0,0:0:0:0:
320,192,4125,1,8,0:0:0:0:
448,192,4312,1,0,0:0:0:0:
320,192,4500,1,0,0:0:0:0:
64,192,4687,1,0,0:0:0:0:
448,192,4781,1,0,0:0:0:0:
192,192,4875,1,8,0:0:0:0:
320,192,4875,1,0,0:0:0:0:
320,192,5062,1,0,0:0:0:0:
192,192,5250,1,0,0:0:0:0:
448,192,5437,1,0,0:0:0:0:
320,192,5625,1,8,0:0:0:0:
64,192,5812,1,0,0:0:0:0:
192,192,6000,1,0,0:0:0:0:
64,192,6187,1,0,0:0:0:0:
448,192,6281,1,0,0:0:0:0:
320,192,6375,1,8,0:0:0:0:
64,192,6375,1,0,0:0:0:0:
192,192,6562,1,0,0:0:0:0:
192,192,6750,1,0,0:0:0:0:
448,192,6937,1,0,0:0:0:0:
320,192,7031,1,0,0:0:0:0:
192,192,7125,1,8,0:0:0:0:
448,192,7312,1,0,0:0:0:0:
64,192,7500,1,0,0:0:0:0:
320,192,7687,1,0,0:0:0:0:
448,192,7781,1,0,0:0:0:0:
64,192,7875,1,8,0:0:0:0:
192,192,7875,1,0,0:0:0:0:
320,192,7875,1,0,0:0:0:0:
320,192,8062,1,0,0:0:0:70:LR2_Snare+Hat.wav
192,192,8109,1,0,0:0:0:0:
64,192,8156,1,0,0:0:0:0:
192,192,8203,1,0,0:0:0:0:
320,192,8250,1,2,0:0:0:70:LR2_Snare+Hat.wav
448,192,8343,1,2,0:0:0:70:LR2_Snare+Hat.wav
192,192,8437,1,2,0:0:0:70:LR2_Snare+Hat.wav
64,192,8437,1,0,0:0:0:0:
320,192,8531,1,0,0:0:0:70:LR2_Snare+Hat.wav
192,192,8625,1,8,0:0:0:30:LR_Kick Low Strong Beat.wav
64,192,8625,1,0,0:0:0:0:
448,192,8625,1,0,0:0:0:0:
320,192,8812,1,0,0:0:0:0:
64,192,8812,1,0,0:0:0:0:
320,192,9000,1,4,0:0:0:0:
448,192,9000,1,2,0:0:0:0:
64,192,9000,1,0,0:0:0:0:
192,192,9000,1,0,0:0:0:0:
448,192,9093,1,0,0:0:0:0:
192,192,9187,1,0,0:0:0:0:
64,192,9281,1,0,0:0:0:0:
192,192,9375,1,8,0:0:0:0:
448,192,9375,1,0,0:0:0:0:
320,192,9375,1,0,0:0:0:0:
448,192,9468,1,0,0:0:0:0:
320,192,9562,1,0,0:0:0:0:
192,192,9656,1,0,0:0:0:0:
320,192,9750,1,2,0:0:0:0:
448,192,9750,1,0,0:0:0:0:
64,192,9750,1,0,0:0:0:0:
192,192,9843,1,0,0:0:0:0:
320,192,9937,1,0,0:0:0:0:
64,192,10031,1,0,0:0:0:0:
192,192,10125,1,8,0:0:0:0:
320,192,10125,1,0,0:0:0:0:
448,192,10125,1,0,0:0:0:0:
64,192,10218,1,0,0:0:0:0:
320,192,10312,1,0,0:0:0:0:
192,192,10406,1,0,0:0:0:0:
320,192,10500,1,2,0:0:0:0:
448,192,10500,1,0,0:0:0:0:
64,192,10500,1,0,0:0:0:0:
320,192,10687,1,0,0:0:0:0:
64,192,10781,1,0,0:0:0:0:
192,192,10875,1,8,0:0:0:0:
320,192,10875,1,0,0:0:0:0:
448,192,10875,1,0,0:0:0:0:
64,192,10968,1,0,0:0:0:0:
320,192,11062,1,0,0:0:0:0:
192,192,11156,1,0,0:0:0:0:
320,192,11250,1,2,0:0:0:0:
448,192,11250,1,0,0:0:0:0:
64,192,11250,1,0,0:0:0:0:
192,192,11343,1,0,0:0:0:0:
320,192,11437,1,0,0:0:0:0:
448,192,11531,1,0,0:0:0:0:
320,192,11625,1,8,0:0:0:0:
192,192,11625,1,0,0:0:0:0:
64,192,11625,1,0,0:0:0:0:
64,192,11718,1,0,0:0:0:0:
192,192,11812,1,0,0:0:0:0:
320,192,11906,1,0,0:0:0:0:
192,192,12000,1,6,0:0:0:0:
64,192,12000,1,4,0:0:0:0:
448,192,12000,1,0,0:0:0:0:
320,192,12093,1,0,0:0:0:0:
192,192,12187,1,0,0:0:0:0:
64,192,12281,1,0,0:0:0:0:
192,192,12375,1,8,0:0:0:0:
448,192,12375,1,0,0:0:0:0:
320,192,12375,1,0,0:0:0:0:
64,192,12468,1,0,0:0:0:0:
320,192,12562,1,0,0:0:0:0:
64,192,12656,1,0,0:0:0:0:
192,192,12750,1,2,0:0:0:0:
320,192,12750,1,0,0:0:0:0:
448,192,12750,1,0,0:0:0:0:
320,192,12843,1,0,0:0:0:0:
448,192,12937,1,0,0:0:0:0:
192,192,13031,1,0,0:0:0:0:
320,192,13125,1,8,0:0:0:0:
448,192,13125,1,0,0:0:0:0:
64,192,13125,1,0,0:0:0:0:
192,192,13218,1,0,0:0:0:0:
320,192,13312,1,0,0:0:0:0:
192,192,13500,1,2,0:0:0:0:
320,192,13500,1,0,0:0:0:0:
448,192,13500,1,0,0:0:0:0:
320,192,13687,1,0,0:0:0:0:
448,192,13687,1,0,0:0:0:0:
64,192,13781,1,0,0:0:0:0:
192,192,13781,1,0,0:0:0:0:
448,192,13875,1,8,0:0:0:0:
320,192,13875,1,0,0:0:0:0:
64,192,13968,1,0,0:0:0:0:
192,192,13968,1,0,0:0:0:0:
448,192,14062,1,0,0:0:0:70:LR2_Snare+Hat.wav
320,192,14062,1,0,0:0:0:0:
192,192,14156,1,0,0:0:0:70:LR2_Snare+Hat.wav
64,192,14156,1,0,0:0:0:0:
64,192,14250,1,0,0:0:0:0:
448,192,14250,1,0,0:0:0:0:
320,192,14343,1,0,0:0:0:70:LR2_Snare+Hat.wav
192,192,14343,1,0,0:0:0:0:
64,192,14437,1,2,0:0:0:70:LR2_Snare+Hat.wav
448,192,14437,1,0,0:0:0:0:
320,192,14531,1,0,0:0:0:70:LR2_Snare+Hat.wav
192,192,14531,1,0,0:0:0:0:
448,192,14625,1,8,0:0:0:0:
320,192,14625,1,0,0:0:0:0:
64,192,14625,1,0,0:0:0:0:
192,192,15000,1,4,0:0:0:0:
448,192,15000,1,2,0:0:0:0:
320,192,15187,1,0,0:0:0:0:
192,192,15375,1,8,0:0:0:0:
448,192,15468,1,0,0:0:0:0:
320,192,15562,1,2,0:0:0:0:
192,192,15656,1,0,0:0:0:0:
64,192,15750,1,6,0:0:0:0:
448,192,15750,1,4,0:0:0:0:
192,192,15937,1,0,0:0:0:0:
448,192,16125,1,8,0:0:0:0:
320,192,16312,1,2,0:0:0:0:
192,192,16406,1,0,0:0:0:0:
64,192,16500,1,4,0:0:0:0:
448,192,16500,1,2,0:0:0:0:
448,192,16687,128,0,16781:0:0:0:0:
320,192,16781,128,0,16875:0:0:0:0:
448,192,16875,128,12,16968:0:0:0:0:
64,192,16875,1,8,0:0:0:0:
320,192,16968,128,0,17062:0:0:0:0:
192,192,17062,128,0,17156:0:0:0:0:
320,192,17156,128,0,17250:0:0:0:0:
192,192,17250,128,6,17343:0:0:0:0:
448,192,17250,1,4,0:0:0:0:
64,192,17343,128,0,17437:0:0:0:0:
192,192,17437,128,0,17531:0:0:0:0:
64,192,17531,128,0,17625:0:0:0:0:
192,192,17625,128,12,17718:0:0:0:0:
448,192,17625,1,8,0:0:0:0:
320,192,17718,128,0,17812:0:0:0:0:
192,192,17812,128,2,17906:0:0:0:0:
64,192,17812,1,0,0:0:0:0:
320,192,17906,128,0,18000:0:0:0:0:
448,192,18000,128,6,18093:0:0:0:0:
64,192,18000,1,4,0:0:0:0:
192,192,18187,128,0,18281:0:0:0:0:
320,192,18281,128,0,18375:0:0:0:0:
192,192,18375,128,8,18468:0:0:0:0:
448,192,18375,1,0,0:0:0:0:
64,192,18468,128,0,18562:0:0:0:0:
192,192,18562,128,0,18656:0:0:0:0:
64,192,18656,128,0,18750:0:0:0:0:
192,192,18750,128,6,18843:0:0:0:0:
448,192,18750,1,4,0:0:0:0:
320,192,18843,128,0,18937:0:0:0:0:
448,192,18937,128,0,19031:0:0:0:0:
320,192,19031,128,0,19125:0:0:0:0:
192,192,19125,128,8,19218:0:0:0:0:
64,192,19125,1,0,0:0:0:0:
320,192,19218,128,0,19312:0:0:0:0:
192,192,19312,128,0,19406:0:0:0:0:
64,192,19406,128,0,19500:0:0:0:0:
192,192,19500,1,6,0:0:0:0:
448,192,19500,1,4,0:0:0:0:
448,192,19687,1,0,0:0:0:0:
64,192,19687,1,0,0:0:0:0:
192,192,19875,1,0,0:0:0:0:
64,192,19875,1,0,0:0:0:0:
448,192,20062,1,0,0:0:0:0:
192,192,20062,1,0,0:0:0:0:
192,192,20250,1,0,0:0:0:0:
320,192,20250,1,0,0:0:0:0:
192,192,20437,1,8,0:0:0:0:
448,192,20437,1,0,0:0:0:0:
320,192,20437,1,0,0:0:0:0:
320,192,20625,1,8,0:0:0:0:
64,192,20625,1,0,0:0:0:0:
192,192,20625,1,0,0:0:0:0:
320,192,21000,1,6,0:0:0:0:
448,192,21000,1,0,0:0:0:0:
64,192,21000,1,0,0:0:0:0:
192,192,21093,1,0,0:0:0:0:
448,192,21187,1,0,0:0:0:0:
64,192,21281,1,0,0:0:0:0:
192,192,21375,1,8,0:0:0:0:
320,192,21375,1,0,0:0:0:0:
448,192,21468,1,0,0:0:0:0:
192,192,21562,1,0,0:0:0:0:
320,192,21656,1,0,0:0:0:0:
192,192,21750,1,2,0:0:0:0:
64,192,21750,1,0,0:0:0:0:
448,192,21843,1,0,0:0:0:0:
192,192,21937,1,0,0:0:0:0:
320,192,22031,1,0,0:0:0:0:
448,192,22125,1,8,0:0:0:0:
64,192,22125,1,0,0:0:0:0:
192,192,22218,1,0,0:0:0:0:
320,192,22312,1,0,0:0:0:0:
64,192,22406,1,0,0:0:0:0:
192,192,22500,1,2,0:0:0:0:
448,192,22500,1,0,0:0:0:0:
320,192,22593,1,0,0:0:0:0:
64,192,22687,1,0,0:0:0:0:
192,192,22781,1,0,0:0:0:0:
320,192,22875,1,8,0:0:0:0:
448,192,22875,1,0,0:0:0:0:
192,192,22968,1,0,0:0:0:0:
320,192,23062,1,0,0:0:0:0:
64,192,23156,1,0,0:0:0:0:
192,192,23250,1,2,0:0:0:0:
448,192,23250,1,0,0:0:0:0:
320,192,23343,1,0,0:0:0:0:
192,192,23437,1,0,0:0:0:0:
448,192,23531,1,0,0:0:0:0:
320,192,23625,1,8,0:0:0:0:
64,192,23625,1,0,0:0:0:0:
192,192,23718,1,0,0:0:0:0:
320,192,23812,1,0,0:0:0:0:
64,192,23906,1,0,0:0:0:0:
192,192,24000,1,2,0:0:0:0:
320,192,24000,1,0,0:0:0:0:
448,192,24093,1,0,0:0:0:0:
192,192,24187,1,0,0:0:0:0:
320,192,24281,1,0,0:0:0:0:
448,192,24375,1,8,0:0:0:0:
64,192,24375,1,0,0:0:0:0:
192,192,24468,1,0,0:0:0:0:
320,192,24562,1,0,0:0:0:0:
192,192,24656,1,0,0:0:0:0:
64,192,24750,1,2,0:0:0:0:
448,192,24750,1,0,0:0:0:0:
320,192,24843,1,0,0:0:0:0:
192,192,24937,1,0,0:0:0:0:
320,192,25031,1,0,0:0:0:0:
64,192,25125,1,8,0:0:0:0:
448,192,25125,1,0,0:0:0:0:
320,192,25218,1,0,0:0:0:0:
192,192,25312,1,0,0:0:0:0:
64,192,25406,1,0,0:0:0:0:
192,192,25500,1,2,0:0:0:0:
320,192,25500,1,0,0:0:0:0:
448,192,25593,1,0,0:0:0:0:
192,192,25687,1,0,0:0:0:0:
448,192,25781,1,0,0:0:0:0:
320,192,25875,1,8,0:0:0:0:
64,192,25875,1,0,0:0:0:0:
192,192,25875,1,0,0:0:0:0:
448,192,25968,1,0,0:0:0:0:
192,192,26062,1,2,0:0:0:0:
64,192,26062,1,0,0:0:0:0:
320,192,26062,1,0,0:0:0:0:
448,192,26156,1,0,0:0:0:0:
320,192,26250,1,2,0:0:0:0:
64,192,26250,1,0,0:0:0:0:
192,192,26250,1,0,0:0:0:0:
448,192,26625,1,8,0:0:0:0:
64,192,26625,1,0,0:0:0:0:
320,192,26625,1,0,0:0:0:0:
192,192,27000,1,6,0:0:0:0:
320,192,27000,1,0,0:0:0:0:
64,192,27000,1,0,0:0:0:0:
448,192,27093,1,0,0:0:0:0:
192,192,27187,1,0,0:0:0:0:
320,192,27281,1,0,0:0:0:0:
64,192,27375,1,8,0:0:0:0:
192,192,27375,1,0,0:0:0:0:
448,192,27468,1,0,0:0:0:0:
192,192,27562,1,0,0:0:0:0:
320,192,27656,1,0,0:0:0:0:
448,192,27750,1,2,0:0:0:0:
64,192,27750,1,0,0:0:0:0:
192,192,27843,1,0,0:0:0:0:
320,192,27937,1,0,0:0:0:0:
192,192,28031,1,0,0:0:0:0:
448,192,28125,1,8,0:0:0:0:
320,192,28125,1,0,0:0:0:0:
192,192,28218,1,0,0:0:0:0:
64,192,28312,1,0,0:0:0:0:
320,192,28406,1,0,0:0:0:0:
192,192,28500,1,2,0:0:0:0:
448,192,28500,1,0,0:0:0:0:
320,192,28593,1,0,0:0:0:0:
192,192,28687,1,0,0:0:0:0:
320,192,28781,1,0,0:0:0:0:
64,192,28875,1,8,0:0:0:0:
448,192,28875,1,0,0:0:0:0:
192,192,28968,1,0,0:0:0:0:
448,192,29062,1,0,0:0:0:0:
64,192,29156,1,0,0:0:0:0:
192,192,29250,1,2,0:0:0:0:
320,192,29250,1,0,0:0:0:0:
448,192,29343,1,0,0:0:0:0:
192,192,29437,1,0,0:0:0:0:
320,192,29531,1,0,0:0:0:0:
192,192,29625,1,8,0:0:0:0:
64,192,29625,1,0,0:0:0:0:
448,192,29718,1,0,0:0:0:0:
320,192,29812,1,0,0:0:0:0:
192,192,29906,1,0,0:0:0:0:
64,192,30000,1,2,0:0:0:0:
448,192,30000,1,0,0:0:0:0:
192,192,30093,1,0,0:0:0:0:
320,192,30187,1,0,0:0:0:0:
192,192,30281,1,0,0:0:0:0:
320,192,30375,1,8,0:0:0:0:
448,192,30375,1,0,0:0:0:0:
192,192,30468,1,0,0:0:0:0:
320,192,30562,1,0,0:0:0:0:
64,192,30656,1,0,0:0:0:0:
192,192,30750,1,2,0:0:0:0:
448,192,30750,1,0,0:0:0:0:
320,192,30843,1,0,0:0:0:0:
192,192,30937,1,0,0:0:0:0:
448,192,31031,1,0,0:0:0:0:
320,192,31125,1,8,0:0:0:0:
64,192,31125,1,0,0:0:0:0:
192,192,31218,1,0,0:0:0:0:
320,192,31312,1,0,0:0:0:0:
64,192,31406,1,0,0:0:0:0:
192,192,31500,1,2,0:0:0:0:
448,192,31500,1,0,0:0:0:0:
320,192,31500,1,0,0:0:0:0:
192,192,31687,1,2,0:0:0:0:
448,192,31687,1,0,0:0:0:0:
320,192,31687,1,0,0:0:0:0:
64,192,32062,1,2,0:0:0:0:
448,192,32062,1,0,0:0:0:0:
320,192,32062,1,0,0:0:0:0:
320,192,32250,1,2,0:0:0:0:
448,192,32250,1,0,0:0:0:0:
64,192,32250,1,0,0:0:0:0:
64,192,32437,1,0,0:0:0:0:
320,192,32437,1,0,0:0:0:0:
192,192,32531,1,0,0:0:0:0:
448,192,32531,1,0,0:0:0:0:
320,192,32625,1,8,0:0:0:0:
64,192,32625,1,0,0:0:0:0:
192,192,33000,1,6,0:0:0:0:
320,192,33000,1,0,0:0:0:0:
448,192,33000,1,0,0:0:0:0:
64,192,33093,1,0,0:0:0:0:
320,192,33187,1,0,0:0:0:0:
192,192,33281,1,0,0:0:0:0:
320,192,33375,1,8,0:0:0:0:
448,192,33375,1,0,0:0:0:0:
64,192,33375,1,0,0:0:0:0:
192,192,33468,1,0,0:0:0:0:
320,192,33562,1,0,0:0:0:0:
64,192,33656,1,0,0:0:0:0:
192,192,33750,1,2,0:0:0:0:
448,192,33750,1,0,0:0:0:0:
64,192,33843,1,0,0:0:0:0:
320,192,33937,1,0,0:0:0:0:
192,192,34031,1,0,0:0:0:0:
64,192,34031,1,0,0:0:0:0:
320,192,34125,1,8,0:0:0:0:
448,192,34125,1,0,0:0:0:0:
192,192,34218,1,0,0:0:0:0:
320,192,34312,1,0,0:0:0:0:
64,192,34406,1,0,0:0:0:0:
320,192,34500,1,2,0:0:0:0:
448,192,34500,1,0,0:0:0:0:
64,192,34593,1,0,0:0:0:0:
320,192,34687,1,0,0:0:0:0:
192,192,34781,1,0,0:0:0:0:
320,192,34875,1,8,0:0:0:0:
448,192,34875,1,0,0:0:0:0:
64,192,34875,1,0,0:0:0:0:
192,192,34968,1,0,0:0:0:0:
320,192,35062,1,0,0:0:0:0:
64,192,35156,1,0,0:0:0:0:
320,192,35250,1,2,0:0:0:0:
448,192,35250,1,0,0:0:0:0:
64,192,35343,1,0,0:0:0:0:
448,192,35437,1,0,0:0:0:0:
192,192,35531,1,0,0:0:0:0:
64,192,35625,1,8,0:0:0:0:
320,192,35625,1,0,0:0:0:0:
448,192,35625,1,0,0:0:0:0:
192,192,35718,1,0,0:0:0:0:
320,192,35812,1,0,0:0:0:0:
448,192,35906,1,0,0:0:0:0:
192,192,36000,1,2,0:0:0:0:
320,192,36000,1,0,0:0:0:0:
64,192,36093,1,0,0:0:0:0:
320,192,36187,1,0,0:0:0:0:
192,192,36281,1,0,0:0:0:0:
64,192,36375,1,8,0:0:0:0:
320,192,36375,1,0,0:0:0:0:
448,192,36375,1,0,0:0:0:0:
192,192,36468,1,0,0:0:0:0:
320,192,36562,1,0,0:0:0:0:
64,192,36656,1,0,0:0:0:0:
192,192,36750,1,2,0:0:0:0:
448,192,36750,1,0,0:0:0:0:
64,192,36843,1,0,0:0:0:0:
448,192,36937,1,0,0:0:0:0:
192,192,37031,1,0,0:0:0:0:
64,192,37125,1,8,0:0:0:0:
320,192,37125,1,0,0:0:0:0:
448,192,37125,1,0,0:0:0:0:
192,192,37218,1,0,0:0:0:0:
320,192,37312,1,0,0:0:0:0:
448,192,37406,1,0,0:0:0:0:
320,192,37500,1,2,0:0:0:0:
64,192,37500,1,0,0:0:0:0:
448,192,37593,1,0,0:0:0:0:
192,192,37687,1,0,0:0:0:0:
320,192,37687,1,0,0:0:0:0:
448,192,37781,1,0,0:0:0:0:
64,192,37781,1,0,0:0:0:0:
320,192,37875,1,8,0:0:0:0:
64,192,37875,1,0,0:0:0:0:
192,192,37875,1,0,0:0:0:0:
448,192,37968,1,0,0:0:0:0:
320,192,37968,1,0,0:0:0:0:
192,192,38062,1,2,0:0:0:0:
320,192,38062,1,0,0:0:0:0:
64,192,38062,1,0,0:0:0:0:
64,192,38156,1,0,0:0:0:0:
448,192,38156,1,0,0:0:0:0:
192,192,38250,1,2,0:0:0:0:
320,192,38250,1,0,0:0:0:0:
448,192,38250,1,0,0:0:0:0:
64,192,38625,1,8,0:0:0:0:
448,192,38625,1,0,0:0:0:0:
320,192,38625,128,0,39000:0:0:0:0:
64,192,39000,1,4,0:0:0:0:
192,192,39000,1,2,0:0:0:0:
448,192,39000,1,0,0:0:0:0:
320,192,39093,1,0,0:0:0:0:
192,192,39187,1,0,0:0:0:0:
448,192,39187,1,0,0:0:0:0:
64,192,39281,1,0,0:0:0:0:
448,192,39375,1,8,0:0:0:0:
192,192,39375,1,0,0:0:0:0:
64,192,39375,1,0,0:0:0:0:
320,192,39468,1,0,0:0:0:0:
192,192,39562,1,0,0:0:0:0:
448,192,39562,1,0,0:0:0:0:
64,192,39656,1,0,0:0:0:0:
448,192,39750,1,2,0:0:0:0:
320,192,39750,1,0,0:0:0:0:
192,192,39750,1,0,0:0:0:0:
320,192,39843,1,0,0:0:0:0:
192,192,39937,1,0,0:0:0:0:
64,192,39937,1,0,0:0:0:0:
448,192,40031,1,0,0:0:0:0:
320,192,40125,1,8,0:0:0:0:
192,192,40125,1,0,0:0:0:0:
64,192,40125,1,0,0:0:0:0:
192,192,40312,1,0,0:0:0:0:
448,192,40312,1,0,0:0:0:0:
64,192,40406,1,0,0:0:0:0:
192,192,40500,1,2,0:0:0:0:
320,192,40500,1,0,0:0:0:0:
448,192,40500,1,0,0:0:0:0:
64,192,40593,1,0,0:0:0:0:
320,192,40687,1,0,0:0:0:0:
192,192,40687,1,0,0:0:0:0:
448,192,40781,1,0,0:0:0:0:
320,192,40875,1,8,0:0:0:0:
192,192,40875,1,0,0:0:0:0:
64,192,40875,1,0,0:0:0:0:
448,192,40968,1,0,0:0:0:0:
192,192,41062,1,0,0:0:0:0:
320,192,41062,1,0,0:0:0:0:
64,192,41156,1,0,0:0:0:0:
320,192,41250,1,2,0:0:0:0:
448,192,41250,1,0,0:0:0:0:
192,192,41250,1,0,0:0:0:0:
64,192,41343,1,0,0:0:0:0:
192,192,41437,1,0,0:0:0:0:
448,192,41437,1,0,0:0:0:0:
320,192,41531,1,0,0:0:0:0:
192,192,41625,1,8,0:0:0:0:
448,192,41625,1,0,0:0:0:0:
64,192,41625,1,0,0:0:0:0:
192,192,41812,1,0,0:0:0:0:
448,192,41812,1,0,0:0:0:0:
64,192,41906,1,0,0:0:0:0:
192,192,42000,1,2,0:0:0:0:
320,192,42000,1,0,0:0:0:0:
448,192,42000,1,0,0:0:0:0:
448,192,42093,1,0,0:0:0:0:
192,192,42187,1,0,0:0:0:0:
64,192,42187,1,0,0:0:0:0:
320,192,42281,1,0,0:0:0:0:
448,192,42375,1,8,0:0:0:0:
192,192,42375,1,0,0:0:0:0:
64,192,42375,1,0,0:0:0:0:
320,192,42468,1,0,0:0:0:0:
192,192,42562,1,0,0:0:0:0:
64,192,42562,1,0,0:0:0:0:
448,192,42656,1,0,0:0:0:0:
192,192,42750,1,2,0:0:0:0:
320,192,42750,1,0,0:0:0:0:
64,192,42750,1,0,0:0:0:0:
64,192,42843,1,0,0:0:0:0:
192,192,42937,1,0,0:0:0:0:
448,192,42937,1,0,0:0:0:0:
320,192,43031,1,0,0:0:0:0:
448,192,43125,1,8,0:0:0:0:
192,192,43125,1,0,0:0:0:0:
320,192,43312,1,0,0:0:0:0:
64,192,43312,1,0,0:0:0:0:
192,192,43500,1,6,0:0:0:0:
448,192,43500,1,4,0:0:0:0:
320,192,43687,1,0,0:0:0:0:
192,192,43687,1,0,0:0:0:0:
64,192,43875,1,8,0:0:0:0:
192,192,43875,1,0,0:0:0:0:
448,192,44062,1,2,0:0:0:0:
320,192,44062,1,0,0:0:0:0:
64,192,44250,1,2,0:0:0:0:
192,192,44250,1,0,0:0:0:0:
320,192,44437,1,0,0:0:0:0:
448,192,44437,1,0,0:0:0:0:
64,192,44625,1,0,0:0:0:30:LR_Kick Low Strong Beat.wav
192,192,44625,1,0,0:0:0:0:
320,192,45000,1,6,0:0:0:0:
448,192,45000,1,0,0:0:0:0:
192,192,45000,1,0,0:0:0:0:
320,192,45375,1,8,0:0:0:0:
64,192,45375,1,0,0:0:0:0:
448,192,45562,1,0,0:0:0:0:
320,192,45656,1,0,0:0:0:0:
192,192,45750,1,2,0:0:0:0:
64,192,45750,1,0,0:0:0:0:
320,192,45796,1,0,0:0:0:0:
448,192,45843,1,0,0:0:0:0:
320,192,45937,1,0,0:0:0:0:
192,192,46125,1,8,0:0:0:0:
448,192,46125,1,0,0:0:0:0:
64,192,46312,1,0,0:0:0:0:
448,192,46406,1,0,0:0:0:0:
320,192,46500,1,2,0:0:0:0:
192,192,46500,1,0,0:0:0:0:
448,192,46687,1,0,0:0:0:0:
320,192,46781,1,0,0:0:0:0:
192,192,46875,1,8,0:0:0:0:
448,192,46875,1,0,0:0:0:0:
320,192,46968,1,0,0:0:0:0:
192,192,47062,1,0,0:0:0:0:
64,192,47156,1,0,0:0:0:0:
192,192,47203,1,0,0:0:0:0:
320,192,47250,1,2,0:0:0:0:
448,192,47250,1,0,0:0:0:0:
448,192,47437,1,0,0:0:0:0:
320,192,47531,1,0,0:0:0:0:
192,192,47625,1,8,0:0:0:0:
64,192,47625,1,0,0:0:0:0:
448,192,47718,1,0,0:0:0:0:
192,192,47812,1,0,0:0:0:0:
320,192,47906,1,0,0:0:0:0:
192,192,48000,1,2,0:0:0:0:
64,192,48000,1,0,0:0:0:0:
448,192,48187,1,0,0:0:0:0:
320,192,48375,1,8,0:0:0:0:
448,192,48375,1,0,0:0:0:0:
192,192,48468,1,0,0:0:0:0:
64,192,48562,1,0,0:0:0:0:
320,192,48656,1,0,0:0:0:0:
192,192,48750,1,2,0:0:0:0:
448,192,48750,1,0,0:0:0:0:
320,192,48937,1,0,0:0:0:0:
192,192,49031,1,0,0:0:0:0:
64,192,49125,1,8,0:0:0:0:
320,192,49125,1,0,0:0:0:0:
192,192,49218,1,0,0:0:0:0:
320,192,49312,1,0,0:0:0:0:
192,192,49406,1,0,0:0:0:0:
320,192,49500,1,2,0:0:0:0:
448,192,49500,1,0,0:0:0:0:
192,192,49687,1,0,0:0:0:0:
64,192,49687,1,0,0:0:0:0:
320,192,49875,1,8,0:0:0:0:
64,192,49875,1,0,0:0:0:0:
192,192,49968,1,0,0:0:0:0:
448,192,50062,1,2,0:0:0:0:
192,192,50156,1,0,0:0:0:0:
320,192,50250,1,2,0:0:0:0:
448,192,50250,1,0,0:0:0:0:
320,192,50437,1,0,0:0:0:0:
192,192,50531,1,0,0:0:0:0:
320,192,50578,1,0,0:0:0:0:
192,192,50625,1,8,0:0:0:0:
448,192,50625,1,0,0:0:0:0:
320,192,50812,1,0,0:0:0:0:
192,192,50906,1,0,0:0:0:0:
320,192,51000,1,6,0:0:0:0:
64,192,51000,1,4,0:0:0:0:
448,192,51000,1,0,0:0:0:0:
192,192,51375,1,8,0:0:0:0:
448,192,51375,1,0,0:0:0:0:
320,192,51468,1,0,0:0:0:0:
192,192,51562,1,0,0:0:0:0:
320,192,51656,1,0,0:0:0:0:
192,192,51703,1,0,0:0:0:0:
448,192,51750,1,2,0:0:0:0:
64,192,51750,1,0,0:0:0:0:
320,192,51937,1,0,0:0:0:0:
192,192,52125,1,8,0:0:0:0:
320,192,52125,1,0,0:0:0:0:
64,192,52312,1,0,0:0:0:0:
320,192,52406,1,0,0:0:0:0:
448,192,52500,1,2,0:0:0:0:
192,192,52500,1,0,0:0:0:0:
64,192,52687,1,0,0:0:0:0:
320,192,52781,1,0,0:0:0:0:
192,192,52875,1,8,0:0:0:0:
448,192,52875,1,0,0:0:0:0:
320,192,52968,1,0,0:0:0:0:
192,192,53062,1,0,0:0:0:0:
64,192,53156,1,0,0:0:0:0:
192,192,53203,1,0,0:0:0:0:
448,192,53250,1,2,0:0:0:0:
320,192,53250,1,0,0:0:0:0:
192,192,53437,1,0,0:0:0:0:
64,192,53531,1,0,0:0:0:0:
320,192,53625,1,8,0:0:0:0:
448,192,53625,1,0,0:0:0:0:
192,192,53718,1,0,0:0:0:0:
64,192,53812,1,0,0:0:0:0:
192,192,53906,1,0,0:0:0:0:
320,192,54000,1,2,0:0:0:0:
448,192,54000,1,0,0:0:0:0:
192,192,54187,1,0,0:0:0:0:
320,192,54281,1,0,0:0:0:0:
192,192,54375,1,8,0:0:0:0:
64,192,54375,1,0,0:0:0:0:
448,192,54468,1,0,0:0:0:0:
320,192,54562,1,0,0:0:0:0:
192,192,54656,1,0,0:0:0:0:
320,192,54750,1,2,0:0:0:0:
448,192,54750,1,0,0:0:0:0:
192,192,54843,1,0,0:0:0:0:
320,192,54937,1,0,0:0:0:0:
64,192,55031,1,0,0:0:0:0:
192,192,55125,1,8,0:0:0:0:
448,192,55125,1,0,0:0:0:0:
320,192,55218,1,0,0:0:0:0:
192,192,55312,1,0,0:0:0:0:
320,192,55406,1,0,0:0:0:0:
448,192,55500,1,6,0:0:0:0:
64,192,55500,1,4,0:0:0:0:
192,192,55500,1,0,0:0:0:0:
320,192,55593,1,0,0:0:0:0:
192,192,55687,1,0,0:0:0:0:
64,192,55781,1,0,0:0:0:0:
448,192,55875,1,8,0:0:0:0:
320,192,55875,1,0,0:0:0:0:
64,192,55968,1,0,0:0:0:0:
448,192,56062,1,2,0:0:0:0:
192,192,56062,1,2,0:0:0:0:
320,192,56156,1,0,0:0:0:0:
448,192,56250,1,2,0:0:0:0:
192,192,56250,1,0,0:0:0:0:
64,192,56343,1,0,0:0:0:0:
448,192,56437,1,0,0:0:0:0:
320,192,56531,1,0,0:0:0:0:
192,192,56578,1,0,0:0:0:0:
64,192,56625,1,8,0:0:0:0:
448,192,56625,1,0,0:0:0:0:
320,192,57000,1,6,0:0:0:0:
448,192,57000,1,0,0:0:0:0:
64,192,57000,1,0,0:0:0:0:
192,192,57093,1,0,0:0:0:0:
64,192,57187,1,0,0:0:0:0:
320,192,57281,1,0,0:0:0:0:
192,192,57375,1,8,0:0:0:0:
448,192,57375,1,0,0:0:0:0:
320,192,57468,1,0,0:0:0:0:
64,192,57562,1,0,0:0:0:0:
320,192,57656,1,0,0:0:0:0:
192,192,57750,1,2,0:0:0:0:
448,192,57750,1,0,0:0:0:0:
320,192,57843,1,0,0:0:0:0:
64,192,57937,1,0,0:0:0:0:
320,192,58031,1,0,0:0:0:0:
448,192,58125,1,8,0:0:0:0:
64,192,58125,1,0,0:0:0:0:
192,192,58218,1,0,0:0:0:0:
320,192,58312,1,0,0:0:0:0:
448,192,58406,1,0,0:0:0:0:
320,192,58500,1,2,0:0:0:0:
192,192,58500,1,0,0:0:0:0:
448,192,58593,1,0,0:0:0:0:
64,192,58687,1,0,0:0:0:0:
320,192,58781,1,0,0:0:0:0:
192,192,58875,1,8,0:0:0:0:
64,192,58875,1,0,0:0:0:0:
320,192,58968,1,0,0:0:0:0:
192,192,59062,1,0,0:0:0:0:
448,192,59156,1,0,0:0:0:0:
320,192,59250,1,2,0:0:0:0:
64,192,59250,1,0,0:0:0:0:
192,192,59343,1,0,0:0:0:0:
320,192,59437,1,0,0:0:0:0:
192,192,59531,1,0,0:0:0:0:
320,192,59625,1,8,0:0:0:0:
448,192,59625,1,0,0:0:0:0:
192,192,59718,1,0,0:0:0:0:
320,192,59812,1,0,0:0:0:0:
64,192,59906,1,0,0:0:0:0:
192,192,60000,1,2,0:0:0:0:
448,192,60000,1,0,0:0:0:0:
320,192,60093,1,0,0:0:0:0:
192,192,60187,1,0,0:0:0:0:
320,192,60281,1,0,0:0:0:0:
448,192,60375,1,8,0:0:0:0:
64,192,60375,1,0,0:0:0:0:
192,192,60468,1,0,0:0:0:0:
320,192,60562,1,0,0:0:0:0:
64,192,60656,1,0,0:0:0:0:
192,192,60703,1,0,0:0:0:0:
448,192,60750,1,2,0:0:0:0:
320,192,60750,1,0,0:0:0:0:
64,192,60843,1,0,0:0:0:0:
320,192,60937,1,0,0:0:0:0:
192,192,61031,1,0,0:0:0:0:
320,192,61125,1,8,0:0:0:0:
448,192,61125,1,0,0:0:0:0:
192,192,61218,1,0,0:0:0:0:
320,192,61312,1,0,0:0:0:0:
448,192,61406,1,0,0:0:0:0:
320,192,61500,1,2,0:0:0:0:
64,192,61500,1,0,0:0:0:0:
192,192,61593,1,0,0:0:0:0:
320,192,61687,1,0,0:0:0:0:
192,192,61781,1,0,0:0:0:0:
448,192,61875,1,8,0:0:0:0:
64,192,61875,1,0,0:0:0:0:
192,192,61968,1,0,0:0:0:0:
320,192,62062,1,2,0:0:0:0:
64,192,62062,1,0,0:0:0:0:
192,192,62156,1,0,0:0:0:0:
320,192,62250,1,2,0:0:0:0:
64,192,62250,1,0,0:0:0:0:
448,192,62343,1,0,0:0:0:0:
320,192,62437,1,0,0:0:0:0:
192,192,62531,1,0,0:0:0:0:
64,192,62625,1,8,0:0:0:0:
320,192,62625,1,0,0:0:0:0:
320,192,63000,1,6,0:0:0:0:
448,192,63000,1,0,0:0:0:0:
64,192,63000,1,0,0:0:0:0:
192,192,63093,1,0,0:0:0:0:
320,192,63187,1,0,0:0:0:0:
64,192,63281,1,0,0:0:0:0:
192,192,63375,1,8,0:0:0:0:
448,192,63375,1,0,0:0:0:0:
320,192,63468,1,0,0:0:0:0:
192,192,63562,1,0,0:0:0:0:
320,192,63656,1,0,0:0:0:0:
448,192,63750,1,2,0:0:0:0:
64,192,63750,1,0,0:0:0:0:
192,192,63843,1,0,0:0:0:0:
320,192,63937,1,0,0:0:0:0:
448,192,64031,1,0,0:0:0:0:
320,192,64125,1,8,0:0:0:0:
192,192,64125,1,0,0:0:0:0:
64,192,64218,1,0,0:0:0:0:
320,192,64312,1,0,0:0:0:0:
448,192,64406,1,0,0:0:0:0:
192,192,64500,1,2,0:0:0:0:
320,192,64500,1,0,0:0:0:0:
448,192,64593,1,0,0:0:0:0:
64,192,64687,1,0,0:0:0:0:
320,192,64781,1,0,0:0:0:0:
64,192,64875,1,8,0:0:0:0:
448,192,64875,1,0,0:0:0:0:
320,192,64968,1,0,0:0:0:0:
192,192,65062,1,0,0:0:0:0:
320,192,65156,1,0,0:0:0:0:
448,192,65250,1,2,0:0:0:0:
64,192,65250,1,0,0:0:0:0:
192,192,65343,1,0,0:0:0:0:
320,192,65437,1,0,0:0:0:0:
64,192,65531,1,0,0:0:0:0:
192,192,65625,1,8,0:0:0:0:
320,192,65625,1,0,0:0:0:0:
448,192,65718,1,0,0:0:0:0:
192,192,65812,1,0,0:0:0:0:
320,192,65906,1,0,0:0:0:0:
448,192,66000,1,2,0:0:0:0:
64,192,66000,1,0,0:0:0:0:
192,192,66093,1,0,0:0:0:0:
320,192,66187,1,0,0:0:0:0:
64,192,66281,1,0,0:0:0:0:
192,192,66375,1,8,0:0:0:0:
448,192,66375,1,0,0:0:0:0:
320,192,66468,1,0,0:0:0:0:
64,192,66562,1,0,0:0:0:0:
192,192,66609,1,0,0:0:0:0:
448,192,66656,1,0,0:0:0:0:
320,192,66750,1,2,0:0:0:0:
192,192,66750,1,0,0:0:0:0:
64,192,66843,1,0,0:0:0:0:
320,192,66937,1,0,0:0:0:0:
192,192,67031,1,0,0:0:0:0:
320,192,67125,1,8,0:0:0:0:
448,192,67125,1,0,0:0:0:0:
192,192,67218,1,0,0:0:0:0:
320,192,67312,1,0,0:0:0:0:
64,192,67406,1,0,0:0:0:0:
320,192,67500,1,2,0:0:0:0:
448,192,67500,1,0,0:0:0:0:
320,192,67687,1,0,0:0:0:0:
448,192,67687,1,0,0:0:0:0:
192,192,67875,1,8,0:0:0:0:
64,192,67875,1,0,0:0:0:0:
64,192,68062,1,2,0:0:0:0:
192,192,68062,1,0,0:0:0:0:
320,192,68250,1,2,0:0:0:0:
448,192,68250,1,0,0:0:0:0:
192,192,68343,1,0,0:0:0:0:
64,192,68343,1,0,0:0:0:0:
320,192,68437,1,0,0:0:0:0:
448,192,68437,1,0,0:0:0:0:
192,192,68531,1,0,0:0:0:0:
64,192,68531,1,0,0:0:0:0:
320,192,68625,1,8,0:0:0:0:
448,192,68625,1,0,0:0:0:0:
192,192,68812,1,0,0:0:0:0:
320,192,68906,1,0,0:0:0:0:
448,192,69000,1,6,0:0:0:0:
64,192,69000,1,4,0:0:0:0:
192,192,69187,1,0,0:0:0:0:
320,192,69375,1,0,0:0:0:0:
64,192,69562,1,0,0:0:0:0:
192,192,69750,1,0,0:0:0:0:
320,192,69937,1,0,0:0:0:0:
192,192,70125,1,8,1:0:0:0:
448,192,70312,1,0,0:0:0:0:
320,192,70500,1,0,0:0:0:0:
448,192,70687,1,0,0:0:0:0:
320,192,70781,1,0,0:0:0:0:
192,192,70875,1,0,0:0:0:0:
64,192,71062,1,0,0:0:0:0:
448,192,71250,1,0,0:0:0:0:
192,192,71437,1,0,0:0:0:0:
320,192,71625,1,8,1:0:0:0:
192,192,71812,1,0,0:0:0:0:
320,192,72000,1,0,0:0:0:0:
64,192,72187,1,0,0:0:0:0:
192,192,72281,1,0,0:0:0:0:
320,192,72375,1,8,1:0:0:0:
448,192,72562,1,0,0:0:0:0:
320,192,72750,1,0,0:0:0:0:
448,192,72937,1,0,0:0:0:0:
320,192,73125,1,8,1:0:0:0:
64,192,73312,1,0,0:0:0:0:
448,192,73500,1,0,0:0:0:0:
192,192,73687,1,0,0:0:0:0:
448,192,73781,1,0,0:0:0:0:
320,192,73875,1,8,1:0:0:0:
192,192,73968,1,0,0:0:0:0:
64,192,74062,1,0,0:0:0:70:LR2_Snare+Hat.wav
448,192,74062,1,0,0:0:0:0:
320,192,74109,1,0,0:0:0:0:
192,192,74156,1,0,0:0:0:0:
64,192,74203,1,0,0:0:0:0:
320,192,74250,1,0,0:0:0:70:LR2_Snare+Hat.wav
448,192,74250,1,0,0:0:0:0:
192,192,74343,1,0,0:0:0:70:LR2_Snare+Hat.wav
64,192,74343,1,0,0:0:0:0:
320,192,74625,1,0,0:0:0:70:LR_Kick Low Strong Beat.wav
448,192,74625,1,0,0:0:0:0:
192,192,74625,1,0,0:0:0:0:
320,192,74812,1,0,0:0:0:0:
64,192,74906,1,0,0:0:0:0:
192,192,75000,1,6,0:0:0:0:
448,192,75000,1,4,0:0:0:0:
448,192,75375,1,8,0:0:0:0:
64,192,75375,1,0,0:0:0:0:
192,192,75750,1,2,0:0:0:0:
320,192,75750,1,0,0:0:0:0:
448,192,75937,1,0,0:0:0:0:
64,192,75937,1,0,0:0:0:0:
192,192,76125,1,8,0:0:0:0:
320,192,76125,1,0,0:0:0:0:
448,192,76312,1,0,0:0:0:0:
320,192,76406,1,0,0:0:0:0:
448,192,76500,1,2,0:0:0:0:
192,192,76500,1,0,0:0:0:0:
320,192,76687,1,0,0:0:0:0:
192,192,76781,1,0,0:0:0:0:
320,192,76875,1,8,0:0:0:0:
448,192,76875,1,0,0:0:0:0:
64,192,77062,1,0,0:0:0:0:
192,192,77156,1,0,0:0:0:0:
320,192,77250,1,2,0:0:0:0:
448,192,77250,1,0,0:0:0:0:
192,192,77437,1,0,0:0:0:0:
320,192,77531,1,0,0:0:0:0:
448,192,77625,1,8,0:0:0:0:
192,192,77625,1,0,0:0:0:0:
64,192,77812,1,0,0:0:0:0:
448,192,77906,1,0,0:0:0:0:
320,192,78000,1,6,0:0:0:0:
192,192,78000,1,4,0:0:0:0:
448,192,78187,1,0,0:0:0:0:
320,192,78281,1,0,0:0:0:0:
192,192,78375,1,8,0:0:0:0:
64,192,78375,1,0,0:0:0:0:
448,192,78562,1,0,0:0:0:0:
320,192,78656,1,0,0:0:0:0:
192,192,78750,1,6,0:0:0:0:
64,192,78750,1,4,0:0:0:0:
320,192,78937,1,0,0:0:0:0:
192,192,79031,1,0,0:0:0:0:
448,192,79125,1,8,0:0:0:0:
64,192,79125,1,0,0:0:0:0:
192,192,79312,1,0,0:0:0:0:
64,192,79406,1,0,0:0:0:0:
320,192,79500,1,6,0:0:0:0:
448,192,79500,1,4,0:0:0:0:
192,192,79687,1,0,0:0:0:0:
320,192,79781,1,0,0:0:0:0:
448,192,79875,1,8,0:0:0:0:
64,192,79875,1,0,0:0:0:0:
320,192,79968,1,0,0:0:0:0:
192,192,80062,1,0,0:0:0:0:
320,192,80156,1,0,0:0:0:0:
448,192,80250,1,2,0:0:0:0:
64,192,80250,1,0,0:0:0:0:
192,192,80343,1,0,0:0:0:0:
320,192,80437,1,2,0:0:0:0:
192,192,80531,1,0,0:0:0:0:
448,192,80625,1,8,0:0:0:0:
64,192,80625,1,0,0:0:0:0:
448,192,81000,1,0,0:0:0:0:
192,192,81000,128,0,81093:0:0:0:0:
64,192,81187,128,0,81281:0:0:0:0:
320,192,81375,1,2,3:0:0:0:
192,192,81375,128,0,81468:0:0:0:0:
448,192,81656,1,0,0:0:0:0:
320,192,81750,1,0,0:0:0:0:
192,192,81750,128,0,81843:0:0:0:0:
320,192,81937,128,0,82031:0:0:0:0:
448,192,82125,128,0,82218:0:0:0:0:
192,192,82312,1,0,0:0:0:0:
320,192,82500,1,0,0:0:0:0:
64,192,82500,128,0,82593:0:0:0:0:
192,192,82687,128,0,82781:0:0:0:0:
320,192,82875,1,2,3:0:0:0:
448,192,82875,128,0,82968:0:0:0:0:
64,192,83062,1,0,0:0:0:0:
192,192,83250,1,0,0:0:0:0:
448,192,83250,128,0,83343:0:0:0:0:
192,192,83437,128,0,83531:0:0:0:0:
320,192,83625,1,2,3:0:0:0:
64,192,83625,128,0,83718:0:0:0:0:
64,192,84000,1,0,0:0:0:0:
320,192,84000,128,0,84093:0:0:0:0:
448,192,84187,128,0,84281:0:0:0:0:
192,192,84375,1,2,3:0:0:0:
320,192,84375,128,0,84468:0:0:0:0:
320,192,84656,1,0,0:0:0:0:
448,192,84750,1,0,0:0:0:0:
64,192,84750,128,0,84843:0:0:0:0:
320,192,84937,128,0,85031:0:0:0:0:
448,192,85125,128,0,85218:0:0:0:0:
192,192,85312,1,0,0:0:0:0:
320,192,85500,1,0,0:0:0:0:
192,192,85500,128,0,85593:0:0:0:0:
64,192,85687,128,0,85781:0:0:0:0:
320,192,85875,1,8,0:0:0:0:
448,192,85875,128,0,85968:0:0:0:0:
320,192,86062,1,0,0:0:0:70:LR2_Snare+Hat.wav
448,192,86156,1,0,0:0:0:0:
192,192,86250,1,0,0:0:0:70:LR2_Snare+Hat.wav
320,192,86343,1,0,0:0:0:70:LR2_Snare+Hat.wav
64,192,86437,1,0,0:0:0:70:LR2_Snare+Hat.wav
192,192,86531,1,0,0:0:0:70:LR2_Snare+Hat.wav
320,192,86625,1,0,0:0:0:30:LR_Kick Low Strong Beat.wav
64,192,86812,1,0,0:0:0:0:
192,192,86906,1,0,0:0:0:0:
320,192,87000,1,4,0:0:0:0:
64,192,87000,1,0,0:0:0:0:
448,192,87187,1,0,0:0:0:0:
320,192,87281,1,0,0:0:0:0:
192,192,87375,1,2,3:0:0:0:
320,192,87468,1,0,0:0:0:0:
192,192,87562,1,0,0:0:0:0:
64,192,87656,1,0,0:0:0:0:
192,192,87750,1,0,0:0:0:0:
320,192,87843,1,0,0:0:0:0:
448,192,87937,1,0,0:0:0:0:
64,192,88031,1,0,0:0:0:0:
192,192,88125,1,2,3:0:0:0:
320,192,88218,1,0,0:0:0:0:
192,192,88312,1,0,0:0:0:0:
448,192,88406,1,0,0:0:0:0:
320,192,88500,1,0,0:0:0:0:
192,192,88593,1,0,0:0:0:0:
64,192,88687,1,0,0:0:0:0:
448,192,88781,1,0,0:0:0:0:
320,192,88875,1,2,3:0:0:0:
192,192,88968,1,0,0:0:0:0:
448,192,89062,1,0,0:0:0:0:
192,192,89156,1,0,0:0:0:0:
64,192,89250,1,0,0:0:0:0:
320,192,89343,1,0,0:0:0:0:
192,192,89437,1,0,0:0:0:0:
320,192,89531,1,0,0:0:0:0:
448,192,89625,1,2,3:0:0:0:
320,192,89718,1,0,0:0:0:0:
192,192,89812,1,0,0:0:0:0:
64,192,89906,1,0,0:0:0:0:
320,192,90000,1,4,0:0:0:0:
448,192,90000,1,0,0:0:0:0:
192,192,90093,1,0,0:0:0:0:
448,192,90187,1,0,0:0:0:0:
320,192,90281,1,0,0:0:0:0:
192,192,90375,1,2,3:0:0:0:
64,192,90468,1,0,0:0:0:0:
320,192,90562,1,0,0:0:0:0:
192,192,90656,1,0,0:0:0:0:
448,192,90750,1,4,0:0:0:0:
64,192,90750,1,0,0:0:0:0:
320,192,90843,1,0,0:0:0:0:
192,192,90937,1,0,0:0:0:0:
64,192,91031,1,0,0:0:0:0:
448,192,91125,1,2,3:0:0:0:
320,192,91125,1,0,0:0:0:0:
448,192,91312,1,0,0:0:0:0:
192,192,91312,1,0,0:0:0:0:
320,192,91500,1,4,0:0:0:0:
448,192,91500,1,0,0:0:0:0:
192,192,91687,1,0,0:0:0:0:
64,192,91687,1,0,0:0:0:0:
320,192,91875,1,8,0:0:0:0:
448,192,91875,1,0,0:0:0:0:
192,192,91875,1,0,0:0:0:0:
64,192,92062,1,0,0:0:0:0:
192,192,92062,1,0,0:0:0:0:
320,192,92062,1,0,0:0:0:0:
320,192,92250,1,0,0:0:0:0:
448,192,92250,1,0,0:0:0:0:
192,192,92250,1,0,0:0:0:0:
64,192,92437,1,8,0:0:0:0:
192,192,92437,1,0,0:0:0:0:
192,192,92625,1,8,0:0:0:0:
64,192,92625,1,0,0:0:0:0:
192,192,93000,1,6,0:0:0:0:
448,192,93000,1,4,0:0:0:0:
320,192,93000,1,0,0:0:0:0:
320,192,93187,1,8,0:0:0:0:
448,192,93187,1,0,0:0:0:0:
192,192,93375,1,0,0:0:0:0:
64,192,93468,1,0,0:0:0:0:
192,192,93562,1,2,0:0:0:0:
320,192,93656,1,0,0:0:0:0:
448,192,93750,1,8,0:0:0:0:
320,192,93937,1,0,0:0:0:0:
192,192,94125,1,8,0:0:0:0:
64,192,94312,1,0,0:0:0:0:
192,192,94406,1,0,0:0:0:0:
320,192,94500,1,2,0:0:0:0:
448,192,94687,1,8,0:0:0:0:
320,192,94781,1,0,0:0:0:0:
192,192,94875,1,0,0:0:0:0:
320,192,94968,1,0,0:0:0:0:
448,192,95062,1,2,0:0:0:0:
320,192,95156,1,0,0:0:0:0:
192,192,95250,1,8,0:0:0:0:
448,192,95437,1,0,0:0:0:0:
320,192,95484,1,0,0:0:0:0:
192,192,95531,1,0,0:0:0:0:
64,192,95625,1,8,0:0:0:0:
448,192,95812,1,0,0:0:0:0:
320,192,96000,1,2,0:0:0:0:
64,192,96000,1,0,0:0:0:0:
448,192,96187,1,8,0:0:0:0:
320,192,96281,1,0,0:0:0:0:
192,192,96375,1,0,0:0:0:0:
320,192,96468,1,0,0:0:0:0:
192,192,96562,1,2,0:0:0:0:
64,192,96656,1,0,0:0:0:0:
320,192,96750,1,8,0:0:0:0:
64,192,96937,1,0,0:0:0:0:
192,192,97031,1,0,0:0:0:0:
320,192,97125,1,8,0:0:0:0:
448,192,97218,1,0,0:0:0:0:
320,192,97312,1,0,0:0:0:0:
192,192,97406,1,0,0:0:0:0:
320,192,97500,1,2,0:0:0:0:
448,192,97687,1,8,0:0:0:0:
320,192,97781,1,0,0:0:0:0:
448,192,97875,1,0,0:0:0:0:
64,192,97968,1,0,0:0:0:0:
448,192,98062,1,2,0:0:0:0:
320,192,98156,1,0,0:0:0:0:
448,192,98250,1,8,0:0:0:0:
320,192,98437,1,0,0:0:0:0:
192,192,98625,1,8,0:0:0:0:
320,192,98718,1,0,0:0:0:0:
448,192,98812,1,0,0:0:0:0:
320,192,98906,1,0,0:0:0:0:
192,192,99000,1,4,0:0:0:0:
448,192,99000,1,2,0:0:0:0:
64,192,99000,1,0,0:0:0:0:
192,192,99187,1,8,0:0:0:0:
448,192,99187,1,0,0:0:0:0:
320,192,99375,1,8,1:0:0:30:LR2_Snare+Hat.wav
64,192,99468,1,0,0:0:0:0:
192,192,99562,1,2,0:0:0:0:
320,192,99656,1,0,0:0:0:0:
448,192,99750,1,8,0:0:0:0:
320,192,99937,1,0,0:0:0:0:
192,192,100125,1,8,0:0:0:30:LR2_Snare+Hat.wav
64,192,100312,1,0,0:0:0:0:
192,192,100406,1,0,0:0:0:0:
448,192,100500,1,2,0:0:0:0:
320,192,100687,1,8,0:0:0:0:
192,192,100781,1,0,0:0:0:0:
320,192,100875,1,8,1:0:0:30:LR2_Snare+Hat.wav
64,192,100968,1,0,0:0:0:0:
192,192,101062,1,2,0:0:0:0:
64,192,101156,1,0,0:0:0:0:
448,192,101250,1,8,0:0:0:0:
192,192,101437,1,0,0:0:0:0:
64,192,101531,1,0,0:0:0:0:
192,192,101578,1,0,0:0:0:0:
320,192,101625,1,8,0:0:0:30:LR2_Snare+Hat.wav
192,192,101812,1,0,0:0:0:0:
448,192,102000,1,2,0:0:0:0:
448,192,102375,1,8,1:0:0:30:LR2_Snare+Hat.wav
320,192,102468,1,0,0:0:0:0:
192,192,102562,1,2,0:0:0:0:
64,192,102656,1,0,0:0:0:0:
448,192,102750,1,8,0:0:0:0:
320,192,102843,1,0,0:0:0:0:
192,192,102937,1,0,0:0:0:0:
64,192,103031,1,0,0:0:0:0:
448,192,103125,1,8,0:0:0:30:LR2_Snare+Hat.wav
320,192,103218,1,0,0:0:0:0:
192,192,103312,1,0,0:0:0:0:
64,192,103406,1,0,0:0:0:0:
192,192,103500,128,6,103781:0:0:0:0:
448,192,103500,128,4,103781:0:0:0:0:
192,192,103875,128,8,104625:0:0:0:0:
448,192,103875,128,8,104625:0:0:0:0:
64,192,103875,1,0,0:0:0:0:
320,192,103875,1,0,0:0:0:0:
320,192,104062,1,0,0:0:0:0:
64,192,104062,1,0,0:0:0:0:
64,192,104250,1,0,0:0:0:0:
320,192,104250,1,0,0:0:0:0:
64,192,104437,1,0,0:0:0:0:
320,192,104437,1,0,0:0:0:0:
64,192,104625,1,0,0:0:0:0:
320,192,104625,1,0,0:0:0:0:
192,192,105000,1,6,0:0:0:0:
448,192,105000,1,0,0:0:0:0:
64,192,105000,1,0,0:0:0:0:
320,192,105093,1,0,0:0:0:0:
448,192,105187,1,0,0:0:0:0:
64,192,105281,1,0,0:0:0:0:
320,192,105375,1,8,0:0:0:0:
448,192,105375,1,0,0:0:0:0:
64,192,105468,1,0,0:0:0:0:
192,192,105562,1,0,0:0:0:0:
448,192,105656,1,0,0:0:0:0:
64,192,105750,1,2,0:0:0:0:
192,192,105750,1,0,0:0:0:0:
448,192,105843,1,0,0:0:0:0:
192,192,105937,1,0,0:0:0:0:
64,192,105937,1,0,0:0:0:0:
320,192,106031,1,0,0:0:0:0:
448,192,106125,1,8,0:0:0:0:
64,192,106125,1,0,0:0:0:0:
320,192,106218,1,0,0:0:0:0:
192,192,106312,1,0,0:0:0:0:
64,192,106406,1,0,0:0:0:0:
192,192,106500,1,2,0:0:0:0:
320,192,106500,1,0,0:0:0:0:
64,192,106593,1,0,0:0:0:0:
320,192,106687,1,0,0:0:0:0:
64,192,106781,1,0,0:0:0:0:
448,192,106875,1,8,0:0:0:0:
192,192,106875,1,0,0:0:0:0:
64,192,106968,1,0,0:0:0:0:
448,192,107062,1,0,0:0:0:0:
320,192,107156,1,0,0:0:0:0:
192,192,107250,1,2,0:0:0:0:
448,192,107250,1,0,0:0:0:0:
64,192,107343,1,0,0:0:0:0:
192,192,107437,1,0,0:0:0:0:
448,192,107437,1,0,0:0:0:0:
320,192,107531,1,0,0:0:0:0:
448,192,107625,1,8,0:0:0:0:
64,192,107625,1,0,0:0:0:0:
320,192,107718,1,0,0:0:0:0:
192,192,107812,1,0,0:0:0:0:
64,192,107906,1,0,0:0:0:0:
320,192,108000,1,2,0:0:0:0:
192,192,108000,1,0,0:0:0:0:
448,192,108093,1,0,0:0:0:0:
64,192,108187,1,0,0:0:0:0:
320,192,108281,1,0,0:0:0:0:
448,192,108375,1,8,0:0:0:0:
64,192,108375,1,0,0:0:0:0:
320,192,108468,1,0,0:0:0:0:
192,192,108562,1,0,0:0:0:0:
64,192,108656,1,0,0:0:0:0:
192,192,108703,1,0,0:0:0:0:
320,192,108750,1,2,0:0:0:0:
448,192,108750,1,0,0:0:0:0:
448,192,108843,1,0,0:0:0:0:
192,192,108937,1,0,0:0:0:0:
64,192,108937,1,0,0:0:0:0:
320,192,109031,1,0,0:0:0:0:
448,192,109125,1,8,0:0:0:0:
64,192,109125,1,0,0:0:0:0:
320,192,109218,1,0,0:0:0:0:
192,192,109312,1,0,0:0:0:0:
64,192,109406,1,0,0:0:0:0:
320,192,109500,1,2,0:0:0:0:
448,192,109500,1,0,0:0:0:0:
192,192,109593,1,0,0:0:0:0:
64,192,109687,1,0,0:0:0:0:
320,192,109781,1,0,0:0:0:0:
448,192,109875,1,8,0:0:0:0:
192,192,109875,1,0,0:0:0:0:
320,192,109968,1,0,0:0:0:0:
192,192,110062,1,2,0:0:0:0:
448,192,110062,1,2,0:0:0:0:
64,192,110156,1,0,0:0:0:0:
192,192,110250,1,2,0:0:0:0:
320,192,110250,1,0,0:0:0:0:
448,192,110343,1,0,0:0:0:0:
64,192,110343,1,0,0:0:0:0:
192,192,110437,1,0,0:0:0:0:
320,192,110437,1,0,0:0:0:0:
320,192,110531,1,0,0:0:0:0:
448,192,110531,1,0,0:0:0:0:
192,192,110625,1,8,0:0:0:0:
64,192,110625,1,0,0:0:0:0:
64,192,111000,1,6,0:0:0:0:
192,192,111000,1,4,0:0:0:0:
448,192,111093,1,0,0:0:0:0:
192,192,111187,1,0,0:0:0:0:
320,192,111281,1,0,0:0:0:0:
192,192,111375,1,8,0:0:0:0:
64,192,111375,1,0,0:0:0:0:
448,192,111468,1,0,0:0:0:0:
192,192,111562,1,0,0:0:0:0:
320,192,111656,1,0,0:0:0:0:
192,192,111750,1,2,0:0:0:0:
64,192,111750,1,0,0:0:0:0:
448,192,111843,1,0,0:0:0:0:
192,192,111937,1,0,0:0:0:0:
64,192,112031,1,0,0:0:0:0:
192,192,112125,1,8,0:0:0:0:
320,192,112125,1,0,0:0:0:0:
448,192,112218,1,0,0:0:0:0:
64,192,112312,1,0,0:0:0:0:
192,192,112406,1,0,0:0:0:0:
64,192,112500,1,2,0:0:0:0:
320,192,112500,1,0,0:0:0:0:
448,192,112593,1,0,0:0:0:0:
192,192,112687,1,0,0:0:0:0:
320,192,112781,1,0,0:0:0:0:
192,192,112875,1,8,0:0:0:0:
64,192,112875,1,0,0:0:0:0:
448,192,112968,1,0,0:0:0:0:
192,192,113062,1,0,0:0:0:0:
64,192,113156,1,0,0:0:0:0:
192,192,113250,1,2,0:0:0:0:
320,192,113250,1,0,0:0:0:0:
448,192,113343,1,0,0:0:0:0:
192,192,113437,1,0,0:0:0:0:
64,192,113437,1,0,0:0:0:0:
320,192,113531,1,0,0:0:0:0:
448,192,113625,1,8,0:0:0:0:
64,192,113625,1,0,0:0:0:0:
192,192,113718,1,0,0:0:0:0:
320,192,113812,1,0,0:0:0:0:
64,192,113906,1,0,0:0:0:0:
192,192,114000,1,2,0:0:0:0:
320,192,114000,1,0,0:0:0:0:
448,192,114093,1,0,0:0:0:0:
192,192,114187,1,0,0:0:0:0:
320,192,114281,1,0,0:0:0:0:
192,192,114375,1,8,0:0:0:0:
64,192,114375,1,0,0:0:0:0:
448,192,114468,1,0,0:0:0:0:
192,192,114562,1,0,0:0:0:0:
64,192,114656,1,0,0:0:0:0:
320,192,114750,1,2,0:0:0:0:
448,192,114750,1,0,0:0:0:0:
448,192,114843,1,0,0:0:0:0:
192,192,114937,1,0,0:0:0:0:
320,192,115031,1,0,0:0:0:0:
64,192,115125,1,8,0:0:0:0:
448,192,115125,1,0,0:0:0:0:
320,192,115218,1,0,0:0:0:0:
192,192,115312,1,0,0:0:0:0:
320,192,115406,1,0,0:0:0:0:
192,192,115500,1,2,0:0:0:0:
64,192,115500,1,0,0:0:0:0:
448,192,115593,1,0,0:0:0:0:
320,192,115687,1,0,0:0:0:0:
192,192,115687,1,0,0:0:0:0:
448,192,115781,1,0,0:0:0:0:
64,192,115875,1,8,0:0:0:0:
320,192,115875,1,0,0:0:0:0:
192,192,115968,1,0,0:0:0:0:
320,192,116062,1,2,0:0:0:0:
448,192,116062,1,0,0:0:0:0:
192,192,116156,1,0,0:0:0:0:
320,192,116156,1,0,0:0:0:0:
64,192,116250,1,2,0:0:0:0:
448,192,116250,1,0,0:0:0:0:
320,192,116343,1,0,0:0:0:0:
448,192,116343,1,0,0:0:0:0:
192,192,116437,1,0,0:0:0:0:
64,192,116437,1,0,0:0:0:0:
320,192,116531,1,0,0:0:0:0:
64,192,116531,1,0,0:0:0:0:
448,192,116625,1,8,0:0:0:0:
192,192,116625,1,0,0:0:0:0:
320,192,116718,1,0,0:0:0:0:
64,192,116718,1,0,0:0:0:0:
320,192,116812,1,0,0:0:0:0:
192,192,116812,1,0,0:0:0:0:
448,192,116906,1,0,0:0:0:0:
64,192,116906,1,0,0:0:0:0:
320,192,117000,1,4,0:0:0:0:
448,192,117000,1,2,0:0:0:0:
192,192,117093,1,0,0:0:0:0:
64,192,117187,1,0,0:0:0:0:
320,192,117187,1,0,0:0:0:0:
192,192,117281,1,0,0:0:0:0:
320,192,117375,1,8,0:0:0:0:
448,192,117375,1,0,0:0:0:0:
64,192,117468,1,0,0:0:0:0:
192,192,117562,1,0,0:0:0:0:
448,192,117562,1,0,0:0:0:0:
320,192,117656,1,0,0:0:0:0:
192,192,117750,1,2,0:0:0:0:
64,192,117750,1,0,0:0:0:0:
320,192,117843,1,0,0:0:0:0:
448,192,117937,1,0,0:0:0:0:
64,192,117937,1,0,0:0:0:0:
192,192,118031,1,0,0:0:0:0:
320,192,118125,1,8,0:0:0:0:
448,192,118125,1,0,0:0:0:0:
192,192,118218,1,0,0:0:0:0:
64,192,118312,1,0,0:0:0:0:
448,192,118312,1,0,0:0:0:0:
320,192,118406,1,0,0:0:0:0:
192,192,118500,1,2,0:0:0:0:
64,192,118500,1,0,0:0:0:0:
448,192,118593,1,0,0:0:0:0:
192,192,118687,1,0,0:0:0:0:
320,192,118687,1,0,0:0:0:0:
64,192,118781,1,0,0:0:0:0:
192,192,118875,1,8,0:0:0:0:
448,192,118875,1,0,0:0:0:0:
320,192,118968,1,0,0:0:0:0:
192,192,119062,1,0,0:0:0:0:
64,192,119062,1,0,0:0:0:0:
448,192,119156,1,0,0:0:0:0:
320,192,119250,1,2,0:0:0:0:
192,192,119250,1,0,0:0:0:0:
64,192,119343,1,0,0:0:0:0:
448,192,119437,1,0,0:0:0:0:
64,192,119437,1,0,0:0:0:0:
320,192,119531,1,0,0:0:0:0:
192,192,119625,1,8,0:0:0:0:
64,192,119625,1,0,0:0:0:0:
448,192,119718,1,0,0:0:0:0:
64,192,119812,1,0,0:0:0:0:
448,192,119812,1,0,0:0:0:0:
192,192,119906,1,0,0:0:0:0:
320,192,120000,1,2,0:0:0:0:
448,192,120000,1,0,0:0:0:0:
64,192,120093,1,0,0:0:0:0:
64,192,120187,1,0,0:0:0:0:
448,192,120187,1,0,0:0:0:0:
320,192,120281,1,0,0:0:0:0:
192,192,120375,1,8,0:0:0:0:
64,192,120375,1,0,0:0:0:0:
448,192,120468,1,0,0:0:0:0:
192,192,120562,1,0,0:0:0:0:
320,192,120562,1,0,0:0:0:0:
64,192,120656,1,0,0:0:0:0:
192,192,120750,1,2,0:0:0:0:
448,192,120750,1,0,0:0:0:0:
320,192,120843,1,0,0:0:0:0:
192,192,120937,1,0,0:0:0:0:
64,192,120937,1,0,0:0:0:0:
320,192,121031,1,0,0:0:0:0:
448,192,121125,1,8,0:0:0:0:
64,192,121125,1,0,0:0:0:0:
192,192,121218,1,0,0:0:0:0:
320,192,121312,1,0,0:0:0:0:
448,192,121312,1,0,0:0:0:0:
192,192,121406,1,0,0:0:0:0:
64,192,121500,1,2,0:0:0:0:
448,192,121500,1,0,0:0:0:0:
320,192,121593,1,0,0:0:0:0:
192,192,121687,1,0,0:0:0:0:
64,192,121687,1,0,0:0:0:0:
448,192,121781,1,0,0:0:0:0:
192,192,121875,1,8,0:0:0:0:
320,192,121875,1,0,0:0:0:0:
448,192,121968,1,0,0:0:0:0:
192,192,122062,1,2,0:0:0:0:
320,192,122062,1,0,0:0:0:0:
64,192,122156,1,0,0:0:0:0:
192,192,122250,1,2,0:0:0:0:
448,192,122250,1,0,0:0:0:0:
320,192,122343,1,0,0:0:0:0:
64,192,122343,1,0,0:0:0:0:
192,192,122437,1,0,0:0:0:0:
448,192,122437,1,0,0:0:0:0:
320,192,122531,1,0,0:0:0:0:
64,192,122531,1,0,0:0:0:0:
448,192,122625,1,8,0:0:0:0:
192,192,122625,1,0,0:0:0:0:
64,192,123000,1,6,0:0:0:0:
320,192,123000,1,0,0:0:0:0:
448,192,123000,1,0,0:0:0:0:
192,192,123093,1,0,0:0:0:0:
320,192,123187,1,0,0:0:0:0:
64,192,123187,1,0,0:0:0:0:
192,192,123281,1,0,0:0:0:0:
448,192,123375,1,8,0:0:0:0:
64,192,123375,1,0,0:0:0:0:
320,192,123375,1,0,0:0:0:0:
192,192,123468,1,0,0:0:0:0:
64,192,123562,1,0,0:0:0:0:
448,192,123562,1,0,0:0:0:0:
320,192,123656,1,0,0:0:0:0:
192,192,123750,1,2,0:0:0:0:
448,192,123750,1,0,0:0:0:0:
64,192,123750,1,0,0:0:0:0:
192,192,123843,1,0,0:0:0:0:
448,192,123843,1,0,0:0:0:0:
64,192,123937,1,0,0:0:0:0:
320,192,123937,1,0,0:0:0:0:
192,192,124031,1,0,0:0:0:0:
64,192,124125,1,8,0:0:0:0:
320,192,124125,1,0,0:0:0:0:
448,192,124125,1,0,0:0:0:0:
192,192,124218,1,0,0:0:0:0:
448,192,124312,1,0,0:0:0:0:
64,192,124312,1,0,0:0:0:0:
192,192,124406,1,0,0:0:0:0:
64,192,124500,1,2,0:0:0:0:
192,192,124500,1,0,0:0:0:0:
448,192,124500,1,0,0:0:0:0:
320,192,124593,1,0,0:0:0:0:
64,192,124687,1,0,0:0:0:0:
448,192,124687,1,0,0:0:0:0:
192,192,124781,1,0,0:0:0:0:
320,192,124875,1,8,0:0:0:0:
448,192,124875,1,0,0:0:0:0:
64,192,124875,1,0,0:0:0:0:
192,192,124968,1,0,0:0:0:0:
448,192,125062,1,0,0:0:0:0:
64,192,125062,1,0,0:0:0:0:
320,192,125156,1,0,0:0:0:0:
64,192,125250,1,2,0:0:0:0:
192,192,125250,1,0,0:0:0:0:
448,192,125250,1,0,0:0:0:0:
64,192,125343,1,0,0:0:0:0:
320,192,125343,1,0,0:0:0:0:
448,192,125437,1,0,0:0:0:0:
192,192,125437,1,0,0:0:0:0:
320,192,125531,1,0,0:0:0:0:
64,192,125625,1,8,0:0:0:0:
192,192,125625,1,0,0:0:0:0:
448,192,125625,1,0,0:0:0:0:
320,192,125718,1,0,0:0:0:0:
192,192,125812,1,0,0:0:0:0:
64,192,125812,1,0,0:0:0:0:
320,192,125906,1,0,0:0:0:0:
448,192,125906,1,0,0:0:0:0:
192,192,126000,1,2,0:0:0:0:
64,192,126000,1,0,0:0:0:0:
320,192,126000,1,0,0:0:0:0:
448,192,126093,1,0,0:0:0:0:
192,192,126187,1,0,0:0:0:0:
448,192,126187,1,0,0:0:0:0:
64,192,126281,1,0,0:0:0:0:
192,192,126375,1,8,0:0:0:0:
320,192,126375,1,0,0:0:0:0:
448,192,126375,1,0,0:0:0:0:
64,192,126468,1,0,0:0:0:0:
320,192,126562,1,0,0:0:0:0:
448,192,126562,1,0,0:0:0:0:
192,192,126656,1,0,0:0:0:0:
64,192,126750,1,2,0:0:0:0:
320,192,126750,1,0,0:0:0:0:
448,192,126750,1,0,0:0:0:0:
192,192,126843,1,0,0:0:0:0:
320,192,126937,1,0,0:0:0:0:
448,192,126937,1,0,0:0:0:0:
64,192,127031,1,0,0:0:0:0:
320,192,127125,1,8,0:0:0:0:
448,192,127125,1,0,0:0:0:0:
192,192,127125,1,0,0:0:0:0:
320,192,127218,1,0,0:0:0:0:
64,192,127312,1,0,0:0:0:0:
448,192,127312,1,0,0:0:0:0:
320,192,127406,1,0,0:0:0:0:
192,192,127500,1,6,0:0:0:0:
64,192,127500,1,0,0:0:0:0:
448,192,127500,1,0,0:0:0:0:
192,192,127687,1,0,0:0:0:0:
448,192,127687,1,0,0:0:0:0:
320,192,127781,1,0,0:0:0:0:
64,192,127781,1,0,0:0:0:0:
192,192,127875,1,8,0:0:0:0:
448,192,127875,1,0,0:0:0:0:
320,192,127968,1,0,0:0:0:0:
192,192,127968,1,0,0:0:0:0:
64,192,128062,1,2,0:0:0:0:
320,192,128062,1,2,0:0:0:0:
192,192,128156,1,0,0:0:0:0:
448,192,128156,1,0,0:0:0:0:
320,192,128250,1,2,0:0:0:0:
192,192,128250,1,0,0:0:0:0:
64,192,128625,1,8,0:0:0:0:
448,192,128625,1,0,0:0:0:0:
192,192,128625,1,0,0:0:0:0:
448,192,128812,1,0,0:0:0:0:
320,192,128906,1,0,0:0:0:0:
192,192,129000,1,2,0:0:0:0:
64,192,129000,1,2,0:0:0:0:
448,192,129093,1,0,0:0:0:0:
192,192,129187,1,0,0:0:0:0:
320,192,129281,1,0,0:0:0:0:
448,192,129375,1,8,0:0:0:0:
64,192,129375,1,8,0:0:0:0:
192,192,129468,1,0,0:0:0:0:
320,192,129562,1,0,0:0:0:0:
448,192,129562,1,0,0:0:0:0:
64,192,129656,1,0,0:0:0:0:
192,192,129656,1,0,0:0:0:0:
448,192,129750,1,2,0:0:0:0:
320,192,129750,1,2,0:0:0:0:
64,192,129843,1,0,0:0:0:0:
192,192,129937,1,0,0:0:0:0:
64,192,130031,1,0,0:0:0:0:
192,192,130125,1,8,0:0:0:0:
320,192,130125,1,0,0:0:0:0:
64,192,130218,1,0,0:0:0:0:
448,192,130312,1,0,0:0:0:0:
192,192,130406,1,0,0:0:0:0:
320,192,130500,1,4,0:0:0:0:
448,192,130500,1,4,0:0:0:0:
192,192,130687,1,0,0:0:0:0:
64,192,130687,1,0,0:0:0:0:
320,192,130875,1,8,0:0:0:0:
448,192,130875,1,0,0:0:0:0:
192,192,131062,1,2,0:0:0:0:
320,192,131062,1,0,0:0:0:0:
64,192,131250,1,2,0:0:0:0:
448,192,131250,1,0,0:0:0:0:
64,192,131437,1,0,0:0:0:0:
448,192,131437,1,0,0:0:0:0:
192,192,131531,1,0,0:0:0:0:
320,192,131531,1,0,0:0:0:0:
64,192,131625,1,8,0:0:0:0:
448,192,131625,1,0,0:0:0:0:
320,192,131625,1,0,0:0:0:0:
