osu file format v14

[General]
AudioFilename: Quo Vadis.mp3
AudioLeadIn: 0
PreviewTime: 105000
Countdown: 0
SampleSet: Soft
StackLeniency: 0.7
Mode: 3
LetterboxInBreaks: 0
SpecialStyle: 0
WidescreenStoryboard: 0

[Editor]
Bookmarks: 134990
DistanceSpacing: 1.2
BeatDivisor: 4
GridSize: 4
TimelineZoom: 1

[Metadata]
Title:Quo Vadis
TitleUnicode:Quo Vadis
Artist:M2U
ArtistUnicode:M2U
Creator:JamesHappy
Version:4K NM
Source:Rhythm Master
Tags:bms hellgert z3nx ethnic house instrumental latin dance arcwinolivirus Evening
BeatmapID:529138
BeatmapSetID:227037

[Difficulty]
HPDrainRate:7
CircleSize:4
OverallDifficulty:7
ApproachRate:5
SliderMultiplier:1.4
SliderTickRate:1

[Events]
//Background and Video events
0,0,"4K NM.jpg",0,0
//Break Periods
//Storyboard Layer 0 (Background)
//Storyboard Layer 1 (Fail)
//Storyboard Layer 2 (Pass)
//Storyboard Layer 3 (Foreground)
//Storyboard Sound Samples

[TimingPoints]
3000,375,4,2,1,20,1,0
21000,-100,4,2,1,35,0,1
45000,-100,4,2,1,35,0,0
57000,-100,4,2,1,35,0,1
69000,-100,4,2,1,25,0,0
75000,-100,4,2,1,35,0,0
81000,-100,4,2,1,25,0,0
91125,-100,4,2,1,35,0,0
105000,-100,4,2,1,35,0,1
131625,-100,4,2,1,35,0,0

[HitObjects]
448,192,2625,5,0,0:0:0:0:
192,192,2812,1,0,0:0:0:0:
320,192,2906,1,0,0:0:0:0:
448,192,3000,1,4,0:0:0:0:
64,192,3000,1,0,0:0:0:0:
192,192,3375,1,8,0:0:0:0:
320,192,3562,1,0,0:0:0:0:
448,192,3750,1,0,0:0:0:0:
320,192,3937,1,0,0:0:0:0:
192,192,4125,1,8,0:0:0:0:
64,192,4500,1,0,0:0:0:0:
192,192,4500,1,0,0:0:0:0:
448,192,4687,1,0,0:0:0:0:
64,192,4781,1,0,0:0:0:0:
320,192,4875,1,0,0:0:0:0:
192,192,5062,1,0,0:0:0:0:
448,192,5250,1,0,0:0:0:0:
320,192,5437,1,0,0:0:0:0:
64,192,5625,1,8,0:0:0:0:
192,192,5812,1,0,0:0:0:0:
320,192,6000,1,0,0:0:0:0:
448,192,6000,1,0,0:0:0:0:
64,192,6187,1,0,0:0:0:0:
192,192,6281,1,0,0:0:0:0:
320,192,6375,1,8,0:0:0:0:
64,192,6562,1,0,0:0:0:0:
192,192,6750,1,0,0:0:0:0:
448,192,6937,1,0,0:0:0:0:
320,192,7125,1,8,0:0:0:0:
64,192,7312,1,0,0:0:0:0:
192,192,7500,1,0,0:0:0:0:
448,192,7687,1,0,0:0:0:0:
320,192,7781,1,0,0:0:0:0:
192,192,7875,1,8,0:0:0:0:
64,192,7875,1,0,0:0:0:0:
320,192,8062,128,0,8250:0:0:0:0:
64,192,8250,1,2,0:0:0:70:LR2_Snare+Hat.wav
448,192,8343,1,2,0:0:0:70:LR2_Snare+Hat.wav
320,192,8437,1,2,0:0:0:70:LR2_Snare+Hat.wav
64,192,8531,1,0,0:0:0:70:LR2_Snare+Hat.wav
192,192,8625,1,8,0:0:0:30:LR_Kick Low Strong Beat.wav
448,192,8625,1,0,0:0:0:0:
64,192,9000,1,4,0:0:0:0:
448,192,9000,1,2,0:0:0:0:
64,192,9375,1,8,0:0:0:0:
192,192,9375,128,0,9750:0:0:0:0:
448,192,9750,1,2,0:0:0:0:
320,192,9750,128,0,10125:0:0:0:0:
64,192,10125,1,8,0:0:0:0:
192,192,10125,128,0,10500:0:0:0:0:
320,192,10500,1,2,0:0:0:0:
64,192,10500,1,0,0:0:0:0:
448,192,10687,128,0,10875:0:0:0:0:
192,192,10875,1,8,0:0:0:0:
64,192,10875,128,0,11250:0:0:0:0:
320,192,11250,1,2,0:0:0:0:
448,192,11250,128,0,11625:0:0:0:0:
192,192,11625,1,8,0:0:0:0:
64,192,11625,128,0,12000:0:0:0:0:
448,192,12000,1,6,0:0:0:0:
320,192,12000,1,4,0:0:0:0:
192,192,12187,128,0,12375:0:0:0:0:
320,192,12375,1,8,0:0:0:0:
448,192,12375,128,0,12750:0:0:0:0:
64,192,12750,1,2,0:0:0:0:
192,192,12750,128,0,13125:0:0:0:0:
320,192,13125,1,8,0:0:0:0:
448,192,13125,128,0,13500:0:0:0:0:
320,192,13500,1,2,0:0:0:0:
192,192,13500,1,0,0:0:0:0:
64,192,13687,1,0,0:0:0:0:
448,192,13875,1,8,0:0:0:0:
320,192,13875,1,0,0:0:0:0:
64,192,14062,1,0,0:0:0:70:LR2_Snare+Hat.wav
192,192,14250,1,2,0:0:0:70:LR2_Snare+Hat.wav
320,192,14250,1,0,0:0:0:0:
448,192,14437,1,2,0:0:0:70:LR2_Snare+Hat.wav
192,192,14625,1,8,0:0:0:0:
64,192,14625,128,0,15000:0:0:0:0:
448,192,15000,1,4,0:0:0:0:
320,192,15000,1,0,0:0:0:0:
320,192,15375,1,8,0:0:0:0:
192,192,15562,1,2,0:0:0:0:
448,192,15562,1,0,0:0:0:0:
320,192,15750,1,6,0:0:0:0:
64,192,15750,1,4,0:0:0:0:
192,192,16125,1,8,0:0:0:0:
320,192,16312,1,2,0:0:0:0:
64,192,16312,1,0,0:0:0:0:
192,192,16500,1,4,0:0:0:0:
448,192,16500,1,2,0:0:0:0:
64,192,16875,1,12,0:0:0:0:
320,192,16875,1,8,0:0:0:0:
192,192,17250,1,6,0:0:0:0:
448,192,17250,1,4,0:0:0:0:
448,192,17625,1,12,0:0:0:0:
64,192,17625,1,8,0:0:0:0:
192,192,17812,1,2,0:0:0:0:
320,192,17812,1,0,0:0:0:0:
448,192,18000,128,6,18187:0:0:0:0:
64,192,18000,1,4,0:0:0:0:
192,192,18187,128,0,18375:0:0:0:0:
320,192,18375,128,8,18562:0:0:0:0:
64,192,18562,128,0,18750:0:0:0:0:
448,192,18750,128,6,18937:0:0:0:0:
192,192,18937,128,0,19125:0:0:0:0:
320,192,19125,128,8,19312:0:0:0:0:
64,192,19312,128,0,19500:0:0:0:0:
448,192,19500,128,6,19687:0:0:0:0:
192,192,19500,1,4,0:0:0:0:
320,192,19687,1,0,0:0:0:0:
64,192,19875,1,0,0:0:0:0:
448,192,20062,1,0,0:0:0:0:
192,192,20250,128,0,20625:0:0:0:0:
320,192,20437,1,0,0:0:0:0:
64,192,20625,1,8,0:0:0:0:
448,192,20625,1,0,0:0:0:0:
448,192,21000,1,6,0:0:0:0:
320,192,21000,128,0,21375:0:0:0:0:
64,192,21375,1,8,0:0:0:0:
320,192,21750,1,2,0:0:0:0:
192,192,21750,128,0,22125:0:0:0:0:
448,192,22125,1,8,0:0:0:0:
192,192,22500,1,2,0:0:0:0:
64,192,22500,128,0,22875:0:0:0:0:
320,192,22875,1,8,0:0:0:0:
448,192,23250,1,2,0:0:0:0:
192,192,23250,128,0,23625:0:0:0:0:
320,192,23625,1,8,0:0:0:0:
64,192,24000,1,2,0:0:0:0:
448,192,24000,128,0,24375:0:0:0:0:
192,192,24375,1,8,0:0:0:0:
64,192,24750,1,2,0:0:0:0:
320,192,24750,128,0,25125:0:0:0:0:
448,192,25125,1,8,0:0:0:0:
64,192,25500,1,2,0:0:0:0:
192,192,25500,128,0,25875:0:0:0:0:
448,192,25875,1,8,0:0:0:0:
64,192,25875,1,0,0:0:0:0:
320,192,26062,1,2,0:0:0:0:
192,192,26062,1,0,0:0:0:0:
64,192,26250,1,2,0:0:0:0:
448,192,26250,128,0,26625:0:0:0:0:
320,192,26625,1,8,0:0:0:0:
192,192,27000,1,6,0:0:0:0:
320,192,27000,128,0,27375:0:0:0:0:
64,192,27375,1,8,0:0:0:0:
448,192,27750,1,2,0:0:0:0:
192,192,27750,128,0,28125:0:0:0:0:
320,192,28125,1,8,0:0:0:0:
192,192,28500,1,2,0:0:0:0:
448,192,28500,128,0,28875:0:0:0:0:
320,192,28875,1,8,0:0:0:0:
192,192,29250,1,2,0:0:0:0:
64,192,29250,128,0,29625:0:0:0:0:
320,192,29625,1,8,0:0:0:0:
448,192,30000,1,2,0:0:0:0:
192,192,30000,128,0,30375:0:0:0:0:
64,192,30375,1,8,0:0:0:0:
64,192,30750,1,2,0:0:0:0:
448,192,30750,128,0,31125:0:0:0:0:
320,192,31125,1,8,0:0:0:0:
192,192,31500,1,2,0:0:0:0:
64,192,31500,128,0,32250:0:0:0:0:
320,192,31687,1,2,0:0:0:0:
448,192,32062,1,2,0:0:0:0:
192,192,32250,1,2,0:0:0:0:
320,192,32437,1,0,0:0:0:0:
64,192,32625,1,8,0:0:0:0:
448,192,32625,128,0,33000:0:0:0:0:
64,192,33000,128,6,33375:0:0:0:0:
320,192,33000,1,0,0:0:0:0:
448,192,33375,1,8,0:0:0:0:
320,192,33750,1,2,0:0:0:0:
192,192,33750,128,0,34125:0:0:0:0:
448,192,34125,1,8,0:0:0:0:
192,192,34500,1,2,0:0:0:0:
448,192,34500,128,0,34875:0:0:0:0:
64,192,34875,1,8,0:0:0:0:
192,192,35250,1,2,0:0:0:0:
320,192,35250,128,0,35625:0:0:0:0:
64,192,35625,1,8,0:0:0:0:
448,192,36000,1,2,0:0:0:0:
192,192,36000,128,0,36375:0:0:0:0:
64,192,36375,1,8,0:0:0:0:
448,192,36750,1,2,0:0:0:0:
64,192,36750,128,0,37125:0:0:0:0:
320,192,37125,1,8,0:0:0:0:
192,192,37500,1,2,0:0:0:0:
320,192,37500,128,0,37687:0:0:0:0:
64,192,37875,1,8,0:0:0:0:
448,192,37875,1,0,0:0:0:0:
192,192,38062,1,2,0:0:0:0:
320,192,38062,1,0,0:0:0:0:
448,192,38250,128,2,38625:0:0:0:0:
64,192,38250,1,0,0:0:0:0:
192,192,38625,1,8,0:0:0:0:
320,192,39000,1,4,0:0:0:0:
64,192,39000,128,2,39375:0:0:0:0:
192,192,39375,1,8,0:0:0:0:
448,192,39750,1,2,0:0:0:0:
192,192,39750,128,0,40125:0:0:0:0:
320,192,40125,1,8,0:0:0:0:
64,192,40312,1,0,0:0:0:0:
448,192,40500,128,2,40875:0:0:0:0:
320,192,40500,1,0,0:0:0:0:
64,192,40875,1,8,0:0:0:0:
192,192,41250,1,2,0:0:0:0:
320,192,41250,128,0,41625:0:0:0:0:
448,192,41625,1,8,0:0:0:0:
64,192,41812,1,0,0:0:0:0:
320,192,42000,1,2,0:0:0:0:
448,192,42000,128,0,42375:0:0:0:0:
64,192,42375,1,8,0:0:0:0:
192,192,42750,1,2,0:0:0:0:
320,192,42750,128,0,43125:0:0:0:0:
448,192,43125,1,8,0:0:0:0:
64,192,43500,1,6,0:0:0:0:
320,192,43500,1,4,0:0:0:0:
192,192,43500,128,0,43875:0:0:0:0:
448,192,43875,1,8,0:0:0:0:
320,192,44062,1,0,0:0:0:0:
64,192,44250,1,2,0:0:0:0:
192,192,44437,1,0,0:0:0:0:
448,192,44625,1,0,0:0:0:30:LR_Kick Low Strong Beat.wav
320,192,44625,128,0,45000:0:0:0:0:
192,192,45000,1,6,0:0:0:0:
64,192,45000,1,0,0:0:0:0:
448,192,45375,1,8,0:0:0:0:
64,192,45375,1,0,0:0:0:0:
192,192,45562,128,0,45750:0:0:0:0:
320,192,45750,128,2,45937:0:0:0:0:
448,192,45750,1,0,0:0:0:0:
192,192,45937,128,0,46125:0:0:0:0:
64,192,46125,1,8,0:0:0:0:
448,192,46125,1,0,0:0:0:0:
320,192,46312,1,0,0:0:0:0:
64,192,46500,1,2,0:0:0:0:
448,192,46500,1,0,0:0:0:0:
192,192,46687,1,0,0:0:0:0:
320,192,46875,128,8,47062:0:0:0:0:
64,192,46875,1,0,0:0:0:0:
448,192,47062,128,0,47250:0:0:0:0:
192,192,47250,128,2,47437:0:0:0:0:
64,192,47250,1,0,0:0:0:0:
320,192,47437,128,0,47625:0:0:0:0:
64,192,47625,128,8,47812:0:0:0:0:
448,192,47625,1,0,0:0:0:0:
192,192,47812,128,0,48000:0:0:0:0:
448,192,48000,1,2,0:0:0:0:
320,192,48000,1,0,0:0:0:0:
64,192,48187,1,0,0:0:0:0:
192,192,48375,1,8,0:0:0:0:
320,192,48375,1,0,0:0:0:0:
448,192,48562,128,0,48750:0:0:0:0:
192,192,48750,1,2,0:0:0:0:
64,192,48750,1,0,0:0:0:0:
320,192,48937,128,0,49125:0:0:0:0:
448,192,49125,1,8,0:0:0:0:
64,192,49125,1,0,0:0:0:0:
192,192,49312,128,0,49500:0:0:0:0:
448,192,49500,1,2,0:0:0:0:
320,192,49500,1,0,0:0:0:0:
64,192,49687,1,0,0:0:0:0:
192,192,49875,1,8,0:0:0:0:
448,192,49875,1,0,0:0:0:0:
320,192,50062,1,2,0:0:0:0:
192,192,50250,1,2,0:0:0:0:
448,192,50250,1,0,0:0:0:0:
64,192,50437,1,0,0:0:0:0:
192,192,50625,1,8,0:0:0:0:
320,192,50625,1,0,0:0:0:0:
448,192,50812,1,0,0:0:0:0:
64,192,51000,1,6,0:0:0:0:
192,192,51000,1,4,0:0:0:0:
448,192,51375,1,8,0:0:0:0:
320,192,51375,1,0,0:0:0:0:
64,192,51562,1,0,0:0:0:0:
320,192,51750,1,2,0:0:0:0:
192,192,51750,1,0,0:0:0:0:
448,192,51937,1,0,0:0:0:0:
192,192,52125,1,8,0:0:0:0:
64,192,52125,1,0,0:0:0:0:
320,192,52312,1,0,0:0:0:0:
64,192,52500,1,2,0:0:0:0:
448,192,52500,1,0,0:0:0:0:
320,192,52687,1,0,0:0:0:0:
64,192,52875,1,8,0:0:0:0:
192,192,52875,1,0,0:0:0:0:
448,192,53062,1,0,0:0:0:0:
192,192,53250,1,2,0:0:0:0:
320,192,53250,1,0,0:0:0:0:
64,192,53437,1,0,0:0:0:0:
320,192,53625,1,8,0:0:0:0:
448,192,53625,1,0,0:0:0:0:
192,192,53812,1,0,0:0:0:0:
64,192,54000,1,2,0:0:0:0:
448,192,54000,1,0,0:0:0:0:
320,192,54187,1,0,0:0:0:0:
192,192,54375,1,8,0:0:0:0:
64,192,54375,1,0,0:0:0:0:
320,192,54562,1,0,0:0:0:0:
64,192,54750,1,2,0:0:0:0:
448,192,54750,1,0,0:0:0:0:
192,192,54937,1,0,0:0:0:0:
320,192,55125,1,0,0:0:0:0:
448,192,55125,1,8,0:0:0:0:
192,192,55312,1,0,0:0:0:0:
448,192,55500,1,6,0:0:0:0:
64,192,55500,1,4,0:0:0:0:
320,192,55687,1,0,0:0:0:0:
192,192,55875,1,8,0:0:0:0:
64,192,55875,1,0,0:0:0:0:
192,192,56062,1,2,0:0:0:0:
320,192,56062,1,0,0:0:0:0:
448,192,56250,1,2,0:0:0:0:
320,192,56250,1,0,0:0:0:0:
320,192,56625,128,8,57000:0:0:0:0:
64,192,56625,1,0,0:0:0:0:
448,192,57000,1,6,0:0:0:0:
192,192,57000,1,0,0:0:0:0:
64,192,57187,1,0,0:0:0:0:
448,192,57375,1,8,0:0:0:0:
320,192,57562,1,0,0:0:0:0:
64,192,57750,1,2,0:0:0:0:
192,192,57750,128,0,58125:0:0:0:0:
448,192,58125,1,8,0:0:0:0:
64,192,58500,128,2,58875:0:0:0:0:
320,192,58500,1,0,0:0:0:0:
448,192,58875,1,8,0:0:0:0:
320,192,59062,1,0,0:0:0:0:
192,192,59250,1,2,0:0:0:0:
448,192,59250,128,0,59625:0:0:0:0:
64,192,59625,1,8,0:0:0:0:
192,192,59812,1,0,0:0:0:0:
448,192,60000,1,2,0:0:0:0:
320,192,60000,128,0,60375:0:0:0:0:
192,192,60375,1,8,0:0:0:0:
448,192,60562,1,0,0:0:0:0:
64,192,60750,1,2,0:0:0:0:
192,192,60937,1,0,0:0:0:0:
320,192,61125,1,8,0:0:0:0:
448,192,61312,1,0,0:0:0:0:
64,192,61500,1,2,0:0:0:0:
320,192,61500,128,0,62250:0:0:0:0:
64,192,61875,1,8,0:0:0:0:
192,192,62062,1,2,0:0:0:0:
448,192,62250,1,2,0:0:0:0:
64,192,62250,128,0,62625:0:0:0:0:
320,192,62625,1,8,0:0:0:0:
448,192,62625,128,0,63000:0:0:0:0:
192,192,63000,1,6,0:0:0:0:
64,192,63000,1,0,0:0:0:0:
320,192,63187,1,0,0:0:0:0:
448,192,63375,1,8,0:0:0:0:
192,192,63562,1,0,0:0:0:0:
64,192,63750,1,2,0:0:0:0:
320,192,63750,128,0,64125:0:0:0:0:
448,192,64125,1,8,0:0:0:0:
320,192,64500,1,2,0:0:0:0:
192,192,64687,1,0,0:0:0:0:
64,192,64875,1,8,0:0:0:0:
320,192,65062,1,0,0:0:0:0:
192,192,65250,1,2,0:0:0:0:
448,192,65250,128,0,65625:0:0:0:0:
64,192,65625,1,8,0:0:0:0:
64,192,66000,1,2,0:0:0:0:
192,192,66187,1,0,0:0:0:0:
448,192,66375,1,8,0:0:0:0:
320,192,66562,1,0,0:0:0:0:
192,192,66750,1,2,0:0:0:0:
64,192,66750,128,0,67125:0:0:0:0:
320,192,67125,1,8,0:0:0:0:
64,192,67500,1,2,0:0:0:0:
192,192,67500,1,0,0:0:0:0:
448,192,67500,128,0,68625:0:0:0:0:
320,192,67687,1,0,0:0:0:0:
64,192,67875,1,8,0:0:0:0:
192,192,68062,1,2,0:0:0:0:
320,192,68250,1,2,0:0:0:0:
64,192,68625,1,8,0:0:0:0:
192,192,68625,1,0,0:0:0:0:
320,192,69000,1,6,0:0:0:0:
448,192,69000,1,4,0:0:0:0:
192,192,69375,1,8,1:0:0:0:
448,192,69750,1,0,0:0:0:0:
320,192,70125,1,8,1:0:0:0:
64,192,70500,1,0,0:0:0:0:
448,192,70500,1,0,0:0:0:0:
192,192,70875,1,8,1:0:0:0:
448,192,71250,1,0,0:0:0:0:
320,192,71625,1,8,1:0:0:0:
64,192,72000,1,0,0:0:0:0:
448,192,72000,1,0,0:0:0:0:
320,192,72375,1,8,1:0:0:0:
192,192,72750,1,0,0:0:0:0:
320,192,73125,1,8,1:0:0:0:
192,192,73500,1,0,0:0:0:0:
64,192,73500,1,0,0:0:0:0:
320,192,73875,1,8,1:0:0:0:
64,192,74062,128,0,74625:0:0:0:0:
192,192,74250,1,0,0:0:0:70:LR2_Snare+Hat.wav
320,192,74625,1,0,0:0:0:70:LR_Kick Low Strong Beat.wav
448,192,74625,128,0,75000:0:0:0:0:
192,192,75000,1,6,0:0:0:0:
64,192,75000,1,4,0:0:0:0:
64,192,75375,1,8,0:0:0:0:
320,192,75375,1,0,0:0:0:0:
192,192,75562,1,0,0:0:0:0:
320,192,75750,1,2,0:0:0:0:
448,192,75750,1,0,0:0:0:0:
64,192,75937,1,0,0:0:0:0:
192,192,76125,1,8,0:0:0:0:
320,192,76125,1,0,0:0:0:0:
448,192,76312,1,0,0:0:0:0:
192,192,76500,1,2,0:0:0:0:
64,192,76500,1,0,0:0:0:0:
320,192,76687,1,0,0:0:0:0:
64,192,76875,1,8,0:0:0:0:
192,192,76875,1,0,0:0:0:0:
448,192,77062,1,0,0:0:0:0:
320,192,77250,1,2,0:0:0:0:
192,192,77250,1,0,0:0:0:0:
64,192,77437,1,0,0:0:0:0:
320,192,77625,1,8,0:0:0:0:
448,192,77625,1,0,0:0:0:0:
192,192,77812,1,0,0:0:0:0:
448,192,78000,1,6,0:0:0:0:
64,192,78000,1,4,0:0:0:0:
320,192,78187,1,0,0:0:0:0:
64,192,78375,1,8,0:0:0:0:
192,192,78375,1,0,0:0:0:0:
320,192,78562,1,0,0:0:0:0:
448,192,78750,1,6,0:0:0:0:
64,192,78750,1,4,0:0:0:0:
320,192,78937,1,0,0:0:0:0:
64,192,79125,1,8,0:0:0:0:
192,192,79125,1,0,0:0:0:0:
448,192,79312,1,0,0:0:0:0:
320,192,79500,1,6,0:0:0:0:
64,192,79500,1,4,0:0:0:0:
192,192,79687,1,0,0:0:0:0:
320,192,79875,1,8,0:0:0:0:
448,192,79875,1,0,0:0:0:0:
192,192,80062,1,0,0:0:0:0:
64,192,80250,1,2,0:0:0:0:
448,192,80250,1,0,0:0:0:0:
192,192,80437,1,2,0:0:0:0:
320,192,80625,128,8,81000:0:0:0:0:
448,192,80625,1,0,0:0:0:0:
64,192,81000,1,4,0:0:0:0:
192,192,81000,1,0,0:0:0:0:
192,192,81375,1,2,3:0:0:0:
320,192,81656,1,0,0:0:0:0:
448,192,81750,1,0,0:0:0:0:
64,192,82125,1,2,3:0:0:0:
192,192,82312,1,0,0:0:0:0:
320,192,82500,1,0,0:0:0:0:
448,192,82875,1,2,3:0:0:0:
320,192,83062,1,0,0:0:0:0:
192,192,83250,1,0,0:0:0:0:
64,192,83625,1,2,3:0:0:0:
320,192,84000,1,0,0:0:0:0:
448,192,84375,1,2,3:0:0:0:
192,192,84656,1,0,0:0:0:0:
64,192,84750,1,0,0:0:0:0:
320,192,85125,1,2,3:0:0:0:
192,192,85312,1,0,0:0:0:0:
448,192,85500,1,0,0:0:0:0:
320,192,85687,1,0,0:0:0:0:
64,192,85875,1,8,0:0:0:0:
192,192,86062,1,0,0:0:0:70:LR2_Snare+Hat.wav
448,192,86250,1,0,0:0:0:70:LR2_Snare+Hat.wav
320,192,86437,1,0,0:0:0:70:LR2_Snare+Hat.wav
64,192,86625,1,0,0:0:0:30:LR_Kick Low Strong Beat.wav
192,192,86812,1,0,0:0:0:0:
64,192,87000,1,4,0:0:0:0:
448,192,87000,1,0,0:0:0:0:
320,192,87187,1,2,3:0:0:0:
448,192,87375,1,0,0:0:0:0:
192,192,87562,1,0,0:0:0:0:
320,192,87750,1,0,0:0:0:0:
64,192,87937,1,2,3:0:0:0:
192,192,88125,1,0,0:0:0:0:
448,192,88312,1,0,0:0:0:0:
192,192,88500,1,0,0:0:0:0:
320,192,88687,1,0,0:0:0:0:
64,192,88875,1,2,3:0:0:0:
320,192,89062,1,0,0:0:0:0:
192,192,89250,1,0,0:0:0:0:
448,192,89437,1,0,0:0:0:0:
64,192,89625,1,2,3:0:0:0:
192,192,89812,1,0,0:0:0:0:
320,192,90000,1,4,0:0:0:0:
448,192,90000,1,0,0:0:0:0:
64,192,90187,1,0,0:0:0:0:
192,192,90375,1,2,3:0:0:0:
320,192,90562,1,0,0:0:0:0:
64,192,90750,1,4,0:0:0:0:
448,192,90750,1,0,0:0:0:0:
192,192,90937,1,0,0:0:0:0:
448,192,91125,128,2,91312:3:0:0:0:
192,192,91312,128,0,91500:0:0:0:0:
320,192,91500,128,4,91687:0:0:0:0:
64,192,91500,1,0,0:0:0:0:
64,192,91875,128,8,92062:0:0:0:0:
448,192,91875,1,0,0:0:0:0:
192,192,92062,128,0,92250:0:0:0:0:
320,192,92250,1,0,0:0:0:0:
64,192,92437,1,8,0:0:0:0:
448,192,92437,1,0,0:0:0:0:
64,192,92625,1,8,0:0:0:0:
448,192,92625,1,0,0:0:0:0:
320,192,93000,1,6,0:0:0:0:
64,192,93000,128,4,93375:0:0:0:0:
192,192,93375,1,0,0:0:0:0:
320,192,93562,1,0,0:0:0:0:
448,192,93750,1,8,0:0:0:0:
64,192,93750,1,0,0:0:0:0:
320,192,94125,1,8,0:0:0:0:
192,192,94125,128,0,94500:0:0:0:0:
64,192,94500,1,2,0:0:0:0:
448,192,94687,1,8,0:0:0:0:
192,192,94875,1,0,0:0:0:0:
320,192,94875,128,0,95250:0:0:0:0:
64,192,95250,1,8,0:0:0:0:
320,192,95625,1,8,0:0:0:0:
64,192,95625,128,0,96000:0:0:0:0:
192,192,96000,1,2,0:0:0:0:
320,192,96000,128,0,96375:0:0:0:0:
448,192,96375,1,0,0:0:0:0:
64,192,96375,1,0,0:0:0:0:
192,192,96562,1,2,0:0:0:0:
448,192,96750,1,8,0:0:0:0:
320,192,96750,1,0,0:0:0:0:
64,192,97125,1,8,0:0:0:0:
448,192,97125,128,0,97500:0:0:0:0:
192,192,97500,1,2,0:0:0:0:
64,192,97500,128,0,97875:0:0:0:0:
320,192,97875,1,0,0:0:0:0:
192,192,98062,1,2,0:0:0:0:
64,192,98250,1,8,0:0:0:0:
448,192,98250,128,0,98625:0:0:0:0:
320,192,98625,1,8,0:0:0:0:
64,192,99000,128,4,99375:0:0:0:0:
448,192,99000,1,2,0:0:0:0:
320,192,99187,1,8,0:0:0:0:
192,192,99375,1,8,1:0:0:30:LR2_Snare+Hat.wav
448,192,99562,1,2,0:0:0:0:
320,192,99750,1,8,0:0:0:0:
192,192,99750,128,0,100125:0:0:0:0:
64,192,100125,1,8,0:0:0:30:LR2_Snare+Hat.wav
448,192,100312,1,0,0:0:0:0:
192,192,100500,1,2,0:0:0:0:
320,192,100500,128,0,100875:0:0:0:0:
448,192,100875,1,8,1:0:0:30:LR2_Snare+Hat.wav
64,192,100875,1,0,0:0:0:0:
192,192,101062,1,2,0:0:0:0:
320,192,101250,1,8,0:0:0:0:
448,192,101250,128,0,101625:0:0:0:0:
64,192,101625,1,8,0:0:0:30:LR2_Snare+Hat.wav
192,192,101625,128,8,102000:1:0:0:0:
320,192,102000,1,2,0:0:0:0:
448,192,102000,128,0,102375:0:0:0:0:
192,192,102375,1,8,1:0:0:30:LR2_Snare+Hat.wav
320,192,102562,1,2,0:0:0:0:
448,192,102750,1,8,0:0:0:0:
192,192,102750,128,0,103125:0:0:0:0:
64,192,103125,1,8,0:0:0:30:LR2_Snare+Hat.wav
320,192,103125,128,8,103500:1:0:0:0:
448,192,103500,1,6,0:0:0:0:
192,192,103500,128,4,104625:0:0:0:0:
448,192,103875,1,8,0:0:0:0:
64,192,103875,128,8,104625:0:0:0:0:
448,192,104625,1,0,0:0:0:0:
192,192,105000,1,6,0:0:0:0:
448,192,105000,1,0,0:0:0:0:
64,192,105187,1,0,0:0:0:0:
320,192,105375,1,8,0:0:0:0:
448,192,105375,1,0,0:0:0:0:
192,192,105562,1,0,0:0:0:0:
448,192,105750,1,0,0:0:0:0:
64,192,105750,128,2,106312:0:0:0:0:
448,192,106125,1,0,0:0:0:0:
320,192,106125,1,8,0:0:0:0:
192,192,106500,1,2,0:0:0:0:
320,192,106500,1,0,0:0:0:0:
448,192,106687,1,0,0:0:0:0:
192,192,106875,1,8,0:0:0:0:
64,192,106875,1,0,0:0:0:0:
320,192,107062,1,0,0:0:0:0:
64,192,107250,1,2,0:0:0:0:
448,192,107250,128,0,107812:0:0:0:0:
192,192,107625,1,8,0:0:0:0:
320,192,107625,1,0,0:0:0:0:
192,192,108000,1,2,0:0:0:0:
64,192,108000,1,0,0:0:0:0:
320,192,108187,1,0,0:0:0:0:
448,192,108375,1,8,0:0:0:0:
64,192,108375,1,0,0:0:0:0:
320,192,108562,1,0,0:0:0:0:
448,192,108750,1,2,0:0:0:0:
192,192,108750,128,0,109125:0:0:0:0:
320,192,109125,1,8,0:0:0:0:
64,192,109125,128,0,109500:0:0:0:0:
192,192,109500,1,2,0:0:0:0:
448,192,109500,128,0,110250:0:0:0:0:
64,192,109875,1,8,0:0:0:0:
192,192,110062,1,2,0:0:0:0:
320,192,110250,1,2,0:0:0:0:
448,192,110625,128,0,111000:0:0:0:0:
64,192,110625,1,0,0:0:0:0:
64,192,111000,1,6,0:0:0:0:
320,192,111000,1,4,0:0:0:0:
448,192,111375,1,8,0:0:0:0:
192,192,111375,128,0,111750:0:0:0:0:
64,192,111750,1,2,0:0:0:0:
320,192,111750,128,0,112312:0:0:0:0:
448,192,112125,1,8,0:0:0:0:
64,192,112125,1,0,0:0:0:0:
448,192,112500,1,2,0:0:0:0:
64,192,112500,1,0,0:0:0:0:
192,192,112687,1,0,0:0:0:0:
448,192,112875,1,8,0:0:0:0:
64,192,112875,128,0,113250:0:0:0:0:
192,192,113250,1,2,0:0:0:0:
448,192,113250,128,0,113812:0:0:0:0:
320,192,113625,1,8,0:0:0:0:
64,192,113625,1,0,0:0:0:0:
64,192,114000,1,2,0:0:0:0:
192,192,114000,1,0,0:0:0:0:
320,192,114187,1,0,0:0:0:0:
64,192,114375,1,8,0:0:0:0:
448,192,114375,1,0,0:0:0:0:
192,192,114562,1,0,0:0:0:0:
64,192,114750,128,2,115125:0:0:0:0:
320,192,114750,1,0,0:0:0:0:
448,192,115125,1,8,0:0:0:0:
192,192,115125,128,0,115500:0:0:0:0:
64,192,115500,1,2,0:0:0:0:
448,192,115500,128,0,115875:0:0:0:0:
64,192,115875,1,8,0:0:0:0:
320,192,115875,128,0,116250:0:0:0:0:
192,192,116062,1,2,0:0:0:0:
448,192,116250,1,2,0:0:0:0:
64,192,116250,128,0,116625:0:0:0:0:
320,192,116625,1,8,0:0:0:0:
192,192,116625,128,0,117000:0:0:0:0:
320,192,117000,1,4,0:0:0:0:
448,192,117000,1,2,0:0:0:0:
192,192,117187,1,0,0:0:0:0:
64,192,117375,1,8,0:0:0:0:
320,192,117375,128,0,117750:0:0:0:0:
192,192,117750,1,2,0:0:0:0:
448,192,117750,128,0,118312:0:0:0:0:
64,192,118125,1,8,0:0:0:0:
320,192,118125,1,0,0:0:0:0:
64,192,118500,128,2,118875:0:0:0:0:
192,192,118500,1,0,0:0:0:0:
448,192,118875,1,8,0:0:0:0:
320,192,118875,128,0,119250:0:0:0:0:
192,192,119250,1,2,0:0:0:0:
64,192,119250,128,0,119812:0:0:0:0:
448,192,119625,1,8,0:0:0:0:
320,192,119625,1,0,0:0:0:0:
192,192,120000,1,2,0:0:0:0:
320,192,120000,1,0,0:0:0:0:
448,192,120187,1,0,0:0:0:0:
320,192,120375,1,8,0:0:0:0:
192,192,120375,128,0,120750:0:0:0:0:
64,192,120750,1,2,0:0:0:0:
320,192,120750,128,0,121125:0:0:0:0:
192,192,121125,1,8,0:0:0:0:
448,192,121125,128,0,121500:0:0:0:0:
320,192,121500,1,2,0:0:0:0:
192,192,121500,128,0,122250:0:0:0:0:
448,192,121875,1,8,0:0:0:0:
320,192,122062,1,2,0:0:0:0:
64,192,122250,1,2,0:0:0:0:
320,192,122437,1,0,0:0:0:0:
192,192,122625,1,8,0:0:0:0:
448,192,122625,128,0,123000:0:0:0:0:
320,192,123000,1,6,0:0:0:0:
64,192,123187,1,0,0:0:0:0:
192,192,123375,1,8,0:0:0:0:
320,192,123375,128,0,123750:0:0:0:0:
64,192,123750,1,2,0:0:0:0:
448,192,123750,128,0,124312:0:0:0:0:
320,192,124125,1,8,0:0:0:0:
192,192,124125,1,0,0:0:0:0:
192,192,124500,1,2,0:0:0:0:
320,192,124500,128,0,124875:0:0:0:0:
448,192,124875,1,8,0:0:0:0:
64,192,124875,128,0,125250:0:0:0:0:
320,192,125250,1,2,0:0:0:0:
448,192,125250,128,0,125812:0:0:0:0:
192,192,125625,1,8,0:0:0:0:
64,192,125625,1,0,0:0:0:0:
192,192,126000,1,2,0:0:0:0:
64,192,126000,1,0,0:0:0:0:
320,192,126187,1,0,0:0:0:0:
192,192,126375,1,8,0:0:0:0:
448,192,126375,1,0,0:0:0:0:
64,192,126562,1,0,0:0:0:0:
192,192,126656,1,0,0:0:0:0:
320,192,126750,1,2,0:0:0:0:
448,192,126750,1,0,0:0:0:0:
192,192,126937,1,0,0:0:0:0:
320,192,127125,1,8,0:0:0:0:
64,192,127125,128,0,127500:0:0:0:0:
320,192,127500,1,6,0:0:0:0:
448,192,127500,128,0,128250:0:0:0:0:
192,192,127687,1,0,0:0:0:0:
320,192,127875,1,8,0:0:0:0:
192,192,128062,1,2,0:0:0:0:
64,192,128250,1,2,0:0:0:0:
320,192,128250,128,0,128625:0:0:0:0:
192,192,128625,1,8,0:0:0:0:
448,192,128812,1,0,0:0:0:0:
64,192,129000,128,2,129375:0:0:0:0:
320,192,129000,1,2,0:0:0:0:
320,192,129375,1,8,0:0:0:0:
448,192,129375,128,8,129750:0:0:0:0:
64,192,129750,1,2,0:0:0:0:
192,192,129750,128,2,130125:0:0:0:0:
448,192,130125,1,8,0:0:0:0:
320,192,130125,128,0,130500:0:0:0:0:
192,192,130500,1,4,0:0:0:0:
64,192,130500,128,4,131625:0:0:0:0:
320,192,130687,1,0,0:0:0:0:
448,192,130875,1,8,0:0:0:0:
320,192,131062,1,2,0:0:0:0:
192,192,131250,1,2,0:0:0:0:
448,192,131625,1,8,0:0:0:0:
320,192,131625,1,0,0:0:0:0:
