osu file format v14

[General]
AudioFilename: Quo Vadis.mp3
AudioLeadIn: 0
PreviewTime: 105000
Countdown: 0
SampleSet: Soft
StackLeniency: 0.7
Mode: 3
LetterboxInBreaks: 0
SpecialStyle: 1
WidescreenStoryboard: 0

[Editor]
Bookmarks: 134990
DistanceSpacing: 1.2
BeatDivisor: 4
GridSize: 4
TimelineZoom: 1.1

[Metadata]
Title:Quo Vadis
TitleUnicode:Quo Vadis
Artist:M2U
ArtistUnicode:M2U
Creator:JamesHappy
Version:7K NM
Source:Rhythm Master
Tags:bms hellgert z3nx ethnic house instrumental latin dance arcwinolivirus Evening
BeatmapID:543365
BeatmapSetID:227037

[Difficulty]
HPDrainRate:7
CircleSize:7
OverallDifficulty:7
ApproachRate:5
SliderMultiplier:1.4
SliderTickRate:1

[Events]
//Background and Video events
0,0,"7K NM.jpg",0,0
//Break Periods
//Storyboard Layer 0 (Background)
//Storyboard Layer 1 (Fail)
//Storyboard Layer 2 (Pass)
//Storyboard Layer 3 (Foreground)
//Storyboard Sound Samples

[TimingPoints]
3000,375,4,2,1,20,1,0
21000,-100,4,2,1,35,0,1
44625,-100,4,2,1,35,0,0
57000,-100,4,2,1,35,0,1
68625,-100,4,2,1,35,0,0
69000,-100,4,2,1,25,0,0
75000,-100,4,2,1,35,0,0
81000,-100,4,2,1,25,0,0
91125,-100,4,2,1,35,0,0
105006,-100,4,2,1,35,0,1
131625,-100,4,2,1,35,0,0

[HitObjects]
448,192,3000,5,4,0:0:0:0:
36,192,3000,5,0,0:0:0:0:
109,192,3375,1,8,0:0:0:0:
256,192,3562,1,0,0:0:0:0:
402,192,3750,1,0,0:0:0:0:
256,192,3937,1,0,0:0:0:0:
109,192,4125,1,8,0:0:0:0:
36,192,4125,1,0,0:0:0:0:
402,192,4500,1,0,0:0:0:0:
182,192,4500,1,0,0:0:0:0:
475,192,4687,1,0,0:0:0:0:
329,192,4781,1,0,0:0:0:0:
182,192,4875,1,8,0:0:0:0:
36,192,4875,1,0,0:0:0:0:
402,192,5062,1,0,0:0:0:0:
256,192,5250,1,0,0:0:0:0:
402,192,5437,1,0,0:0:0:0:
36,192,5625,1,8,0:0:0:0:
182,192,5625,1,0,0:0:0:0:
329,192,5812,1,0,0:0:0:0:
475,192,6000,1,0,0:0:0:0:
109,192,6000,1,0,0:0:0:0:
402,192,6187,1,0,0:0:0:0:
256,192,6281,1,0,0:0:0:0:
36,192,6375,1,8,0:0:0:0:
109,192,6375,1,0,0:0:0:0:
329,192,6562,1,0,0:0:0:0:
475,192,6750,1,0,0:0:0:0:
256,192,6937,1,0,0:0:0:0:
36,192,7125,1,8,0:0:0:0:
402,192,7125,1,0,0:0:0:0:
182,192,7312,1,0,0:0:0:0:
475,192,7500,1,0,0:0:0:0:
329,192,7500,1,0,0:0:0:0:
36,192,7687,1,0,0:0:0:0:
182,192,7781,1,0,0:0:0:0:
329,192,7875,1,8,0:0:0:0:
475,192,7875,1,0,0:0:0:0:
402,192,8062,128,0,8250:0:0:0:0:
256,192,8250,1,2,0:0:0:70:LR2_Snare+Hat.wav
109,192,8343,1,2,0:0:0:70:LR2_Snare+Hat.wav
329,192,8437,1,2,0:0:0:70:LR2_Snare+Hat.wav
182,192,8531,1,0,0:0:0:70:LR2_Snare+Hat.wav
475,192,8625,1,8,0:0:0:30:LR_Kick Low Strong Beat.wav
402,192,8625,1,0,0:0:0:0:
64,192,9000,1,4,0:0:0:0:
448,192,9000,1,2,0:0:0:0:
182,192,9375,1,8,0:0:0:0:
402,192,9375,128,0,9750:0:0:0:0:
109,192,9750,1,2,0:0:0:0:
329,192,9750,128,0,10125:0:0:0:0:
182,192,10125,1,8,0:0:0:0:
402,192,10125,128,0,10500:0:0:0:0:
475,192,10500,1,2,0:0:0:0:
64,192,10500,1,0,0:0:0:0:
256,192,10687,1,0,0:0:0:0:
402,192,10875,1,8,0:0:0:0:
182,192,10875,128,0,11250:0:0:0:0:
329,192,11250,1,2,0:0:0:0:
109,192,11250,128,0,11625:0:0:0:0:
402,192,11625,1,8,0:0:0:0:
182,192,11625,128,0,12000:0:0:0:0:
448,192,12000,1,6,0:0:0:0:
64,192,12000,1,4,0:0:0:0:
256,192,12375,1,8,0:0:0:0:
109,192,12375,128,0,12750:0:0:0:0:
329,192,12750,1,2,0:0:0:0:
182,192,12750,128,0,13125:0:0:0:0:
402,192,13125,1,8,0:0:0:0:
256,192,13125,128,0,13500:0:0:0:0:
64,192,13500,1,2,0:0:0:0:
448,192,13500,1,0,0:0:0:0:
182,192,13687,1,0,0:0:0:0:
329,192,13875,1,8,0:0:0:0:
475,192,13875,1,0,0:0:0:0:
256,192,14062,1,0,0:0:0:0:
36,192,14250,1,2,0:0:0:70:LR2_Snare+Hat.wav
182,192,14250,1,0,0:0:0:0:
329,192,14437,1,0,0:0:0:0:
402,192,14625,1,8,0:0:0:0:
475,192,14625,128,0,15000:0:0:0:0:
64,192,15000,1,4,0:0:0:0:
329,192,15000,1,2,0:0:0:0:
256,192,15375,1,8,0:0:0:0:
182,192,15562,1,0,0:0:0:0:
402,192,15562,1,2,0:0:0:0:
329,192,15750,1,6,0:0:0:0:
109,192,15750,1,4,0:0:0:0:
256,192,16125,1,8,0:0:0:0:
329,192,16312,1,2,0:0:0:0:
109,192,16312,1,0,0:0:0:0:
402,192,16500,1,4,0:0:0:0:
182,192,16500,1,2,0:0:0:0:
256,192,16875,1,12,0:0:0:0:
109,192,16875,1,8,0:0:0:0:
475,192,17250,1,6,0:0:0:0:
329,192,17250,1,4,0:0:0:0:
182,192,17625,1,12,0:0:0:0:
109,192,17625,1,8,0:0:0:0:
402,192,17812,1,0,0:0:0:0:
329,192,17812,1,2,0:0:0:0:
36,192,18000,1,6,0:0:0:0:
256,192,18000,128,4,18187:0:0:0:0:
475,192,18187,128,0,18375:0:0:0:0:
109,192,18375,1,8,0:0:0:0:
36,192,18375,128,0,18562:0:0:0:0:
329,192,18562,128,0,18750:0:0:0:0:
402,192,18750,1,6,0:0:0:0:
182,192,18750,128,4,18937:0:0:0:0:
475,192,18937,128,0,19125:0:0:0:0:
36,192,19125,1,8,0:0:0:0:
109,192,19125,128,0,19312:0:0:0:0:
256,192,19312,128,0,19500:0:0:0:0:
475,192,19500,1,6,0:0:0:0:
182,192,19500,1,4,0:0:0:0:
402,192,19500,128,0,19687:0:0:0:0:
36,192,19687,1,0,0:0:0:0:
182,192,19875,1,0,0:0:0:0:
329,192,20062,1,0,0:0:0:0:
475,192,20250,128,0,20625:0:0:0:0:
36,192,20437,1,0,0:0:0:0:
109,192,20625,1,8,0:0:0:0:
256,192,20625,1,0,0:0:0:0:
182,192,21000,1,6,0:0:0:0:
329,192,21000,1,0,0:0:0:0:
402,192,21000,128,0,21375:0:0:0:0:
475,192,21375,1,8,0:0:0:0:
36,192,21375,1,0,0:0:0:0:
109,192,21562,1,0,0:0:0:0:
182,192,21750,1,2,0:0:0:0:
329,192,21750,128,0,22125:0:0:0:0:
402,192,22125,1,8,0:0:0:0:
36,192,22125,1,0,0:0:0:0:
475,192,22312,1,0,0:0:0:0:
109,192,22500,128,0,22875:0:0:0:0:
182,192,22500,1,0,0:0:0:0:
36,192,22875,1,8,0:0:0:0:
475,192,22875,1,0,0:0:0:0:
402,192,23062,1,0,0:0:0:0:
182,192,23250,128,0,23625:0:0:0:0:
329,192,23250,1,2,0:0:0:0:
109,192,23625,1,8,0:0:0:0:
475,192,23625,1,0,0:0:0:0:
402,192,23812,1,0,0:0:0:0:
329,192,24000,1,2,0:0:0:0:
36,192,24000,128,0,24375:0:0:0:0:
109,192,24375,1,8,0:0:0:0:
256,192,24375,1,0,0:0:0:0:
182,192,24750,128,0,25125:0:0:0:0:
475,192,24750,1,2,0:0:0:0:
402,192,25125,1,8,0:0:0:0:
256,192,25125,1,0,0:0:0:0:
36,192,25312,1,0,0:0:0:0:
329,192,25500,128,2,25875:0:0:0:0:
475,192,25500,1,0,0:0:0:0:
109,192,25500,1,0,0:0:0:0:
182,192,25875,1,8,0:0:0:0:
36,192,25875,1,0,0:0:0:0:
475,192,26062,1,0,0:0:0:0:
402,192,26062,1,0,0:0:0:0:
256,192,26250,1,2,0:0:0:0:
109,192,26250,128,0,26625:0:0:0:0:
329,192,26625,1,8,0:0:0:0:
36,192,26625,1,0,0:0:0:0:
475,192,27000,1,0,0:0:0:0:
182,192,27000,1,6,0:0:0:0:
402,192,27000,128,0,27375:0:0:0:0:
36,192,27375,1,0,0:0:0:0:
329,192,27375,1,8,0:0:0:0:
109,192,27562,1,0,0:0:0:0:
182,192,27750,1,2,0:0:0:0:
329,192,27750,128,0,28125:0:0:0:0:
109,192,28125,1,0,0:0:0:0:
402,192,28125,1,8,0:0:0:0:
475,192,28312,1,0,0:0:0:0:
36,192,28500,1,0,0:0:0:0:
109,192,28500,128,0,28875:0:0:0:0:
329,192,28500,1,6,0:0:0:0:
182,192,28875,1,8,0:0:0:0:
475,192,28875,1,0,0:0:0:0:
402,192,29062,1,0,0:0:0:0:
329,192,29250,1,2,0:0:0:0:
182,192,29250,128,0,29625:0:0:0:0:
109,192,29625,1,8,0:0:0:0:
256,192,29625,1,0,0:0:0:0:
329,192,29812,1,0,0:0:0:0:
402,192,30000,1,2,0:0:0:0:
475,192,30000,128,0,30375:0:0:0:0:
109,192,30375,1,8,0:0:0:0:
329,192,30375,1,0,0:0:0:0:
256,192,30750,1,2,0:0:0:0:
36,192,30750,128,0,31125:0:0:0:0:
402,192,31125,1,8,0:0:0:0:
182,192,31125,1,0,0:0:0:0:
256,192,31500,128,2,32250:0:0:0:0:
36,192,31500,1,0,0:0:0:0:
182,192,31687,1,2,0:0:0:0:
475,192,32062,1,2,0:0:0:0:
329,192,32250,1,2,0:0:0:0:
36,192,32250,1,0,0:0:0:0:
109,192,32437,1,0,0:0:0:0:
256,192,32625,128,0,33000:0:0:0:0:
448,192,32625,1,8,0:0:0:0:
329,192,33000,1,6,0:0:0:0:
182,192,33000,1,0,0:0:0:0:
109,192,33000,128,0,33375:0:0:0:0:
36,192,33375,1,8,0:0:0:0:
475,192,33375,1,0,0:0:0:0:
402,192,33562,1,0,0:0:0:0:
329,192,33750,1,2,0:0:0:0:
182,192,33750,128,0,34125:0:0:0:0:
109,192,34125,1,8,0:0:0:0:
475,192,34125,1,0,0:0:0:0:
36,192,34312,1,0,0:0:0:0:
402,192,34500,128,0,34875:0:0:0:0:
329,192,34500,1,0,0:0:0:0:
475,192,34875,1,8,0:0:0:0:
36,192,34875,1,0,0:0:0:0:
109,192,35062,1,0,0:0:0:0:
329,192,35250,128,0,35625:0:0:0:0:
182,192,35250,1,2,0:0:0:0:
402,192,35625,1,8,0:0:0:0:
36,192,35625,1,0,0:0:0:0:
109,192,35812,1,0,0:0:0:0:
182,192,36000,1,2,0:0:0:0:
475,192,36000,128,0,36375:0:0:0:0:
402,192,36375,1,8,0:0:0:0:
256,192,36375,1,0,0:0:0:0:
329,192,36750,128,0,37125:0:0:0:0:
36,192,36750,1,2,0:0:0:0:
109,192,37125,1,8,0:0:0:0:
256,192,37125,1,0,0:0:0:0:
475,192,37312,1,0,0:0:0:0:
182,192,37500,128,2,37875:0:0:0:0:
36,192,37500,1,0,0:0:0:0:
402,192,37500,1,0,0:0:0:0:
329,192,37875,1,8,0:0:0:0:
475,192,37875,1,0,0:0:0:0:
36,192,38062,1,0,0:0:0:0:
109,192,38062,1,0,0:0:0:0:
256,192,38250,1,2,0:0:0:0:
402,192,38250,128,0,38625:0:0:0:0:
182,192,38625,1,8,0:0:0:0:
475,192,38625,1,0,0:0:0:0:
36,192,39000,1,0,0:0:0:0:
329,192,39000,1,6,0:0:0:0:
109,192,39000,128,0,39375:0:0:0:0:
475,192,39375,1,0,0:0:0:0:
182,192,39375,1,8,0:0:0:0:
402,192,39562,1,0,0:0:0:0:
329,192,39750,1,2,0:0:0:0:
182,192,39750,128,0,40125:0:0:0:0:
402,192,40125,1,0,0:0:0:0:
109,192,40125,1,8,0:0:0:0:
36,192,40312,1,0,0:0:0:0:
475,192,40500,1,0,0:0:0:0:
402,192,40500,128,0,40875:0:0:0:0:
182,192,40500,1,6,0:0:0:0:
329,192,40875,1,8,0:0:0:0:
36,192,40875,1,0,0:0:0:0:
109,192,41062,1,0,0:0:0:0:
182,192,41250,1,2,0:0:0:0:
329,192,41250,128,0,41625:0:0:0:0:
402,192,41625,1,8,0:0:0:0:
256,192,41625,1,0,0:0:0:0:
182,192,41812,1,0,0:0:0:0:
109,192,42000,1,2,0:0:0:0:
36,192,42000,128,0,42375:0:0:0:0:
329,192,42375,1,8,0:0:0:0:
182,192,42375,1,0,0:0:0:0:
256,192,42750,1,2,0:0:0:0:
475,192,42750,128,0,43125:0:0:0:0:
109,192,43125,1,8,0:0:0:0:
402,192,43125,1,0,0:0:0:0:
36,192,43500,1,6,0:0:0:0:
475,192,43500,1,4,0:0:0:0:
256,192,43500,128,0,43875:0:0:0:0:
182,192,43875,1,8,0:0:0:0:
329,192,43875,1,0,0:0:0:0:
36,192,44062,1,0,0:0:0:0:
475,192,44062,1,0,0:0:0:0:
109,192,44250,1,2,0:0:0:0:
402,192,44250,1,0,0:0:0:0:
182,192,44437,1,0,0:0:0:0:
329,192,44437,1,0,0:0:0:0:
402,192,44625,1,0,0:0:0:30:LR_Kick Low Strong Beat.wav
256,192,44625,128,0,45000:0:0:0:0:
109,192,44625,1,0,0:0:0:0:
320,192,45000,1,6,0:0:0:0:
182,192,45000,1,0,0:0:0:0:
448,192,45375,1,8,0:0:0:0:
256,192,45375,1,0,0:0:0:0:
182,192,45562,1,0,0:0:0:0:
109,192,45750,1,2,0:0:0:0:
402,192,45750,1,0,0:0:0:0:
182,192,45937,1,0,0:0:0:0:
256,192,46125,1,8,0:0:0:0:
475,192,46125,1,0,0:0:0:0:
182,192,46312,1,0,0:0:0:0:
448,192,46500,1,2,0:0:0:0:
36,192,46500,1,0,0:0:0:0:
329,192,46687,1,0,0:0:0:0:
256,192,46875,1,8,0:0:0:0:
36,192,46875,1,0,0:0:0:0:
329,192,47062,1,0,0:0:0:0:
109,192,47250,1,0,0:0:0:0:
402,192,47250,1,2,0:0:0:0:
329,192,47437,1,0,0:0:0:0:
256,192,47625,1,8,0:0:0:0:
36,192,47625,1,0,0:0:0:0:
329,192,47812,1,0,0:0:0:0:
182,192,48000,1,2,0:0:0:0:
475,192,48000,1,0,0:0:0:0:
36,192,48187,1,0,0:0:0:0:
256,192,48375,1,8,0:0:0:0:
329,192,48375,1,0,0:0:0:0:
402,192,48562,128,0,48750:0:0:0:0:
109,192,48750,1,2,0:0:0:0:
36,192,48750,1,0,0:0:0:0:
256,192,48937,128,0,49125:0:0:0:0:
402,192,49125,1,8,0:0:0:0:
475,192,49125,1,0,0:0:0:0:
109,192,49312,128,0,49500:0:0:0:0:
329,192,49500,1,2,0:0:0:0:
256,192,49500,1,0,0:0:0:0:
402,192,49687,1,0,0:0:0:0:
36,192,49875,1,8,0:0:0:0:
182,192,49875,1,0,0:0:0:0:
475,192,50062,1,2,0:0:0:0:
329,192,50062,1,0,0:0:0:0:
402,192,50250,1,2,0:0:0:0:
256,192,50250,1,0,0:0:0:0:
109,192,50437,1,0,0:0:0:0:
329,192,50625,1,8,0:0:0:0:
182,192,50625,1,0,0:0:0:0:
448,192,51000,1,6,0:0:0:0:
64,192,51000,1,4,0:0:0:0:
402,192,51375,1,8,0:0:0:0:
109,192,51375,1,0,0:0:0:0:
256,192,51562,1,0,0:0:0:0:
36,192,51750,1,2,0:0:0:0:
182,192,51750,1,0,0:0:0:0:
329,192,51937,1,0,0:0:0:0:
256,192,52125,1,8,0:0:0:0:
475,192,52125,1,0,0:0:0:0:
36,192,52312,1,0,0:0:0:0:
182,192,52500,1,2,0:0:0:0:
329,192,52500,1,0,0:0:0:0:
109,192,52687,1,0,0:0:0:0:
256,192,52875,1,8,0:0:0:0:
402,192,52875,1,0,0:0:0:0:
182,192,53062,1,0,0:0:0:0:
329,192,53250,1,0,0:0:0:0:
475,192,53250,1,0,0:0:0:0:
109,192,53437,1,0,0:0:0:0:
329,192,53625,1,8,0:0:0:0:
182,192,53625,1,0,0:0:0:0:
475,192,53812,1,0,0:0:0:0:
36,192,54000,1,0,0:0:0:0:
182,192,54000,1,2,0:0:0:0:
329,192,54187,1,0,0:0:0:0:
256,192,54375,1,8,0:0:0:0:
109,192,54375,1,0,0:0:0:0:
36,192,54562,1,0,0:0:0:0:
256,192,54750,1,2,0:0:0:0:
402,192,54750,1,0,0:0:0:0:
475,192,54937,1,0,0:0:0:0:
109,192,55125,1,8,0:0:0:0:
36,192,55125,1,0,0:0:0:0:
182,192,55312,1,0,0:0:0:0:
256,192,55500,128,6,55875:0:0:0:0:
475,192,55500,1,4,0:0:0:0:
402,192,55500,1,0,0:0:0:0:
36,192,55875,1,8,0:0:0:0:
329,192,55875,1,0,0:0:0:0:
402,192,56062,1,0,0:0:0:0:
109,192,56062,1,0,0:0:0:0:
320,192,56250,128,2,56625:0:0:0:0:
475,192,56250,1,0,0:0:0:0:
109,192,56625,1,8,0:0:0:0:
448,192,57000,1,6,0:0:0:0:
182,192,57000,1,2,0:0:0:0:
36,192,57000,128,0,57375:0:0:0:0:
402,192,57375,1,8,0:0:0:0:
109,192,57375,1,0,0:0:0:0:
329,192,57562,1,0,0:0:0:0:
182,192,57750,128,0,58125:0:0:0:0:
256,192,57750,1,0,0:0:0:0:
402,192,58125,1,8,0:0:0:0:
36,192,58125,1,0,0:0:0:0:
256,192,58500,1,2,0:0:0:0:
329,192,58500,128,0,58875:0:0:0:0:
109,192,58875,1,8,0:0:0:0:
36,192,58875,1,0,0:0:0:0:
256,192,59062,1,0,0:0:0:0:
402,192,59250,1,2,0:0:0:0:
475,192,59250,128,0,59625:0:0:0:0:
109,192,59625,1,8,0:0:0:0:
36,192,59625,1,0,0:0:0:0:
256,192,59812,1,0,0:0:0:0:
402,192,60000,1,2,0:0:0:0:
109,192,60000,128,0,60375:0:0:0:0:
329,192,60375,1,8,0:0:0:0:
475,192,60375,1,0,0:0:0:0:
182,192,60562,1,0,0:0:0:0:
256,192,60750,1,2,0:0:0:0:
36,192,60750,1,0,0:0:0:0:
329,192,60937,1,0,0:0:0:0:
192,192,61125,1,8,0:0:0:0:
402,192,61125,1,0,0:0:0:0:
109,192,61312,1,0,0:0:0:0:
475,192,61500,128,2,62250:0:0:0:0:
36,192,61500,1,0,0:0:0:0:
256,192,61875,1,8,0:0:0:0:
182,192,62062,1,2,0:0:0:0:
109,192,62250,1,2,0:0:0:0:
402,192,62250,128,0,62625:0:0:0:0:
182,192,62625,1,8,0:0:0:0:
329,192,62625,128,0,63000:0:0:0:0:
36,192,63000,1,6,0:0:0:0:
475,192,63000,1,0,0:0:0:0:
109,192,63187,1,0,0:0:0:0:
475,192,63375,1,8,0:0:0:0:
256,192,63375,1,0,0:0:0:0:
402,192,63562,1,0,0:0:0:0:
329,192,63750,1,2,0:0:0:0:
182,192,63750,128,0,64125:0:0:0:0:
64,192,64125,1,8,0:0:0:0:
402,192,64125,1,0,0:0:0:0:
475,192,64500,1,2,0:0:0:0:
256,192,64500,1,0,0:0:0:0:
402,192,64687,1,0,0:0:0:0:
36,192,64875,1,8,0:0:0:0:
329,192,64875,1,0,0:0:0:0:
109,192,65062,1,0,0:0:0:0:
256,192,65250,128,2,65625:0:0:0:0:
182,192,65250,1,0,0:0:0:0:
475,192,65625,1,8,0:0:0:0:
402,192,65625,1,0,0:0:0:0:
182,192,65812,1,0,0:0:0:0:
64,192,66000,1,2,0:0:0:0:
182,192,66187,1,0,0:0:0:0:
329,192,66375,1,8,0:0:0:0:
182,192,66562,1,0,0:0:0:0:
402,192,66750,1,2,0:0:0:0:
109,192,66937,1,0,0:0:0:0:
192,192,67125,1,8,0:0:0:0:
320,192,67125,1,0,0:0:0:0:
64,192,67500,1,2,0:0:0:0:
448,192,67500,1,0,0:0:0:0:
256,192,67500,128,0,68625:0:0:0:0:
182,192,67687,1,0,0:0:0:0:
109,192,67875,1,8,0:0:0:0:
329,192,68062,1,2,0:0:0:0:
402,192,68250,1,2,0:0:0:0:
36,192,68625,1,8,0:0:0:0:
448,192,68625,1,0,0:0:0:0:
256,192,69000,1,6,0:0:0:0:
402,192,69000,1,4,0:0:0:0:
36,192,69375,1,8,1:0:0:0:
256,192,69562,1,0,0:0:0:0:
448,192,69750,1,0,0:0:0:0:
109,192,69937,1,0,0:0:0:0:
402,192,70125,1,8,1:0:0:0:
182,192,70500,1,0,0:0:0:0:
329,192,70500,1,0,0:0:0:0:
475,192,70875,1,8,1:0:0:0:
256,192,71062,1,0,0:0:0:0:
36,192,71250,1,0,0:0:0:0:
402,192,71437,1,0,0:0:0:0:
109,192,71625,1,8,1:0:0:0:
329,192,72000,1,0,0:0:0:0:
182,192,72000,1,0,0:0:0:0:
36,192,72375,1,8,1:0:0:0:
402,192,72562,1,0,0:0:0:0:
256,192,72750,1,0,0:0:0:0:
109,192,72937,1,0,0:0:0:0:
475,192,73125,1,8,1:0:0:0:
182,192,73500,1,0,0:0:0:0:
329,192,73500,1,0,0:0:0:0:
36,192,73875,1,8,1:0:0:0:
402,192,74062,1,0,0:0:0:0:
109,192,74250,1,0,0:0:0:70:LR2_Snare+Hat.wav
475,192,74437,1,0,0:0:0:0:
329,192,74625,1,0,0:0:0:70:LR_Kick Low Strong Beat.wav
182,192,74625,1,0,0:0:0:0:
109,192,75000,1,6,0:0:0:0:
402,192,75000,1,4,0:0:0:0:
64,192,75375,1,8,0:0:0:0:
448,192,75375,1,0,0:0:0:0:
109,192,75562,1,0,0:0:0:0:
329,192,75750,1,2,0:0:0:0:
182,192,75750,1,0,0:0:0:0:
402,192,75937,1,0,0:0:0:0:
256,192,76125,1,8,0:0:0:0:
109,192,76125,1,0,0:0:0:0:
329,192,76312,1,0,0:0:0:0:
475,192,76500,1,2,0:0:0:0:
36,192,76500,1,0,0:0:0:0:
329,192,76687,1,0,0:0:0:0:
109,192,76875,1,8,0:0:0:0:
256,192,76875,1,0,0:0:0:0:
402,192,77062,1,0,0:0:0:0:
182,192,77250,1,2,0:0:0:0:
329,192,77250,1,0,0:0:0:0:
475,192,77437,1,0,0:0:0:0:
402,192,77625,1,8,0:0:0:0:
256,192,77625,1,0,0:0:0:0:
36,192,77812,1,0,0:0:0:0:
448,192,78000,1,6,0:0:0:0:
109,192,78000,1,4,0:0:0:0:
256,192,78187,1,0,0:0:0:0:
192,192,78375,1,8,0:0:0:0:
402,192,78375,1,0,0:0:0:0:
329,192,78562,1,0,0:0:0:0:
109,192,78750,1,6,0:0:0:0:
36,192,78750,1,4,0:0:0:0:
182,192,78937,1,0,0:0:0:0:
329,192,79125,1,8,0:0:0:0:
475,192,79125,1,0,0:0:0:0:
256,192,79312,1,0,0:0:0:0:
448,192,79500,1,6,0:0:0:0:
182,192,79500,1,4,0:0:0:0:
402,192,79687,1,0,0:0:0:0:
329,192,79875,1,8,0:0:0:0:
36,192,79875,1,0,0:0:0:0:
109,192,80062,1,0,0:0:0:0:
182,192,80250,1,0,0:0:0:0:
402,192,80250,1,2,0:0:0:0:
329,192,80437,1,2,0:0:0:0:
256,192,80625,128,8,81000:0:0:0:0:
182,192,80625,1,0,0:0:0:0:
448,192,81000,1,4,0:0:0:0:
36,192,81000,1,0,0:0:0:0:
192,192,81375,1,2,3:0:0:0:
109,192,81656,1,0,0:0:0:0:
320,192,81750,1,0,0:0:0:0:
64,192,82125,1,2,3:0:0:0:
109,192,82125,1,0,0:0:0:0:
256,192,82500,1,0,0:0:0:0:
448,192,82875,1,2,3:0:0:0:
182,192,83062,1,0,0:0:0:0:
329,192,83250,1,0,0:0:0:0:
64,192,83625,1,2,3:0:0:0:
256,192,84000,1,0,0:0:0:0:
109,192,84375,1,2,3:0:0:0:
475,192,84656,1,0,0:0:0:0:
402,192,84750,1,0,0:0:0:0:
182,192,85125,1,2,3:0:0:0:
329,192,85500,1,0,0:0:0:0:
475,192,85875,1,8,0:0:0:0:
256,192,86062,1,0,0:0:0:70:LR2_Snare+Hat.wav
182,192,86156,1,0,0:0:0:0:
109,192,86250,1,0,0:0:0:70:LR2_Snare+Hat.wav
329,192,86437,1,0,0:0:0:70:LR2_Snare+Hat.wav
402,192,86531,1,0,0:0:0:70:LR2_Snare+Hat.wav
475,192,86625,1,0,0:0:0:30:LR_Kick Low Strong Beat.wav
109,192,86812,1,0,0:0:0:0:
182,192,86906,1,0,0:0:0:0:
256,192,87000,1,4,0:0:0:0:
475,192,87000,1,0,0:0:0:0:
256,192,87375,1,2,3:0:0:0:
329,192,87468,1,0,0:0:0:0:
402,192,87562,1,0,0:0:0:0:
182,192,87750,1,0,0:0:0:0:
109,192,87843,1,0,0:0:0:0:
36,192,87937,1,0,0:0:0:0:
182,192,88125,1,2,3:0:0:0:
256,192,88218,1,0,0:0:0:0:
329,192,88312,1,0,0:0:0:0:
64,192,88500,1,0,0:0:0:0:
109,192,88593,1,0,0:0:0:0:
182,192,88687,1,0,0:0:0:0:
475,192,88875,1,2,3:0:0:0:
329,192,89062,1,0,0:0:0:0:
192,192,89250,1,0,0:0:0:0:
109,192,89343,1,0,0:0:0:0:
36,192,89437,1,0,0:0:0:0:
256,192,89625,1,2,3:0:0:0:
329,192,89718,1,0,0:0:0:0:
402,192,89812,1,0,0:0:0:0:
182,192,90000,1,4,0:0:0:0:
329,192,90000,1,0,0:0:0:0:
256,192,90187,1,0,0:0:0:0:
64,192,90375,1,2,3:0:0:0:
182,192,90562,1,0,0:0:0:0:
256,192,90750,1,4,0:0:0:0:
402,192,90750,1,0,0:0:0:0:
329,192,90937,1,0,0:0:0:0:
475,192,91125,1,2,3:0:0:0:
402,192,91312,1,0,0:0:0:0:
192,192,91500,1,4,0:0:0:0:
329,192,91500,1,0,0:0:0:0:
256,192,91687,1,0,0:0:0:0:
448,192,91875,1,8,0:0:0:0:
402,192,92062,1,0,0:0:0:0:
256,192,92250,1,0,0:0:0:0:
109,192,92437,1,8,0:0:0:0:
402,192,92437,1,0,0:0:0:0:
64,192,92625,1,8,0:0:0:0:
448,192,92625,1,0,0:0:0:0:
109,192,93000,1,6,0:0:0:0:
402,192,93000,128,4,93375:0:0:0:0:
182,192,93375,1,0,0:0:0:0:
256,192,93562,1,0,0:0:0:0:
36,192,93750,1,8,0:0:0:0:
329,192,93750,1,0,0:0:0:0:
329,192,94125,128,0,94500:0:0:0:0:
256,192,94125,1,8,0:0:0:0:
402,192,94500,1,2,0:0:0:0:
182,192,94500,128,0,94875:0:0:0:0:
475,192,94687,1,0,0:0:0:0:
256,192,94875,1,0,0:0:0:0:
109,192,95250,1,8,0:0:0:0:
402,192,95250,128,0,95625:0:0:0:0:
192,192,95625,1,8,0:0:0:0:
256,192,96000,128,2,96375:0:0:0:0:
109,192,96000,1,0,0:0:0:0:
320,192,96375,1,0,0:0:0:0:
402,192,96562,1,2,0:0:0:0:
448,192,96750,1,8,0:0:0:0:
256,192,97125,1,8,0:0:0:0:
182,192,97125,128,0,97500:0:0:0:0:
402,192,97500,1,2,0:0:0:0:
109,192,97500,128,0,97875:0:0:0:0:
320,192,97875,1,0,0:0:0:0:
475,192,98062,1,0,0:0:0:0:
256,192,98250,1,8,0:0:0:0:
182,192,98250,128,0,98625:0:0:0:0:
320,192,98625,1,8,0:0:0:0:
256,192,99000,128,4,99375:0:0:0:0:
109,192,99000,1,2,0:0:0:0:
402,192,99000,1,0,0:0:0:0:
36,192,99187,1,0,0:0:0:0:
448,192,99375,1,8,1:0:0:30:LR2_Snare+Hat.wav
182,192,99562,1,0,0:0:0:0:
109,192,99750,1,8,0:0:0:0:
329,192,99750,128,0,100125:0:0:0:0:
402,192,100125,1,8,0:0:0:30:LR2_Snare+Hat.wav
475,192,100312,1,0,0:0:0:0:
192,192,100500,1,2,0:0:0:0:
256,192,100500,128,0,100875:0:0:0:0:
448,192,100875,1,8,1:0:0:30:LR2_Snare+Hat.wav
329,192,101062,1,0,0:0:0:0:
182,192,101250,1,8,0:0:0:0:
402,192,101250,128,0,101625:0:0:0:0:
64,192,101625,1,8,0:0:0:30:LR2_Snare+Hat.wav
192,192,102000,1,2,0:0:0:0:
256,192,102000,128,0,102375:0:0:0:0:
448,192,102375,1,8,1:0:0:30:LR2_Snare+Hat.wav
402,192,102562,1,0,0:0:0:0:
320,192,102750,1,8,0:0:0:0:
182,192,102750,128,0,103125:0:0:0:0:
256,192,103125,1,8,0:0:0:30:LR2_Snare+Hat.wav
448,192,103500,1,6,0:0:0:0:
256,192,103500,128,4,104625:0:0:0:0:
36,192,103500,1,0,0:0:0:0:
109,192,103875,128,8,104625:0:0:0:0:
402,192,103875,128,8,104625:0:0:0:0:
36,192,104625,1,0,0:0:0:0:
448,192,104625,1,0,0:0:0:0:
182,192,105000,1,6,0:0:0:0:
329,192,105000,1,0,0:0:0:0:
109,192,105187,1,0,0:0:0:0:
256,192,105375,1,8,0:0:0:0:
402,192,105375,1,0,0:0:0:0:
329,192,105750,128,2,106312:0:0:0:0:
475,192,105750,1,0,0:0:0:0:
182,192,106125,1,8,0:0:0:0:
36,192,106312,1,0,0:0:0:0:
402,192,106500,1,2,0:0:0:0:
256,192,106500,1,0,0:0:0:0:
109,192,106687,1,0,0:0:0:0:
329,192,106875,1,8,0:0:0:0:
475,192,106875,1,0,0:0:0:0:
182,192,107062,1,0,0:0:0:0:
402,192,107250,128,2,107812:0:0:0:0:
256,192,107250,1,0,0:0:0:0:
36,192,107625,1,8,0:0:0:0:
109,192,107625,1,0,0:0:0:0:
256,192,107812,1,0,0:0:0:0:
109,192,108000,1,2,0:0:0:0:
402,192,108187,1,0,0:0:0:0:
192,192,108375,1,8,0:0:0:0:
329,192,108375,1,0,0:0:0:0:
475,192,108562,1,0,0:0:0:0:
256,192,108750,1,2,0:0:0:0:
109,192,108750,128,0,109125:0:0:0:0:
320,192,109125,1,8,0:0:0:0:
182,192,109125,128,0,109500:0:0:0:0:
256,192,109500,128,2,110250:0:0:0:0:
64,192,109875,1,8,0:0:0:0:
109,192,110062,1,2,0:0:0:0:
182,192,110250,1,2,0:0:0:0:
402,192,110343,1,0,0:0:0:0:
329,192,110437,1,0,0:0:0:0:
256,192,110531,1,0,0:0:0:0:
182,192,110625,1,8,0:0:0:0:
475,192,110625,128,0,111000:0:0:0:0:
64,192,111000,1,6,0:0:0:0:
256,192,111000,1,4,0:0:0:0:
329,192,111375,128,8,111750:0:0:0:0:
109,192,111375,1,0,0:0:0:0:
256,192,111750,128,2,112312:0:0:0:0:
182,192,111750,1,0,0:0:0:0:
64,192,112125,1,8,0:0:0:0:
109,192,112125,1,0,0:0:0:0:
329,192,112500,1,2,0:0:0:0:
256,192,112687,1,0,0:0:0:0:
182,192,112875,1,8,0:0:0:0:
402,192,112875,128,0,113250:0:0:0:0:
256,192,113250,1,2,0:0:0:0:
448,192,113250,128,0,113812:0:0:0:0:
329,192,113625,1,8,0:0:0:0:
109,192,113625,1,0,0:0:0:0:
64,192,114000,1,2,0:0:0:0:
256,192,114000,1,0,0:0:0:0:
192,192,114375,1,8,0:0:0:0:
329,192,114375,1,0,0:0:0:0:
36,192,114562,1,0,0:0:0:0:
109,192,114750,1,2,0:0:0:0:
402,192,114750,128,0,115125:0:0:0:0:
256,192,115125,1,8,0:0:0:0:
329,192,115125,128,0,115500:0:0:0:0:
64,192,115500,1,2,0:0:0:0:
109,192,115500,128,0,115875:0:0:0:0:
256,192,115875,1,8,0:0:0:0:
182,192,115875,128,0,116250:0:0:0:0:
329,192,116062,1,2,0:0:0:0:
64,192,116250,1,2,0:0:0:0:
402,192,116250,128,0,116625:0:0:0:0:
329,192,116625,128,8,117000:0:0:0:0:
182,192,116625,1,0,0:0:0:0:
36,192,117000,1,4,0:0:0:0:
475,192,117000,1,2,0:0:0:0:
402,192,117187,1,0,0:0:0:0:
329,192,117375,1,8,0:0:0:0:
109,192,117375,1,0,0:0:0:0:
192,192,117750,128,2,118312:0:0:0:0:
402,192,117750,1,0,0:0:0:0:
64,192,118125,1,8,0:0:0:0:
109,192,118500,1,2,0:0:0:0:
329,192,118500,1,0,0:0:0:0:
192,192,118875,1,8,0:0:0:0:
402,192,118875,1,0,0:0:0:0:
256,192,119250,128,2,119812:0:0:0:0:
475,192,119250,1,0,0:0:0:0:
109,192,119625,1,8,0:0:0:0:
36,192,119625,1,0,0:0:0:0:
329,192,120000,1,2,0:0:0:0:
182,192,120000,128,0,120375:0:0:0:0:
475,192,120375,1,8,0:0:0:0:
36,192,120375,128,0,120750:0:0:0:0:
256,192,120750,1,2,0:0:0:0:
329,192,120750,128,0,121125:0:0:0:0:
109,192,121125,1,8,0:0:0:0:
182,192,121125,128,0,121500:0:0:0:0:
36,192,121500,1,2,0:0:0:0:
256,192,121500,128,0,122250:0:0:0:0:
475,192,121875,1,8,0:0:0:0:
402,192,122062,1,2,0:0:0:0:
329,192,122250,1,0,0:0:0:0:
36,192,122250,128,0,122437:0:0:0:0:
182,192,122437,128,0,122625:0:0:0:0:
329,192,122625,128,8,123000:0:0:0:0:
475,192,122625,1,0,0:0:0:0:
36,192,123000,1,6,0:0:0:0:
256,192,123000,1,0,0:0:0:0:
182,192,123000,128,0,123375:0:0:0:0:
329,192,123375,1,8,0:0:0:0:
109,192,123375,128,0,123750:0:0:0:0:
402,192,123750,1,2,0:0:0:0:
36,192,123750,128,0,124312:0:0:0:0:
475,192,124125,1,8,0:0:0:0:
182,192,124312,1,0,0:0:0:0:
256,192,124500,1,2,0:0:0:0:
329,192,124500,128,0,124875:0:0:0:0:
182,192,124875,1,8,0:0:0:0:
402,192,124875,128,0,125250:0:0:0:0:
109,192,125250,1,2,0:0:0:0:
475,192,125250,128,0,125812:0:0:0:0:
36,192,125625,1,8,0:0:0:0:
256,192,125625,1,0,0:0:0:0:
402,192,126000,1,2,0:0:0:0:
182,192,126000,1,0,0:0:0:0:
109,192,126375,1,8,0:0:0:0:
329,192,126375,1,0,0:0:0:0:
182,192,126562,1,0,0:0:0:0:
256,192,126656,1,0,0:0:0:0:
329,192,126750,1,2,0:0:0:0:
182,192,126937,1,0,0:0:0:0:
329,192,127125,1,8,0:0:0:0:
109,192,127125,128,0,127500:0:0:0:0:
475,192,127500,1,6,0:0:0:0:
182,192,127500,1,0,0:0:0:0:
402,192,127500,128,0,128250:0:0:0:0:
36,192,127687,1,0,0:0:0:0:
182,192,127875,1,8,0:0:0:0:
329,192,128062,1,2,0:0:0:0:
475,192,128250,128,2,128625:0:0:0:0:
36,192,128250,1,0,0:0:0:0:
329,192,128625,1,8,0:0:0:0:
182,192,128625,1,0,0:0:0:0:
109,192,129000,128,2,129375:0:0:0:0:
402,192,129000,128,2,129375:0:0:0:0:
182,192,129375,128,8,129750:0:0:0:0:
329,192,129375,128,8,129750:0:0:0:0:
109,192,129750,128,2,130125:0:0:0:0:
402,192,129750,128,2,130125:0:0:0:0:
182,192,130125,128,8,130500:0:0:0:0:
329,192,130125,128,0,130500:0:0:0:0:
448,192,130500,1,4,0:0:0:0:
256,192,130500,128,4,131625:0:0:0:0:
36,192,130500,1,0,0:0:0:0:
109,192,130687,1,0,0:0:0:0:
402,192,130875,1,8,0:0:0:0:
109,192,131062,1,2,0:0:0:0:
402,192,131250,1,2,0:0:0:0:
109,192,131437,1,0,0:0:0:0:
448,192,131625,1,8,0:0:0:0:
36,192,131625,1,0,0:0:0:0:
