osu file format v14

[General]
AudioFilename: Quo Vadis.mp3
AudioLeadIn: 0
PreviewTime: 105000
Countdown: 0
SampleSet: Soft
StackLeniency: 0.7
Mode: 3
LetterboxInBreaks: 0
SpecialStyle: 0
WidescreenStoryboard: 0

[Editor]
Bookmarks: 134990
DistanceSpacing: 1.2
BeatDivisor: 4
GridSize: 4
TimelineZoom: 2.1

[Metadata]
Title:Quo Vadis
TitleUnicode:Quo Vadis
Artist:M2U
ArtistUnicode:M2U
Creator:JamesHappy
Version:4K SC
Source:Rhythm Master
Tags:bms hellgert z3nx ethnic house instrumental latin dance arcwinolivirus Evening
BeatmapID:908804
BeatmapSetID:227037

[Difficulty]
HPDrainRate:8.6
CircleSize:4
OverallDifficulty:8.3
ApproachRate:5
SliderMultiplier:1.4
SliderTickRate:1

[Events]
//Background and Video events
0,0,"4K SC.jpg",0,0
//Break Periods
//Storyboard Layer 0 (Background)
//Storyboard Layer 1 (Fail)
//Storyboard Layer 2 (Pass)
//Storyboard Layer 3 (Foreground)
//Storyboard Sound Samples
Sample,8624,0,"LR_Kick Low Strong Beat.wav",70
Sample,104625,0,"soft-hitclap.wav",70

[TimingPoints]
3000,375,4,2,1,20,1,0
19500,-58.8235294117647,4,2,1,35,0,0
19593,-333.333333333333,4,2,1,35,0,0
19687,-58.8235294117647,4,2,1,35,0,0
19781,-333.333333333333,4,2,1,35,0,0
19875,-58.8235294117647,4,2,1,35,0,0
19968,-333.333333333333,4,2,1,35,0,0
20062,-58.8235294117647,4,2,1,35,0,0
20156,-333.333333333333,4,2,1,35,0,0
20250,-58.8235294117647,4,2,1,35,0,0
20343,-142.857142857143,4,2,1,35,0,0
20625,-20,4,2,1,35,0,0
20671,-142.857142857143,4,2,1,35,0,0
21000,-100,4,2,1,35,0,1
44250,-58.8235294117647,4,2,1,35,0,1
44343,-333.333333333333,4,2,1,35,0,1
44437,-58.8235294117647,4,2,1,35,0,1
44531,-333.333333333333,4,2,1,35,0,1
44625,-10,4,2,1,35,0,1
44648,-142.857142857143,4,2,1,35,0,1
45000,-100,4,2,1,35,0,0
57000,-100,4,2,1,35,0,1
67500,-58.8235294117647,4,2,1,35,0,1
67593,-333.333333333333,4,2,1,35,0,1
67687,-58.8235294117647,4,2,1,35,0,1
67781,-333.333333333333,4,2,1,35,0,1
67875,-58.8235294117647,4,2,1,35,0,1
67968,-333.333333333333,4,2,1,35,0,1
68062,-58.8235294117647,4,2,1,35,0,1
68156,-333.333333333333,4,2,1,35,0,1
68250,-10,4,2,1,35,0,1
68273,-142.857142857143,4,2,1,35,0,1
68625,-10,4,2,1,35,0,1
68648,-142.857142857143,4,2,1,35,0,1
69000,-105.263157894737,4,2,1,25,0,0
75000,-100,4,2,1,35,0,0
81000,-105.263157894737,4,2,1,25,0,0
91125,-100,4,2,1,35,0,0
92250,-58.8235294117647,4,2,1,35,0,0
92343,-333.333333333333,4,2,1,35,0,0
92437,-58.8235294117647,4,2,1,35,0,0
92531,-333.333333333333,4,2,1,35,0,0
92625,-100,4,2,1,35,0,0
104625,-16.6666666666667,4,2,1,35,0,0
104671,-142.857142857143,4,2,1,35,0,0
105000,-100,4,2,1,35,0,1
130500,-58.8235294117647,4,2,1,35,0,1
130593,-333.333333333333,4,2,1,35,0,1
130687,-58.8235294117647,4,2,1,35,0,1
130781,-333.333333333333,4,2,1,35,0,1
130875,-58.8235294117647,4,2,1,35,0,1
130968,-333.333333333333,4,2,1,35,0,1
131062,-58.8235294117647,4,2,1,35,0,1
131156,-333.333333333333,4,2,1,35,0,1
131250,-16.6666666666667,4,2,1,35,0,1
131273,-142.857142857143,4,2,1,35,0,1
131625,-100,4,2,1,35,0,0

[HitObjects]
64,192,2625,5,0,0:0:0:0:
320,192,2812,1,0,0:0:0:0:
192,192,2906,1,0,0:0:0:0:
320,192,3000,1,4,0:0:0:0:
64,192,3000,1,0,0:0:0:0:
448,192,3000,1,0,0:0:0:0:
192,192,3187,1,0,0:0:0:0:
320,192,3281,1,0,0:0:0:0:
192,192,3375,1,8,0:0:0:0:
64,192,3375,1,0,0:0:0:0:
320,192,3562,1,0,0:0:0:0:
448,192,3562,128,0,3750:0:0:0:0:
64,192,3750,1,0,0:0:0:0:
320,192,3937,1,0,0:0:0:0:
192,192,3937,1,0,0:0:0:0:
192,192,4125,1,8,0:0:0:0:
64,192,4125,1,0,0:0:0:0:
448,192,4125,1,0,0:0:0:0:
320,192,4312,1,0,0:0:0:0:
448,192,4500,1,0,0:0:0:0:
64,192,4500,1,0,0:0:0:0:
192,192,4500,1,0,0:0:0:0:
192,192,4687,1,0,0:0:0:0:
320,192,4781,1,0,0:0:0:0:
448,192,4875,1,8,0:0:0:0:
64,192,4875,1,0,0:0:0:0:
448,192,5062,1,0,0:0:0:0:
320,192,5062,1,0,0:0:0:0:
448,192,5250,1,0,0:0:0:0:
64,192,5250,1,0,0:0:0:0:
192,192,5281,1,0,0:0:0:0:
320,192,5437,1,0,0:0:0:0:
64,192,5625,1,8,0:0:0:0:
448,192,5625,1,0,0:0:0:0:
320,192,5656,1,0,0:0:0:0:
192,192,5812,1,0,0:0:0:0:
320,192,6000,1,0,0:0:0:0:
64,192,6000,1,0,0:0:0:0:
448,192,6000,1,0,0:0:0:0:
448,192,6187,1,0,0:0:0:0:
320,192,6281,1,0,0:0:0:0:
192,192,6375,1,8,0:0:0:0:
64,192,6375,1,0,0:0:0:0:
320,192,6562,1,0,0:0:0:0:
448,192,6562,1,0,0:0:0:0:
64,192,6750,1,0,0:0:0:0:
448,192,6750,1,0,0:0:0:0:
192,192,6796,1,0,0:0:0:0:
320,192,6937,1,0,0:0:0:0:
448,192,7125,1,8,0:0:0:0:
64,192,7125,1,0,0:0:0:0:
192,192,7312,1,0,0:0:0:0:
64,192,7500,1,0,0:0:0:0:
448,192,7500,1,0,0:0:0:0:
320,192,7500,1,0,0:0:0:0:
192,192,7687,1,0,0:0:0:0:
320,192,7781,1,0,0:0:0:0:
448,192,7875,1,8,0:0:0:0:
64,192,7875,1,0,0:0:0:0:
192,192,7875,1,0,0:0:0:0:
448,192,8062,1,0,0:0:0:70:LR2_Snare+Hat.wav
320,192,8125,1,0,0:0:0:70:LR2_Snare+Hat.wav
192,192,8187,1,0,0:0:0:70:LR2_Snare+Hat.wav
64,192,8250,1,2,0:0:0:70:LR2_Snare+Hat.wav
448,192,8343,1,2,0:0:0:70:LR2_Snare+Hat.wav
320,192,8437,1,2,0:0:0:70:LR2_Snare+Hat.wav
192,192,8531,1,0,0:0:0:70:LR2_Snare+Hat.wav
64,192,8625,1,8,0:0:0:30:LR_Kick Low Strong Beat.wav
448,192,8625,1,0,0:0:0:0:
192,192,8812,1,0,0:0:0:0:
320,192,8906,1,0,0:0:0:0:
64,192,9000,1,4,0:0:0:0:
448,192,9000,1,2,0:0:0:0:
192,192,9000,1,0,0:0:0:0:
320,192,9187,1,0,0:0:0:0:
192,192,9281,1,0,0:0:0:0:
448,192,9375,1,8,0:0:0:0:
64,192,9375,1,0,0:0:0:0:
320,192,9375,1,0,0:0:0:0:
192,192,9562,1,0,0:0:0:0:
64,192,9750,1,2,0:0:0:0:
320,192,9750,1,0,0:0:0:0:
448,192,9750,1,0,0:0:0:0:
192,192,9937,1,0,0:0:0:0:
320,192,10125,1,8,0:0:0:0:
448,192,10125,1,0,0:0:0:0:
64,192,10125,1,0,0:0:0:0:
192,192,10312,1,0,0:0:0:0:
64,192,10500,1,2,0:0:0:0:
448,192,10500,1,0,0:0:0:0:
320,192,10500,1,0,0:0:0:0:
192,192,10687,1,0,0:0:0:0:
320,192,10781,1,0,0:0:0:0:
192,192,10875,1,8,0:0:0:0:
64,192,10875,1,0,0:0:0:0:
448,192,10875,1,0,0:0:0:0:
320,192,11062,1,0,0:0:0:0:
192,192,11250,1,2,0:0:0:0:
448,192,11250,1,0,0:0:0:0:
64,192,11250,1,0,0:0:0:0:
320,192,11437,1,0,0:0:0:0:
64,192,11625,1,8,0:0:0:0:
192,192,11625,1,0,0:0:0:0:
448,192,11625,1,0,0:0:0:0:
320,192,11812,1,0,0:0:0:0:
64,192,12000,1,6,0:0:0:0:
192,192,12000,1,4,0:0:0:0:
448,192,12000,1,0,0:0:0:0:
320,192,12000,1,0,0:0:0:0:
448,192,12187,1,0,0:0:0:0:
320,192,12281,1,0,0:0:0:0:
192,192,12375,1,8,0:0:0:0:
64,192,12375,1,0,0:0:0:0:
448,192,12375,1,0,0:0:0:0:
320,192,12562,1,0,0:0:0:0:
64,192,12750,1,2,0:0:0:0:
320,192,12750,1,0,0:0:0:0:
448,192,12750,1,0,0:0:0:0:
192,192,12937,1,0,0:0:0:0:
192,192,13125,1,8,0:0:0:0:
448,192,13125,1,0,0:0:0:0:
320,192,13125,1,0,0:0:0:0:
64,192,13312,1,0,0:0:0:0:
64,192,13500,1,2,0:0:0:0:
448,192,13500,1,0,0:0:0:0:
320,192,13500,1,0,0:0:0:0:
448,192,13687,1,0,0:0:0:0:
320,192,13781,1,0,0:0:0:0:
192,192,13875,1,8,0:0:0:0:
448,192,13875,1,0,0:0:0:0:
64,192,13875,1,0,0:0:0:0:
320,192,13968,1,0,0:0:0:0:
192,192,14062,1,0,0:0:0:0:
64,192,14062,1,0,0:0:0:70:LR2_Snare+Hat.wav
320,192,14156,1,0,0:0:0:70:LR2_Snare+Hat.wav
448,192,14250,1,2,0:0:0:0:
64,192,14250,1,0,0:0:0:70:LR2_Snare+Hat.wav
192,192,14250,1,0,0:0:0:0:
320,192,14343,1,0,0:0:0:70:LR2_Snare+Hat.wav
448,192,14437,1,2,0:0:0:70:LR2_Snare+Hat.wav
64,192,14437,1,0,0:0:0:0:
192,192,14531,1,0,0:0:0:70:LR2_Snare+Hat.wav
64,192,14625,1,0,0:0:0:0:
320,192,14625,1,0,0:0:0:0:
448,192,14625,1,0,0:0:0:0:
64,192,15000,1,4,0:0:0:0:
192,192,15000,1,2,0:0:0:0:
320,192,15000,1,0,0:0:0:0:
448,192,15000,1,0,0:0:0:0:
320,192,15187,1,0,0:0:0:0:
64,192,15375,1,8,0:0:0:0:
448,192,15375,1,0,0:0:0:0:
192,192,15468,1,0,0:0:0:0:
448,192,15562,1,2,0:0:0:0:
320,192,15562,1,0,0:0:0:0:
64,192,15656,1,0,0:0:0:0:
192,192,15750,1,6,0:0:0:0:
448,192,15750,1,0,0:0:0:0:
320,192,15750,1,0,0:0:0:0:
64,192,15750,1,0,0:0:0:0:
192,192,15937,128,0,16125:0:0:0:0:
320,192,15937,1,0,0:0:0:0:
64,192,16125,1,8,0:0:0:0:
320,192,16125,128,0,16312:0:0:0:0:
448,192,16125,1,0,0:0:0:0:
64,192,16312,1,2,0:0:0:0:
448,192,16312,1,0,0:0:0:0:
192,192,16406,1,0,0:0:0:0:
320,192,16453,1,0,0:0:0:0:
64,192,16500,128,4,16687:0:0:0:0:
192,192,16500,128,2,16687:0:0:0:0:
448,192,16500,1,0,0:0:0:0:
448,192,16687,1,0,0:0:0:0:
320,192,16781,1,0,0:0:0:0:
64,192,16875,1,12,0:0:0:0:
192,192,16875,1,8,0:0:0:0:
448,192,16875,1,0,0:0:0:0:
320,192,16968,1,0,0:0:0:0:
64,192,17062,1,0,0:0:0:0:
448,192,17062,1,0,0:0:0:0:
192,192,17156,1,0,0:0:0:0:
64,192,17250,1,6,0:0:0:0:
448,192,17250,1,4,0:0:0:0:
320,192,17250,1,0,0:0:0:0:
192,192,17343,1,0,0:0:0:0:
320,192,17437,1,0,0:0:0:0:
64,192,17437,128,0,17625:0:0:0:0:
192,192,17531,128,0,17718:0:0:0:0:
448,192,17625,1,8,0:0:0:0:
320,192,17625,128,12,17812:0:0:0:0:
64,192,17718,128,0,17812:0:0:0:0:
448,192,17812,1,2,0:0:0:0:
192,192,17812,128,0,17906:0:0:0:0:
320,192,17906,128,0,18000:0:0:0:0:
448,192,18000,1,6,0:0:0:0:
64,192,18000,1,0,0:0:0:0:
192,192,18000,1,0,0:0:0:0:
320,192,18187,1,0,0:0:0:0:
448,192,18281,1,0,0:0:0:0:
64,192,18375,1,8,0:0:0:0:
192,192,18375,1,0,0:0:0:0:
320,192,18468,1,0,0:0:0:0:
64,192,18562,1,0,0:0:0:0:
192,192,18656,1,0,0:0:0:0:
448,192,18750,1,6,0:0:0:0:
320,192,18750,1,4,0:0:0:0:
64,192,18750,1,0,0:0:0:0:
192,192,18843,1,0,0:0:0:0:
320,192,18937,1,0,0:0:0:0:
64,192,19031,1,0,0:0:0:0:
448,192,19125,1,8,0:0:0:0:
320,192,19125,1,0,0:0:0:0:
192,192,19125,1,0,0:0:0:0:
64,192,19218,1,0,0:0:0:0:
192,192,19312,1,0,0:0:0:0:
320,192,19406,1,0,0:0:0:0:
192,192,19500,128,6,19687:0:0:0:0:
448,192,19500,1,4,0:0:0:0:
64,192,19500,1,0,0:0:0:0:
64,192,19687,128,0,19875:0:0:0:0:
320,192,19687,1,0,0:0:0:0:
320,192,19875,128,0,20062:0:0:0:0:
448,192,19875,1,0,0:0:0:0:
192,192,20062,128,0,20250:0:0:0:0:
64,192,20062,1,0,0:0:0:0:
448,192,20250,128,0,20437:0:0:0:0:
320,192,20250,1,0,0:0:0:0:
64,192,20437,1,8,0:0:0:0:
192,192,20437,1,0,0:0:0:0:
64,192,20625,128,8,21000:0:0:0:0:
192,192,20625,128,0,21000:0:0:0:0:
320,192,20625,1,0,0:0:0:0:
448,192,21000,1,6,0:0:0:0:
320,192,21000,128,0,21187:0:0:0:0:
448,192,21187,128,0,21562:0:0:0:0:
64,192,21375,1,8,0:0:0:0:
320,192,21375,1,0,0:0:0:0:
192,192,21562,128,0,21750:0:0:0:0:
64,192,21750,128,2,22125:0:0:0:0:
448,192,21750,1,0,0:0:0:0:
320,192,21750,1,0,0:0:0:0:
320,192,21937,1,0,0:0:0:0:
192,192,22125,1,8,0:0:0:0:
448,192,22125,1,0,0:0:0:0:
320,192,22312,1,0,0:0:0:0:
192,192,22406,1,0,0:0:0:0:
320,192,22500,1,2,0:0:0:0:
64,192,22500,1,0,0:0:0:0:
448,192,22500,128,0,22687:0:0:0:0:
64,192,22687,128,0,22875:0:0:0:0:
192,192,22875,1,8,0:0:0:0:
448,192,22875,1,0,0:0:0:0:
320,192,22875,128,0,23062:0:0:0:0:
192,192,23062,128,0,23250:0:0:0:0:
320,192,23250,1,2,0:0:0:0:
64,192,23250,1,0,0:0:0:0:
448,192,23250,128,0,23625:0:0:0:0:
192,192,23437,1,0,0:0:0:0:
64,192,23625,1,8,0:0:0:0:
192,192,23625,1,0,0:0:0:0:
320,192,23812,1,0,0:0:0:0:
192,192,23906,1,0,0:0:0:0:
64,192,24000,1,2,0:0:0:0:
448,192,24000,1,0,0:0:0:0:
320,192,24000,128,0,24187:0:0:0:0:
192,192,24187,128,0,24375:0:0:0:0:
64,192,24375,1,8,0:0:0:0:
320,192,24375,1,0,0:0:0:0:
448,192,24375,128,0,24562:0:0:0:0:
64,192,24562,128,0,24750:0:0:0:0:
448,192,24750,1,2,0:0:0:0:
192,192,24750,1,0,0:0:0:0:
320,192,24750,128,0,24937:0:0:0:0:
192,192,24937,128,0,25125:0:0:0:0:
320,192,25125,1,8,0:0:0:0:
64,192,25125,1,0,0:0:0:0:
448,192,25125,128,0,25312:0:0:0:0:
64,192,25312,128,0,25500:0:0:0:0:
192,192,25500,1,2,0:0:0:0:
448,192,25500,1,0,0:0:0:0:
320,192,25500,128,0,25781:0:0:0:0:
64,192,25781,1,0,0:0:0:0:
192,192,25875,1,8,0:0:0:0:
448,192,25875,1,0,0:0:0:0:
64,192,25968,1,0,0:0:0:0:
320,192,26062,1,2,0:0:0:0:
448,192,26062,1,0,0:0:0:0:
64,192,26156,1,0,0:0:0:0:
192,192,26203,1,0,0:0:0:0:
320,192,26250,1,2,0:0:0:0:
448,192,26250,128,0,26625:0:0:0:0:
64,192,26625,1,8,0:0:0:0:
320,192,26625,128,0,27000:0:0:0:0:
192,192,26625,1,0,0:0:0:0:
448,192,27000,1,6,0:0:0:0:
192,192,27000,1,0,0:0:0:0:
64,192,27000,128,0,27187:0:0:0:0:
448,192,27187,128,0,27562:0:0:0:0:
320,192,27375,1,8,0:0:0:0:
64,192,27375,1,0,0:0:0:0:
192,192,27562,128,0,27750:0:0:0:0:
64,192,27750,1,2,0:0:0:0:
448,192,27750,1,0,0:0:0:0:
320,192,27750,128,0,28125:0:0:0:0:
192,192,27937,1,0,0:0:0:0:
192,192,28125,1,8,0:0:0:0:
64,192,28125,1,0,0:0:0:0:
448,192,28125,1,0,0:0:0:0:
320,192,28312,1,0,0:0:0:0:
192,192,28406,1,0,0:0:0:0:
448,192,28500,1,2,0:0:0:0:
320,192,28500,1,0,0:0:0:0:
64,192,28500,128,0,28687:0:0:0:0:
448,192,28687,128,0,28875:0:0:0:0:
320,192,28875,1,8,0:0:0:0:
64,192,28875,1,0,0:0:0:0:
192,192,28875,128,0,29062:0:0:0:0:
320,192,29062,128,0,29250:0:0:0:0:
192,192,29250,1,2,0:0:0:0:
64,192,29250,1,0,0:0:0:0:
448,192,29250,128,0,29625:0:0:0:0:
320,192,29437,1,0,0:0:0:0:
192,192,29625,1,8,0:0:0:0:
320,192,29625,1,0,0:0:0:0:
64,192,29625,128,0,29812:0:0:0:0:
448,192,29812,1,0,0:0:0:0:
320,192,29906,1,0,0:0:0:0:
448,192,30000,1,2,0:0:0:0:
64,192,30000,1,0,0:0:0:0:
192,192,30000,128,0,30187:0:0:0:0:
448,192,30187,128,0,30562:0:0:0:0:
64,192,30375,1,8,0:0:0:0:
320,192,30375,1,0,0:0:0:0:
192,192,30562,1,0,0:0:0:0:
448,192,30750,1,2,0:0:0:0:
64,192,30750,128,0,30937:0:0:0:0:
192,192,30750,1,0,0:0:0:0:
320,192,30937,128,0,31125:0:0:0:0:
192,192,31125,1,8,0:0:0:0:
448,192,31125,1,0,0:0:0:0:
64,192,31125,128,0,31312:0:0:0:0:
320,192,31312,128,0,31500:0:0:0:0:
64,192,31500,1,2,0:0:0:0:
192,192,31500,1,0,0:0:0:0:
448,192,31500,128,0,32062:0:0:0:0:
64,192,31687,1,2,0:0:0:0:
192,192,31687,1,0,0:0:0:0:
192,192,32062,1,2,0:0:0:0:
64,192,32062,1,0,0:0:0:0:
320,192,32156,1,0,0:0:0:0:
192,192,32250,1,2,0:0:0:0:
64,192,32250,1,0,0:0:0:0:
448,192,32250,1,0,0:0:0:0:
64,192,32437,1,0,0:0:0:0:
192,192,32531,1,0,0:0:0:0:
64,192,32625,128,8,33000:0:0:0:0:
320,192,32625,1,0,0:0:0:0:
448,192,32625,1,0,0:0:0:0:
192,192,33000,1,6,0:0:0:0:
448,192,33000,128,0,33187:0:0:0:0:
320,192,33000,1,0,0:0:0:0:
192,192,33187,128,0,33562:0:0:0:0:
64,192,33375,1,8,0:0:0:0:
448,192,33375,1,0,0:0:0:0:
320,192,33562,128,0,33750:0:0:0:0:
448,192,33750,1,2,0:0:0:0:
64,192,33750,128,0,34125:0:0:0:0:
192,192,33750,1,0,0:0:0:0:
320,192,33937,1,0,0:0:0:0:
448,192,34125,1,8,0:0:0:0:
320,192,34125,1,0,0:0:0:0:
192,192,34125,1,0,0:0:0:0:
192,192,34312,1,0,0:0:0:0:
320,192,34406,1,0,0:0:0:0:
64,192,34500,1,2,0:0:0:0:
448,192,34500,1,0,0:0:0:0:
192,192,34500,128,0,34687:0:0:0:0:
64,192,34687,128,0,34875:0:0:0:0:
320,192,34875,128,8,35062:0:0:0:0:
448,192,34875,1,0,0:0:0:0:
192,192,34875,1,0,0:0:0:0:
192,192,35062,128,0,35250:0:0:0:0:
64,192,35250,1,2,0:0:0:0:
448,192,35250,128,0,35625:0:0:0:0:
320,192,35250,1,0,0:0:0:0:
64,192,35437,1,0,0:0:0:0:
320,192,35625,1,8,0:0:0:0:
64,192,35625,1,0,0:0:0:0:
192,192,35812,1,0,0:0:0:0:
320,192,35906,1,0,0:0:0:0:
192,192,36000,1,2,0:0:0:0:
64,192,36000,128,0,36187:0:0:0:0:
448,192,36000,1,0,0:0:0:0:
192,192,36187,128,0,36375:0:0:0:0:
448,192,36375,1,8,0:0:0:0:
320,192,36375,128,0,36562:0:0:0:0:
192,192,36562,1,0,0:0:0:0:
448,192,36750,1,2,0:0:0:0:
320,192,36750,1,0,0:0:0:0:
64,192,36750,128,0,36937:0:0:0:0:
192,192,36937,128,0,37125:0:0:0:0:
320,192,37125,1,8,0:0:0:0:
64,192,37125,1,0,0:0:0:0:
448,192,37312,128,0,37500:0:0:0:0:
192,192,37500,1,2,0:0:0:0:
320,192,37500,1,0,0:0:0:0:
64,192,37500,128,0,37687:0:0:0:0:
448,192,37687,1,0,0:0:0:0:
320,192,37781,1,0,0:0:0:0:
448,192,37875,1,8,0:0:0:0:
64,192,37875,1,0,0:0:0:0:
192,192,37875,1,0,0:0:0:0:
320,192,37968,1,0,0:0:0:0:
192,192,38062,1,2,0:0:0:0:
64,192,38062,1,0,0:0:0:0:
448,192,38062,1,0,0:0:0:0:
320,192,38156,1,0,0:0:0:0:
64,192,38250,1,2,0:0:0:0:
448,192,38250,1,0,0:0:0:0:
192,192,38250,128,0,38625:0:0:0:0:
320,192,38625,1,8,0:0:0:0:
448,192,38625,1,0,0:0:0:0:
64,192,38625,128,0,39000:0:0:0:0:
448,192,39000,1,4,0:0:0:0:
192,192,39000,1,2,0:0:0:0:
320,192,39000,128,0,39187:0:0:0:0:
192,192,39187,128,0,39562:0:0:0:0:
64,192,39375,1,8,0:0:0:0:
320,192,39375,1,0,0:0:0:0:
448,192,39562,128,0,39750:0:0:0:0:
192,192,39750,1,2,0:0:0:0:
320,192,39750,1,0,0:0:0:0:
64,192,39750,128,0,40125:0:0:0:0:
448,192,39937,1,0,0:0:0:0:
320,192,40125,1,8,0:0:0:0:
448,192,40125,1,0,0:0:0:0:
192,192,40312,1,0,0:0:0:0:
320,192,40406,1,0,0:0:0:0:
64,192,40500,1,2,0:0:0:0:
192,192,40500,128,0,40687:0:0:0:0:
448,192,40500,1,0,0:0:0:0:
320,192,40687,128,0,40875:0:0:0:0:
448,192,40875,1,8,0:0:0:0:
64,192,40875,1,0,0:0:0:0:
192,192,40875,128,0,41062:0:0:0:0:
320,192,41062,128,0,41250:0:0:0:0:
64,192,41250,1,2,0:0:0:0:
448,192,41250,1,0,0:0:0:0:
192,192,41250,128,0,41625:0:0:0:0:
448,192,41437,1,0,0:0:0:0:
64,192,41625,1,8,0:0:0:0:
448,192,41625,1,0,0:0:0:0:
64,192,41812,1,0,0:0:0:0:
192,192,41906,1,0,0:0:0:0:
320,192,42000,1,2,0:0:0:0:
64,192,42000,1,0,0:0:0:0:
448,192,42000,128,0,42187:0:0:0:0:
320,192,42187,128,0,42375:0:0:0:0:
192,192,42375,1,8,0:0:0:0:
448,192,42375,1,0,0:0:0:0:
64,192,42375,128,0,42562:0:0:0:0:
320,192,42562,128,0,42750:0:0:0:0:
64,192,42750,1,2,0:0:0:0:
448,192,42750,1,0,0:0:0:0:
192,192,42750,128,0,42937:0:0:0:0:
448,192,42937,128,0,43125:0:0:0:0:
64,192,43125,1,8,0:0:0:0:
192,192,43125,1,0,0:0:0:0:
320,192,43125,128,0,43312:0:0:0:0:
192,192,43312,128,0,43500:0:0:0:0:
320,192,43500,1,6,0:0:0:0:
64,192,43500,128,4,43687:0:0:0:0:
448,192,43500,1,0,0:0:0:0:
192,192,43687,1,0,0:0:0:0:
192,192,43875,1,8,0:0:0:0:
448,192,43875,1,0,0:0:0:0:
320,192,43875,1,0,0:0:0:0:
448,192,44062,1,2,0:0:0:0:
64,192,44062,1,0,0:0:0:50:LR2_Snare+Hat.wav
192,192,44125,1,0,0:0:0:50:LR2_Snare+Hat.wav
320,192,44187,1,0,0:0:0:50:LR2_Snare+Hat.wav
192,192,44250,1,2,0:0:0:0:
64,192,44250,1,0,0:0:0:0:
448,192,44250,1,0,0:0:0:50:LR2_Snare+Hat.wav
64,192,44437,1,0,0:0:0:0:
192,192,44437,1,0,0:0:0:0:
320,192,44437,1,0,0:0:0:0:
448,192,44625,128,0,45000:0:0:0:30:LR_Kick Low Strong Beat.wav
320,192,44625,1,0,0:0:0:0:
192,192,44625,1,0,0:0:0:0:
192,192,45000,1,6,0:0:0:0:
64,192,45000,1,0,0:0:0:0:
320,192,45000,1,0,0:0:0:0:
448,192,45187,1,0,0:0:0:0:
320,192,45375,1,8,0:0:0:0:
64,192,45375,1,0,0:0:0:0:
192,192,45375,1,0,0:0:0:0:
192,192,45562,1,0,0:0:0:0:
448,192,45687,1,0,0:0:0:0:
320,192,45718,1,0,0:0:0:0:
192,192,45750,1,2,0:0:0:0:
64,192,45750,1,0,0:0:0:0:
448,192,45937,1,0,0:0:0:0:
192,192,45937,128,0,46125:0:0:0:0:
448,192,46125,1,8,0:0:0:0:
320,192,46125,1,0,0:0:0:0:
64,192,46125,1,0,0:0:0:0:
64,192,46312,1,0,0:0:0:0:
192,192,46406,1,0,0:0:0:0:
320,192,46500,1,2,0:0:0:0:
448,192,46500,1,0,0:0:0:0:
64,192,46687,1,0,0:0:0:0:
192,192,46781,1,0,0:0:0:0:
64,192,46875,1,8,0:0:0:0:
448,192,46875,1,0,0:0:0:0:
320,192,46968,1,0,0:0:0:0:
192,192,47062,1,0,0:0:0:0:
320,192,47156,1,0,0:0:0:0:
448,192,47187,1,0,0:0:0:0:
64,192,47218,1,2,0:0:0:0:
320,192,47250,1,0,0:0:0:0:
192,192,47250,1,0,0:0:0:0:
320,192,47437,1,0,0:0:0:0:
192,192,47531,1,0,0:0:0:0:
320,192,47625,1,8,0:0:0:0:
448,192,47625,1,0,0:0:0:0:
64,192,47625,1,0,0:0:0:0:
192,192,47718,1,0,0:0:0:0:
320,192,47812,1,0,0:0:0:0:
192,192,47906,1,0,0:0:0:0:
448,192,48000,128,2,48187:0:0:0:0:
320,192,48000,1,0,0:0:0:0:
64,192,48000,1,0,0:0:0:0:
192,192,48187,1,0,0:0:0:0:
320,192,48375,1,8,0:0:0:0:
64,192,48375,1,0,0:0:0:0:
448,192,48468,1,0,0:0:0:0:
192,192,48562,1,0,0:0:0:0:
320,192,48656,1,0,0:0:0:0:
192,192,48750,1,2,0:0:0:0:
64,192,48750,128,0,48937:0:0:0:0:
448,192,48750,1,0,0:0:0:0:
320,192,48937,1,0,0:0:0:0:
192,192,49031,1,0,0:0:0:0:
320,192,49125,1,8,0:0:0:0:
64,192,49125,1,0,0:0:0:0:
448,192,49125,1,0,0:0:0:0:
192,192,49218,1,0,0:0:0:0:
64,192,49312,1,0,0:0:0:0:
320,192,49406,1,0,0:0:0:0:
64,192,49500,1,2,0:0:0:0:
448,192,49500,128,0,49687:0:0:0:0:
192,192,49500,1,0,0:0:0:0:
320,192,49687,1,0,0:0:0:0:
448,192,49875,1,8,0:0:0:0:
64,192,49875,1,0,0:0:0:0:
320,192,49875,1,0,0:0:0:0:
192,192,49968,1,0,0:0:0:0:
448,192,50062,1,2,0:0:0:0:
320,192,50062,1,2,0:0:0:0:
192,192,50156,1,0,0:0:0:0:
320,192,50250,1,2,0:0:0:0:
448,192,50250,128,0,50437:0:0:0:0:
64,192,50250,1,0,0:0:0:0:
320,192,50437,1,0,0:0:0:0:
192,192,50531,1,0,0:0:0:0:
320,192,50578,1,0,0:0:0:0:
448,192,50625,128,8,50812:0:0:0:0:
64,192,50625,1,0,0:0:0:0:
192,192,50812,1,0,0:0:0:0:
320,192,50906,1,0,0:0:0:0:
448,192,51000,1,6,0:0:0:0:
64,192,51000,128,4,51187:0:0:0:0:
192,192,51000,1,0,0:0:0:0:
320,192,51187,1,0,0:0:0:0:
192,192,51375,1,8,0:0:0:0:
448,192,51375,1,0,0:0:0:0:
64,192,51375,1,0,0:0:0:0:
320,192,51468,1,0,0:0:0:0:
192,192,51562,1,0,0:0:0:0:
64,192,51656,1,0,0:0:0:0:
192,192,51703,1,0,0:0:0:0:
448,192,51750,128,2,51937:0:0:0:0:
320,192,51750,1,0,0:0:0:0:
64,192,51750,1,0,0:0:0:0:
192,192,51937,1,0,0:0:0:0:
192,192,52125,1,8,0:0:0:0:
448,192,52125,1,0,0:0:0:0:
64,192,52125,1,0,0:0:0:0:
320,192,52312,1,0,0:0:0:0:
192,192,52406,1,0,0:0:0:0:
320,192,52500,128,2,52687:0:0:0:0:
448,192,52500,1,0,0:0:0:0:
64,192,52500,1,0,0:0:0:0:
64,192,52687,1,0,0:0:0:0:
192,192,52781,1,0,0:0:0:0:
448,192,52875,1,8,0:0:0:0:
320,192,52875,1,0,0:0:0:0:
64,192,52875,1,0,0:0:0:0:
192,192,52968,1,0,0:0:0:0:
320,192,53062,1,0,0:0:0:0:
192,192,53156,1,0,0:0:0:0:
448,192,53203,1,0,0:0:0:0:
320,192,53250,1,2,0:0:0:0:
64,192,53250,128,0,53437:0:0:0:0:
192,192,53250,1,0,0:0:0:0:
448,192,53437,1,0,0:0:0:0:
320,192,53531,1,0,0:0:0:0:
448,192,53625,1,8,0:0:0:0:
192,192,53625,1,0,0:0:0:0:
64,192,53625,1,0,0:0:0:0:
320,192,53718,1,0,0:0:0:0:
64,192,53812,1,0,0:0:0:0:
192,192,53906,1,0,0:0:0:0:
448,192,54000,1,2,0:0:0:0:
320,192,54000,128,0,54187:0:0:0:0:
64,192,54000,1,0,0:0:0:0:
448,192,54187,1,0,0:0:0:0:
192,192,54281,1,0,0:0:0:0:
320,192,54375,1,8,0:0:0:0:
448,192,54375,1,0,0:0:0:0:
64,192,54375,1,0,0:0:0:0:
192,192,54468,1,0,0:0:0:0:
448,192,54562,1,0,0:0:0:0:
320,192,54562,1,0,0:0:0:0:
64,192,54656,1,0,0:0:0:0:
448,192,54750,1,2,0:0:0:0:
192,192,54750,1,0,0:0:0:0:
320,192,54843,1,0,0:0:0:0:
64,192,54937,1,0,0:0:0:0:
448,192,55031,1,0,0:0:0:0:
320,192,55078,1,0,0:0:0:0:
192,192,55125,1,8,0:0:0:0:
64,192,55125,1,0,0:0:0:0:
320,192,55218,1,0,0:0:0:0:
64,192,55312,1,0,0:0:0:0:
448,192,55312,1,0,0:0:0:0:
192,192,55406,1,0,0:0:0:0:
64,192,55500,128,6,55875:0:0:0:0:
320,192,55500,1,4,0:0:0:0:
448,192,55500,1,0,0:0:0:0:
192,192,55687,1,0,0:0:0:0:
448,192,55781,1,0,0:0:0:0:
320,192,55828,1,0,0:0:0:0:
192,192,55875,1,8,0:0:0:0:
448,192,55875,1,0,0:0:0:0:
320,192,55968,1,0,0:0:0:0:
192,192,56062,1,2,0:0:0:0:
64,192,56062,1,2,0:0:0:0:
320,192,56156,1,0,0:0:0:0:
192,192,56250,1,2,0:0:0:0:
448,192,56250,1,0,0:0:0:0:
64,192,56250,128,0,56906:0:0:0:0:
320,192,56437,1,0,0:0:0:0:
448,192,56531,1,0,0:0:0:0:
320,192,56625,1,8,0:0:0:0:
192,192,56625,128,0,56906:0:0:0:0:
448,192,56812,1,0,0:0:0:0:
448,192,57000,1,6,0:0:0:0:
320,192,57000,1,0,0:0:0:0:
64,192,57000,1,0,0:0:0:0:
192,192,57000,1,0,0:0:0:0:
192,192,57187,1,0,0:0:0:0:
320,192,57187,1,0,0:0:0:0:
320,192,57375,1,8,0:0:0:0:
448,192,57375,1,0,0:0:0:0:
64,192,57375,1,0,0:0:0:0:
192,192,57562,1,0,0:0:0:0:
64,192,57562,1,0,0:0:0:0:
320,192,57750,1,2,0:0:0:0:
64,192,57750,1,0,0:0:0:0:
448,192,57750,1,0,0:0:0:0:
192,192,57843,1,0,0:0:0:0:
320,192,57937,128,0,58312:0:0:0:0:
192,192,58125,1,8,0:0:0:0:
64,192,58125,1,0,0:0:0:0:
448,192,58125,1,0,0:0:0:0:
64,192,58312,1,0,0:0:0:0:
192,192,58406,1,0,0:0:0:0:
64,192,58500,1,2,0:0:0:0:
448,192,58500,1,0,0:0:0:0:
320,192,58500,1,0,0:0:0:0:
192,192,58687,1,0,0:0:0:0:
320,192,58687,1,0,0:0:0:0:
64,192,58875,1,8,0:0:0:0:
448,192,58875,1,0,0:0:0:0:
192,192,58875,1,0,0:0:0:0:
192,192,59062,1,0,0:0:0:0:
320,192,59062,1,0,0:0:0:0:
192,192,59250,1,2,0:0:0:0:
64,192,59250,1,0,0:0:0:0:
448,192,59250,1,0,0:0:0:0:
320,192,59343,1,0,0:0:0:0:
448,192,59437,128,0,59812:0:0:0:0:
64,192,59625,1,8,0:0:0:0:
320,192,59625,1,0,0:0:0:0:
320,192,59812,1,0,0:0:0:0:
192,192,59906,1,0,0:0:0:0:
448,192,60000,1,2,0:0:0:0:
64,192,60000,1,0,0:0:0:0:
320,192,60000,1,0,0:0:0:0:
448,192,60187,1,0,0:0:0:0:
192,192,60187,1,0,0:0:0:0:
64,192,60375,1,8,0:0:0:0:
192,192,60375,1,0,0:0:0:0:
320,192,60375,1,0,0:0:0:0:
64,192,60562,1,0,0:0:0:0:
192,192,60609,1,0,0:0:0:0:
448,192,60656,1,0,0:0:0:0:
320,192,60703,1,0,0:0:0:0:
64,192,60750,128,2,60937:0:0:0:0:
192,192,60750,1,0,0:0:0:0:
320,192,60937,1,0,0:0:0:0:
448,192,60937,128,0,61125:0:0:0:0:
192,192,61125,128,8,61312:0:0:0:0:
320,192,61125,1,0,0:0:0:0:
64,192,61125,1,0,0:0:0:0:
320,192,61312,128,0,61500:0:0:0:0:
64,192,61312,1,0,0:0:0:0:
448,192,61500,128,2,62250:0:0:0:0:
64,192,61500,1,0,0:0:0:0:
192,192,61500,1,0,0:0:0:0:
64,192,61875,1,8,0:0:0:0:
320,192,61875,1,0,0:0:0:0:
64,192,62062,1,2,0:0:0:0:
320,192,62062,1,0,0:0:0:0:
192,192,62250,1,2,0:0:0:0:
64,192,62250,1,0,0:0:0:0:
320,192,62343,1,0,0:0:0:0:
448,192,62343,1,0,0:0:0:0:
192,192,62437,1,0,0:0:0:0:
64,192,62437,1,0,0:0:0:0:
448,192,62531,1,0,0:0:0:0:
320,192,62625,1,8,0:0:0:0:
64,192,62625,1,0,0:0:0:0:
192,192,62625,128,0,63000:0:0:0:0:
448,192,62812,1,0,0:0:0:0:
64,192,63000,1,6,0:0:0:0:
320,192,63000,1,0,0:0:0:0:
448,192,63000,1,0,0:0:0:0:
192,192,63187,1,0,0:0:0:0:
320,192,63187,1,0,0:0:0:0:
320,192,63375,1,8,0:0:0:0:
448,192,63375,1,0,0:0:0:0:
64,192,63375,1,0,0:0:0:0:
192,192,63562,1,0,0:0:0:0:
64,192,63562,1,0,0:0:0:0:
320,192,63750,1,2,0:0:0:0:
64,192,63750,1,0,0:0:0:0:
448,192,63750,1,0,0:0:0:0:
192,192,63843,1,0,0:0:0:0:
320,192,63937,128,0,64312:0:0:0:0:
192,192,64125,1,8,0:0:0:0:
64,192,64125,1,0,0:0:0:0:
448,192,64125,1,0,0:0:0:0:
64,192,64312,1,0,0:0:0:0:
192,192,64406,1,0,0:0:0:0:
64,192,64500,1,0,0:0:0:0:
448,192,64500,1,0,0:0:0:0:
320,192,64500,1,2,0:0:0:0:
320,192,64687,1,0,0:0:0:0:
192,192,64687,1,0,0:0:0:0:
192,192,64875,1,8,0:0:0:0:
448,192,64875,1,0,0:0:0:0:
64,192,64875,1,0,0:0:0:0:
320,192,65062,1,0,0:0:0:0:
64,192,65062,1,0,0:0:0:0:
448,192,65250,1,2,0:0:0:0:
192,192,65250,1,0,0:0:0:0:
64,192,65250,1,0,0:0:0:0:
320,192,65343,1,0,0:0:0:0:
448,192,65437,128,0,65812:0:0:0:0:
320,192,65625,1,8,0:0:0:0:
64,192,65625,1,0,0:0:0:0:
192,192,65625,1,0,0:0:0:0:
192,192,65812,1,0,0:0:0:0:
320,192,65906,1,0,0:0:0:0:
64,192,66000,1,2,0:0:0:0:
192,192,66000,1,0,0:0:0:0:
448,192,66000,128,0,66187:0:0:0:0:
192,192,66187,1,0,0:0:0:0:
320,192,66187,128,0,66375:0:0:0:0:
64,192,66375,1,8,0:0:0:0:
192,192,66375,1,0,0:0:0:0:
448,192,66375,1,0,0:0:0:0:
64,192,66562,1,0,0:0:0:0:
192,192,66609,1,0,0:0:0:0:
448,192,66656,1,0,0:0:0:0:
320,192,66703,1,0,0:0:0:0:
448,192,66750,128,2,66937:0:0:0:0:
64,192,66750,128,0,66937:0:0:0:0:
192,192,66750,1,0,0:0:0:0:
320,192,66937,128,0,67125:0:0:0:0:
192,192,66937,1,0,0:0:0:0:
448,192,67125,128,8,67312:0:0:0:0:
64,192,67125,128,0,67312:0:0:0:0:
192,192,67125,1,0,0:0:0:0:
192,192,67312,128,0,67500:0:0:0:0:
320,192,67312,1,0,0:0:0:0:
448,192,67500,128,2,68250:0:0:0:0:
320,192,67500,1,0,0:0:0:0:
64,192,67500,1,0,0:0:0:0:
192,192,67687,128,0,67875:0:0:0:0:
64,192,67687,1,0,0:0:0:0:
64,192,67875,128,8,68062:0:0:0:0:
320,192,67875,1,0,0:0:0:0:
320,192,68062,128,2,68250:0:0:0:0:
192,192,68062,1,0,0:0:0:0:
64,192,68250,1,2,0:0:0:0:
192,192,68250,1,0,0:0:0:0:
192,192,68625,1,8,0:0:0:0:
320,192,68625,1,0,0:0:0:0:
64,192,68625,1,0,0:0:0:0:
448,192,68625,1,0,0:0:0:0:
320,192,69000,1,6,0:0:0:0:
64,192,69000,128,4,69375:0:0:0:0:
448,192,69000,1,0,0:0:0:0:
192,192,69000,1,0,0:0:0:0:
192,192,69375,1,8,1:0:0:0:
448,192,69375,128,0,69750:0:0:0:0:
64,192,69562,128,0,69750:0:0:0:0:
320,192,69750,128,0,70125:0:0:0:0:
192,192,69750,1,0,0:0:0:0:
192,192,69937,128,0,70125:0:0:0:0:
64,192,70125,1,8,1:0:0:0:
448,192,70125,128,0,70500:0:0:0:0:
320,192,70312,128,0,70500:0:0:0:0:
64,192,70500,1,0,0:0:0:0:
192,192,70500,1,0,0:0:0:0:
320,192,70687,1,0,0:0:0:0:
192,192,70781,1,0,0:0:0:0:
448,192,70875,1,8,1:0:0:0:
64,192,70875,128,0,71250:0:0:0:0:
192,192,71062,128,0,71250:0:0:0:0:
320,192,71250,128,0,71625:0:0:0:0:
448,192,71250,1,0,0:0:0:0:
448,192,71437,128,0,71625:0:0:0:0:
64,192,71625,128,8,72000:1:0:0:0:
192,192,71625,1,0,0:0:0:0:
192,192,71812,128,0,72000:0:0:0:0:
320,192,72000,1,0,0:0:0:0:
448,192,72000,1,0,0:0:0:0:
320,192,72187,1,0,0:0:0:0:
192,192,72281,1,0,0:0:0:0:
320,192,72375,1,8,1:0:0:0:
64,192,72375,128,0,72750:0:0:0:0:
448,192,72562,128,0,72750:0:0:0:0:
192,192,72750,128,0,73125:0:0:0:0:
320,192,72750,1,0,0:0:0:0:
320,192,72937,128,0,73125:0:0:0:0:
448,192,73125,1,8,1:0:0:0:
64,192,73125,128,0,73500:0:0:0:0:
192,192,73312,128,0,73500:0:0:0:0:
320,192,73500,1,0,0:0:0:0:
448,192,73500,128,0,73687:0:0:0:0:
192,192,73687,1,0,0:0:0:0:
320,192,73781,1,0,0:0:0:0:
64,192,73875,1,8,1:0:0:0:
448,192,73875,1,0,0:0:0:0:
192,192,73875,1,0,0:0:0:0:
64,192,74062,1,0,0:0:0:70:LR2_Snare+Hat.wav
192,192,74125,1,0,0:0:0:70:LR2_Snare+Hat.wav
320,192,74187,1,0,0:0:0:70:LR2_Snare+Hat.wav
448,192,74250,1,0,0:0:0:70:LR2_Snare+Hat.wav
64,192,74343,1,0,0:0:0:70:LR2_Snare+Hat.wav
192,192,74437,1,0,0:0:0:70:LR2_Snare+Hat.wav
320,192,74531,1,0,0:0:0:70:LR2_Snare+Hat.wav
448,192,74625,1,0,0:0:0:0:
192,192,74625,1,0,0:0:0:70:LR_Kick Low Strong Beat.wav
64,192,74625,128,0,75000:0:0:0:0:
448,192,74812,1,0,0:0:0:0:
320,192,74906,1,0,0:0:0:0:
192,192,75000,1,6,0:0:0:0:
448,192,75000,1,4,0:0:0:0:
320,192,75187,1,0,0:0:0:0:
192,192,75281,1,0,0:0:0:0:
320,192,75375,1,8,0:0:0:0:
448,192,75375,1,0,0:0:0:0:
64,192,75375,1,0,0:0:0:0:
320,192,75562,1,0,0:0:0:0:
64,192,75562,1,0,0:0:0:0:
448,192,75750,1,2,0:0:0:0:
192,192,75750,1,0,0:0:0:0:
64,192,75750,1,0,0:0:0:0:
448,192,75937,1,0,0:0:0:0:
192,192,75937,1,0,0:0:0:0:
320,192,76031,1,0,0:0:0:0:
64,192,76125,1,8,0:0:0:0:
448,192,76125,1,0,0:0:0:0:
192,192,76125,1,0,0:0:0:0:
64,192,76312,1,0,0:0:0:0:
320,192,76312,1,0,0:0:0:0:
192,192,76406,1,0,0:0:0:0:
448,192,76500,1,2,0:0:0:0:
64,192,76500,1,0,0:0:0:0:
320,192,76500,1,0,0:0:0:0:
320,192,76687,1,0,0:0:0:0:
192,192,76687,1,0,0:0:0:0:
448,192,76781,1,0,0:0:0:0:
64,192,76875,1,8,0:0:0:0:
192,192,76875,1,0,0:0:0:0:
320,192,76875,1,0,0:0:0:0:
64,192,77062,1,0,0:0:0:0:
192,192,77156,1,0,0:0:0:0:
320,192,77250,1,2,0:0:0:0:
64,192,77250,1,0,0:0:0:0:
448,192,77250,1,0,0:0:0:0:
448,192,77437,1,0,0:0:0:0:
320,192,77531,1,0,0:0:0:0:
192,192,77625,1,8,0:0:0:0:
448,192,77625,1,0,0:0:0:0:
64,192,77625,1,0,0:0:0:0:
192,192,77812,1,0,0:0:0:0:
448,192,77812,1,0,0:0:0:0:
64,192,78000,1,6,0:0:0:0:
320,192,78000,1,0,0:0:0:0:
192,192,78000,1,0,0:0:0:0:
448,192,78000,1,4,0:0:0:0:
192,192,78187,1,0,0:0:0:0:
320,192,78281,1,0,0:0:0:0:
192,192,78375,1,8,0:0:0:0:
448,192,78375,1,0,0:0:0:0:
64,192,78375,1,0,0:0:0:0:
320,192,78562,1,0,0:0:0:0:
64,192,78562,1,0,0:0:0:0:
64,192,78750,1,6,0:0:0:0:
448,192,78750,1,4,0:0:0:0:
320,192,78750,1,0,0:0:0:0:
192,192,78750,1,0,0:0:0:0:
192,192,78937,1,0,0:0:0:0:
448,192,78937,1,0,0:0:0:0:
320,192,79031,1,0,0:0:0:0:
64,192,79125,1,8,0:0:0:0:
448,192,79125,1,0,0:0:0:0:
192,192,79125,1,0,0:0:0:0:
320,192,79312,1,0,0:0:0:0:
64,192,79312,1,0,0:0:0:0:
64,192,79500,1,6,0:0:0:0:
448,192,79500,1,4,0:0:0:0:
192,192,79500,1,0,0:0:0:0:
320,192,79500,1,0,0:0:0:0:
448,192,79687,1,0,0:0:0:0:
320,192,79781,1,0,0:0:0:0:
448,192,79875,1,8,0:0:0:0:
64,192,79875,1,0,0:0:0:0:
192,192,79875,1,0,0:0:0:0:
320,192,79968,1,0,0:0:0:0:
64,192,80062,1,0,0:0:0:0:
192,192,80156,1,0,0:0:0:0:
64,192,80250,1,2,0:0:0:0:
448,192,80250,1,0,0:0:0:0:
320,192,80250,1,0,0:0:0:0:
192,192,80343,1,0,0:0:0:0:
448,192,80437,1,2,0:0:0:0:
192,192,80531,1,0,0:0:0:0:
64,192,80625,128,8,81000:0:0:0:0:
320,192,80625,1,0,0:0:0:0:
448,192,80625,1,0,0:0:0:0:
192,192,81000,1,4,0:0:0:0:
320,192,81000,1,0,0:0:0:0:
448,192,81000,1,0,0:0:0:0:
320,192,81187,1,0,0:0:0:0:
64,192,81375,1,2,3:0:0:0:
448,192,81375,1,0,0:0:0:0:
448,192,81656,1,0,0:0:0:0:
64,192,81656,1,0,0:0:0:0:
448,192,81750,1,0,0:0:0:0:
64,192,81750,1,0,0:0:0:0:
192,192,81937,1,0,0:0:0:0:
64,192,82125,1,2,3:0:0:0:
320,192,82125,1,0,0:0:0:0:
192,192,82312,1,0,0:0:0:0:
448,192,82500,1,0,0:0:0:0:
64,192,82500,1,0,0:0:0:0:
192,192,82687,1,0,0:0:0:0:
320,192,82781,1,0,0:0:0:0:
64,192,82875,1,2,3:0:0:0:
448,192,82875,1,0,0:0:0:0:
320,192,83062,1,0,0:0:0:0:
448,192,83250,1,0,0:0:0:0:
64,192,83250,1,0,0:0:0:0:
192,192,83437,1,0,0:0:0:0:
64,192,83625,1,2,3:0:0:0:
448,192,83625,1,0,0:0:0:0:
320,192,84000,1,0,0:0:0:0:
192,192,84000,1,0,0:0:0:0:
448,192,84187,1,0,0:0:0:0:
192,192,84375,1,2,3:0:0:0:
320,192,84375,1,0,0:0:0:0:
192,192,84656,1,0,0:0:0:0:
448,192,84656,1,0,0:0:0:0:
192,192,84750,1,0,0:0:0:0:
320,192,84750,1,0,0:0:0:0:
64,192,84937,1,0,0:0:0:0:
448,192,85125,1,2,3:0:0:0:
192,192,85125,1,0,0:0:0:0:
320,192,85312,1,0,0:0:0:0:
192,192,85500,1,0,0:0:0:0:
64,192,85500,1,0,0:0:0:0:
448,192,85687,1,0,0:0:0:0:
320,192,85781,1,0,0:0:0:0:
192,192,85875,1,8,0:0:0:0:
448,192,85875,1,0,0:0:0:0:
64,192,85875,1,0,0:0:0:0:
64,192,86062,1,0,0:0:0:70:LR2_Snare+Hat.wav
192,192,86125,1,0,0:0:0:70:LR2_Snare+Hat.wav
320,192,86187,1,0,0:0:0:70:LR2_Snare+Hat.wav
448,192,86250,1,0,0:0:0:70:LR2_Snare+Hat.wav
64,192,86343,1,0,0:0:0:70:LR2_Snare+Hat.wav
192,192,86437,1,0,0:0:0:70:LR2_Snare+Hat.wav
320,192,86531,1,0,0:0:0:70:LR2_Snare+Hat.wav
64,192,86625,1,0,0:0:0:30:LR_Kick Low Strong Beat.wav
192,192,86625,1,0,0:0:0:0:
448,192,86718,1,0,0:0:0:0:
320,192,86812,1,0,0:0:0:0:
192,192,86906,1,0,0:0:0:0:
64,192,87000,1,4,0:0:0:0:
448,192,87000,1,0,0:0:0:0:
320,192,87093,1,0,0:0:0:0:
192,192,87187,1,0,0:0:0:0:
320,192,87281,1,0,0:0:0:0:
448,192,87375,1,2,3:0:0:0:
64,192,87375,1,0,0:0:0:0:
192,192,87468,1,0,0:0:0:0:
320,192,87562,1,0,0:0:0:0:
192,192,87656,1,0,0:0:0:0:
448,192,87750,1,0,0:0:0:0:
64,192,87750,1,0,0:0:0:0:
320,192,87843,1,0,0:0:0:0:
192,192,87937,1,0,0:0:0:0:
320,192,88031,1,0,0:0:0:0:
64,192,88125,1,2,3:0:0:0:
448,192,88125,1,0,0:0:0:0:
192,192,88218,1,0,0:0:0:0:
320,192,88312,1,0,0:0:0:0:
192,192,88406,1,0,0:0:0:0:
448,192,88500,1,0,0:0:0:0:
64,192,88500,1,0,0:0:0:0:
320,192,88593,1,0,0:0:0:0:
192,192,88687,1,0,0:0:0:0:
320,192,88781,1,0,0:0:0:0:
64,192,88875,1,2,3:0:0:0:
448,192,88875,1,0,0:0:0:0:
192,192,88968,1,0,0:0:0:0:
320,192,89062,1,0,0:0:0:0:
192,192,89156,1,0,0:0:0:0:
448,192,89250,1,0,0:0:0:0:
64,192,89250,1,0,0:0:0:0:
320,192,89343,1,0,0:0:0:0:
192,192,89437,1,0,0:0:0:0:
448,192,89531,1,0,0:0:0:0:
64,192,89625,1,2,3:0:0:0:
320,192,89625,1,0,0:0:0:0:
192,192,89718,1,0,0:0:0:0:
448,192,89812,1,0,0:0:0:0:
320,192,89906,1,0,0:0:0:0:
64,192,90000,1,4,0:0:0:0:
448,192,90000,1,0,0:0:0:0:
192,192,90000,1,0,0:0:0:0:
192,192,90187,1,0,0:0:0:0:
320,192,90281,1,0,0:0:0:0:
192,192,90375,1,2,3:0:0:0:
448,192,90375,1,0,0:0:0:0:
64,192,90468,1,0,0:0:0:0:
320,192,90562,1,0,0:0:0:0:
192,192,90656,1,0,0:0:0:0:
64,192,90750,1,4,0:0:0:0:
448,192,90750,1,0,0:0:0:0:
320,192,90750,1,0,0:0:0:0:
192,192,90937,1,0,0:0:0:0:
64,192,91125,1,2,3:0:0:0:
448,192,91125,1,0,0:0:0:0:
448,192,91312,1,0,0:0:0:0:
320,192,91312,1,0,0:0:0:0:
192,192,91500,1,4,0:0:0:0:
448,192,91500,1,0,0:0:0:0:
64,192,91500,1,0,0:0:0:0:
320,192,91687,1,0,0:0:0:0:
448,192,91875,1,8,0:0:0:0:
64,192,91875,1,0,0:0:0:0:
320,192,92062,1,0,0:0:0:50:LR2_Snare+Hat.wav
192,192,92062,1,0,0:0:0:0:
448,192,92125,1,0,0:0:0:50:LR2_Snare+Hat.wav
64,192,92187,1,0,0:0:0:50:LR2_Snare+Hat.wav
192,192,92250,1,0,0:0:0:50:LR2_Snare+Hat.wav
320,192,92250,1,0,0:0:0:0:
64,192,92437,1,8,0:0:0:0:
320,192,92437,1,0,0:0:0:0:
448,192,92437,1,0,0:0:0:0:
320,192,92625,1,8,0:0:0:0:
64,192,92625,1,0,0:0:0:0:
192,192,92625,1,0,0:0:0:0:
448,192,92625,1,0,0:0:0:0:
448,192,92812,1,0,0:0:0:0:
320,192,92906,1,0,0:0:0:0:
192,192,93000,1,6,0:0:0:0:
64,192,93000,1,4,0:0:0:0:
448,192,93000,128,0,93187:0:0:0:0:
320,192,93187,128,8,93375:0:0:0:0:
192,192,93187,1,0,0:0:0:0:
192,192,93375,1,0,0:0:0:0:
64,192,93468,1,0,0:0:0:0:
192,192,93562,1,2,0:0:0:0:
448,192,93562,1,0,0:0:0:0:
320,192,93656,1,0,0:0:0:0:
448,192,93750,1,8,0:0:0:0:
192,192,93750,1,0,0:0:0:0:
64,192,93750,1,0,0:0:0:0:
448,192,93937,128,0,94125:0:0:0:0:
320,192,93937,1,0,0:0:0:0:
64,192,94125,128,8,94312:0:0:0:0:
192,192,94125,1,0,0:0:0:0:
320,192,94312,1,0,0:0:0:0:
192,192,94406,1,0,0:0:0:0:
64,192,94500,1,2,0:0:0:0:
320,192,94500,128,0,94687:0:0:0:0:
448,192,94500,1,0,0:0:0:0:
448,192,94687,1,8,0:0:0:0:
64,192,94687,128,0,94875:0:0:0:0:
320,192,94781,1,0,0:0:0:0:
192,192,94875,1,0,0:0:0:0:
448,192,94968,1,0,0:0:0:0:
320,192,95062,1,2,0:0:0:0:
192,192,95156,1,0,0:0:0:0:
64,192,95250,1,8,0:0:0:0:
448,192,95250,128,0,95437:0:0:0:0:
320,192,95437,1,0,0:0:0:0:
64,192,95531,1,0,0:0:0:0:
192,192,95562,1,0,0:0:0:0:
320,192,95593,1,0,0:0:0:0:
448,192,95625,1,8,0:0:0:0:
320,192,95812,1,0,0:0:0:0:
192,192,95906,1,0,0:0:0:0:
64,192,96000,1,2,0:0:0:0:
320,192,96000,128,0,96187:0:0:0:0:
448,192,96000,1,0,0:0:0:0:
64,192,96187,1,8,0:0:0:0:
448,192,96187,128,0,96375:0:0:0:0:
192,192,96281,1,0,0:0:0:0:
320,192,96375,1,0,0:0:0:0:
192,192,96468,1,0,0:0:0:0:
320,192,96562,1,2,0:0:0:0:
64,192,96562,1,0,0:0:0:0:
448,192,96656,1,0,0:0:0:0:
192,192,96750,1,8,0:0:0:0:
64,192,96750,128,0,96937:0:0:0:0:
320,192,96750,1,0,0:0:0:0:
320,192,96937,128,0,97125:0:0:0:0:
448,192,96937,1,0,0:0:0:0:
192,192,97031,1,0,0:0:0:0:
448,192,97125,1,8,0:0:0:0:
64,192,97125,1,0,0:0:0:0:
192,192,97218,1,0,0:0:0:0:
320,192,97312,1,0,0:0:0:0:
448,192,97406,1,0,0:0:0:0:
64,192,97500,1,2,0:0:0:0:
192,192,97500,128,0,97687:0:0:0:0:
320,192,97500,1,0,0:0:0:0:
448,192,97687,1,8,0:0:0:0:
320,192,97687,128,0,97875:0:0:0:0:
64,192,97781,1,0,0:0:0:0:
192,192,97875,1,0,0:0:0:0:
448,192,97968,1,0,0:0:0:0:
320,192,98062,1,2,0:0:0:0:
192,192,98062,1,0,0:0:0:0:
64,192,98156,1,0,0:0:0:0:
192,192,98250,1,8,0:0:0:0:
448,192,98250,128,0,98437:0:0:0:0:
320,192,98250,1,0,0:0:0:0:
64,192,98437,1,0,0:0:0:0:
320,192,98625,1,8,0:0:0:0:
448,192,98625,128,0,98812:0:0:0:0:
64,192,98625,1,0,0:0:0:0:
192,192,98718,1,0,0:0:0:0:
320,192,98812,1,0,0:0:0:0:
64,192,98906,1,0,0:0:0:0:
320,192,99000,128,4,99187:0:0:0:0:
192,192,99000,1,2,0:0:0:0:
448,192,99000,1,0,0:0:0:0:
64,192,99187,1,8,0:0:0:0:
64,192,99375,1,8,1:0:0:30:LR2_Snare+Hat.wav
192,192,99375,1,0,0:0:0:0:
320,192,99468,1,0,0:0:0:0:
64,192,99562,1,2,0:0:0:0:
448,192,99562,1,0,0:0:0:0:
192,192,99656,1,0,0:0:0:0:
320,192,99750,1,8,0:0:0:0:
448,192,99750,1,0,0:0:0:0:
64,192,99750,1,0,0:0:0:0:
192,192,99937,1,0,0:0:0:0:
448,192,99937,128,0,100125:0:0:0:0:
320,192,100125,128,0,100312:0:0:0:0:
64,192,100125,1,8,1:0:0:30:LR2_Snare+Hat.wav
192,192,100125,1,8,0:0:0:0:
192,192,100312,1,0,0:0:0:0:
320,192,100406,1,0,0:0:0:0:
448,192,100500,1,2,0:0:0:0:
64,192,100500,128,0,100687:0:0:0:0:
192,192,100500,1,0,0:0:0:0:
448,192,100687,1,8,0:0:0:0:
320,192,100687,128,0,100875:0:0:0:0:
448,192,100875,1,8,1:0:0:30:LR2_Snare+Hat.wav
64,192,100875,1,0,0:0:0:0:
192,192,100968,1,0,0:0:0:0:
320,192,101062,1,2,0:0:0:0:
448,192,101062,1,0,0:0:0:0:
192,192,101156,1,0,0:0:0:0:
320,192,101250,1,8,0:0:0:0:
64,192,101250,128,0,101437:0:0:0:0:
448,192,101250,1,0,0:0:0:0:
192,192,101437,1,0,0:0:0:0:
448,192,101531,1,0,0:0:0:0:
320,192,101578,1,0,0:0:0:0:
64,192,101625,1,8,1:0:0:30:LR2_Snare+Hat.wav
192,192,101625,1,8,0:0:0:0:
192,192,101812,1,0,0:0:0:0:
320,192,102000,1,2,0:0:0:0:
448,192,102000,128,0,102187:0:0:0:0:
64,192,102000,1,0,0:0:0:0:
192,192,102187,1,8,0:0:0:0:
64,192,102187,128,0,102375:0:0:0:0:
192,192,102375,1,8,1:0:0:30:LR2_Snare+Hat.wav
448,192,102375,1,0,0:0:0:0:
320,192,102468,1,0,0:0:0:0:
192,192,102562,1,2,0:0:0:0:
64,192,102562,1,0,0:0:0:0:
320,192,102656,1,0,0:0:0:0:
64,192,102750,1,8,0:0:0:0:
448,192,102750,1,0,0:0:0:0:
192,192,102843,1,0,0:0:0:0:
320,192,102937,1,0,0:0:0:0:
192,192,103031,1,0,0:0:0:0:
64,192,103125,1,8,1:0:0:30:LR2_Snare+Hat.wav
448,192,103125,1,8,0:0:0:0:
320,192,103218,1,0,0:0:0:0:
192,192,103312,1,0,0:0:0:0:
64,192,103312,1,0,0:0:0:0:
320,192,103406,1,0,0:0:0:0:
192,192,103500,128,4,104531:0:0:0:0:
64,192,103500,1,0,0:0:0:0:
448,192,103500,128,6,104531:0:0:0:0:
64,192,103875,128,8,104531:0:0:0:0:
320,192,103875,128,8,104531:0:0:0:0:
192,192,104625,1,0,0:0:0:0:
320,192,104625,1,0,0:0:0:0:
64,192,104625,1,0,0:0:0:0:
448,192,104625,1,0,0:0:0:0:
192,192,105000,1,6,0:0:0:0:
320,192,105000,1,0,0:0:0:0:
64,192,105000,1,0,0:0:0:0:
448,192,105000,1,0,0:0:0:0:
320,192,105187,1,0,0:0:0:0:
192,192,105187,1,0,0:0:0:0:
320,192,105375,1,8,0:0:0:0:
448,192,105375,1,0,0:0:0:0:
64,192,105375,1,0,0:0:0:0:
320,192,105562,1,0,0:0:0:0:
192,192,105562,1,0,0:0:0:0:
64,192,105750,1,2,0:0:0:0:
192,192,105750,1,0,0:0:0:0:
448,192,105750,1,0,0:0:0:0:
320,192,105843,1,0,0:0:0:0:
64,192,105937,128,0,106312:0:0:0:0:
192,192,105937,1,0,0:0:0:0:
448,192,106125,1,8,0:0:0:0:
192,192,106125,1,0,0:0:0:0:
448,192,106312,1,0,0:0:0:0:
192,192,106406,1,0,0:0:0:0:
320,192,106500,1,2,0:0:0:0:
448,192,106500,1,0,0:0:0:0:
64,192,106500,1,0,0:0:0:0:
192,192,106687,1,0,0:0:0:0:
320,192,106687,1,0,0:0:0:0:
320,192,106875,1,8,0:0:0:0:
448,192,106875,1,0,0:0:0:0:
64,192,106875,1,0,0:0:0:0:
192,192,107062,1,0,0:0:0:0:
64,192,107062,1,0,0:0:0:0:
64,192,107250,1,2,0:0:0:0:
320,192,107250,1,0,0:0:0:0:
448,192,107250,1,0,0:0:0:0:
192,192,107343,1,0,0:0:0:0:
320,192,107437,128,0,107812:0:0:0:0:
192,192,107625,1,8,0:0:0:0:
448,192,107625,1,0,0:0:0:0:
64,192,107812,1,0,0:0:0:0:
192,192,107906,1,0,0:0:0:0:
320,192,108000,1,2,0:0:0:0:
448,192,108000,1,0,0:0:0:0:
64,192,108000,1,0,0:0:0:0:
320,192,108187,1,0,0:0:0:0:
448,192,108187,1,0,0:0:0:0:
192,192,108281,1,0,0:0:0:0:
320,192,108375,1,8,0:0:0:0:
448,192,108375,1,0,0:0:0:0:
64,192,108375,1,0,0:0:0:0:
192,192,108562,1,0,0:0:0:0:
320,192,108656,1,0,0:0:0:0:
192,192,108750,128,2,108937:0:0:0:0:
64,192,108750,1,0,0:0:0:0:
448,192,108750,1,0,0:0:0:0:
320,192,108937,128,0,109125:0:0:0:0:
448,192,108937,1,0,0:0:0:0:
192,192,109125,128,8,109312:0:0:0:0:
64,192,109125,1,0,0:0:0:0:
448,192,109125,1,0,0:0:0:0:
320,192,109312,128,0,109500:0:0:0:0:
64,192,109312,1,0,0:0:0:0:
448,192,109500,128,2,110250:0:0:0:0:
64,192,109500,128,0,110250:0:0:0:0:
192,192,109500,1,0,0:0:0:0:
192,192,109875,1,8,0:0:0:0:
320,192,109875,1,0,0:0:0:0:
320,192,110062,1,2,0:0:0:0:
192,192,110062,1,2,0:0:0:0:
192,192,110250,1,2,0:0:0:0:
320,192,110250,1,0,0:0:0:0:
448,192,110343,1,0,0:0:0:0:
64,192,110343,1,0,0:0:0:0:
192,192,110437,1,0,0:0:0:0:
320,192,110437,1,0,0:0:0:0:
448,192,110531,1,0,0:0:0:0:
192,192,110625,1,8,0:0:0:0:
64,192,110625,128,0,111000:0:0:0:0:
320,192,110625,1,0,0:0:0:0:
192,192,111000,1,6,0:0:0:0:
320,192,111000,1,4,0:0:0:0:
448,192,111000,1,0,0:0:0:0:
320,192,111187,1,0,0:0:0:0:
192,192,111187,1,0,0:0:0:0:
192,192,111375,1,8,0:0:0:0:
448,192,111375,1,0,0:0:0:0:
64,192,111375,1,0,0:0:0:0:
320,192,111562,1,0,0:0:0:0:
64,192,111562,1,0,0:0:0:0:
64,192,111750,1,2,0:0:0:0:
192,192,111750,1,0,0:0:0:0:
448,192,111750,1,0,0:0:0:0:
320,192,111843,1,0,0:0:0:0:
64,192,111937,128,0,112312:0:0:0:0:
192,192,111937,1,0,0:0:0:0:
192,192,112125,1,8,0:0:0:0:
448,192,112125,1,0,0:0:0:0:
320,192,112312,1,0,0:0:0:0:
192,192,112406,1,0,0:0:0:0:
320,192,112500,1,2,0:0:0:0:
448,192,112500,1,0,0:0:0:0:
64,192,112500,1,0,0:0:0:0:
192,192,112687,1,0,0:0:0:0:
448,192,112687,1,0,0:0:0:0:
320,192,112875,1,8,0:0:0:0:
64,192,112875,1,0,0:0:0:0:
448,192,112875,1,0,0:0:0:0:
192,192,113062,1,0,0:0:0:0:
64,192,113062,1,0,0:0:0:0:
64,192,113250,1,2,0:0:0:0:
320,192,113250,1,0,0:0:0:0:
448,192,113250,1,0,0:0:0:0:
192,192,113343,1,0,0:0:0:0:
320,192,113437,128,0,113812:0:0:0:0:
64,192,113437,1,0,0:0:0:0:
192,192,113625,1,8,0:0:0:0:
448,192,113625,1,0,0:0:0:0:
64,192,113812,1,0,0:0:0:0:
192,192,113906,1,0,0:0:0:0:
320,192,114000,1,2,0:0:0:0:
448,192,114000,1,0,0:0:0:0:
64,192,114000,1,0,0:0:0:0:
192,192,114187,1,0,0:0:0:0:
320,192,114187,1,0,0:0:0:0:
448,192,114375,1,8,0:0:0:0:
64,192,114375,1,0,0:0:0:0:
320,192,114468,1,0,0:0:0:0:
64,192,114562,1,0,0:0:0:0:
192,192,114609,1,0,0:0:0:0:
448,192,114656,1,0,0:0:0:0:
320,192,114703,1,0,0:0:0:0:
64,192,114750,1,2,0:0:0:0:
192,192,114750,128,0,114937:0:0:0:0:
448,192,114937,128,0,115125:0:0:0:0:
320,192,114937,128,0,115125:0:0:0:0:
64,192,115125,128,8,115312:0:0:0:0:
192,192,115125,1,0,0:0:0:0:
320,192,115312,128,0,115500:0:0:0:0:
192,192,115312,128,0,115500:0:0:0:0:
448,192,115500,128,2,115687:0:0:0:0:
64,192,115500,1,0,0:0:0:0:
192,192,115687,128,0,115875:0:0:0:0:
64,192,115687,128,0,115875:0:0:0:0:
320,192,115687,1,0,0:0:0:0:
448,192,115875,1,8,0:0:0:0:
320,192,115875,128,0,116062:0:0:0:0:
64,192,116062,1,2,0:0:0:0:
448,192,116062,1,0,0:0:0:0:
192,192,116109,1,0,0:0:0:0:
320,192,116156,1,0,0:0:0:0:
64,192,116203,1,0,0:0:0:0:
192,192,116250,1,0,0:0:0:0:
448,192,116250,128,2,116437:0:0:0:0:
64,192,116437,1,0,0:0:0:0:
192,192,116531,1,0,0:0:0:0:
448,192,116625,1,8,0:0:0:0:
64,192,116625,1,0,0:0:0:0:
320,192,116625,128,0,116812:0:0:0:0:
192,192,116812,128,0,117000:0:0:0:0:
64,192,117000,1,4,0:0:0:0:
448,192,117000,1,2,0:0:0:0:
320,192,117000,1,0,0:0:0:0:
192,192,117187,1,0,0:0:0:0:
448,192,117187,1,0,0:0:0:0:
320,192,117375,1,8,0:0:0:0:
448,192,117375,1,0,0:0:0:0:
64,192,117375,1,0,0:0:0:0:
192,192,117562,1,0,0:0:0:0:
64,192,117562,1,0,0:0:0:0:
320,192,117750,1,2,0:0:0:0:
64,192,117750,1,0,0:0:0:0:
448,192,117750,1,0,0:0:0:0:
192,192,117843,1,0,0:0:0:0:
64,192,117937,128,0,118312:0:0:0:0:
192,192,118125,1,8,0:0:0:0:
320,192,118125,1,0,0:0:0:0:
320,192,118312,1,0,0:0:0:0:
192,192,118406,1,0,0:0:0:0:
320,192,118500,1,2,0:0:0:0:
448,192,118500,1,0,0:0:0:0:
64,192,118500,1,0,0:0:0:0:
192,192,118687,1,0,0:0:0:0:
320,192,118687,1,0,0:0:0:0:
64,192,118875,1,8,0:0:0:0:
320,192,118875,1,0,0:0:0:0:
448,192,118875,1,0,0:0:0:0:
320,192,119062,1,0,0:0:0:0:
192,192,119062,1,0,0:0:0:0:
64,192,119250,1,2,0:0:0:0:
192,192,119250,1,0,0:0:0:0:
448,192,119250,1,0,0:0:0:0:
320,192,119343,1,0,0:0:0:0:
448,192,119437,128,0,119812:0:0:0:0:
192,192,119625,1,8,0:0:0:0:
64,192,119625,1,0,0:0:0:0:
64,192,119812,1,0,0:0:0:0:
320,192,119906,1,0,0:0:0:0:
64,192,120000,1,2,0:0:0:0:
448,192,120000,1,0,0:0:0:0:
192,192,120000,1,0,0:0:0:0:
64,192,120187,1,0,0:0:0:0:
320,192,120281,1,0,0:0:0:0:
448,192,120375,1,8,0:0:0:0:
192,192,120375,1,0,0:0:0:0:
64,192,120375,1,0,0:0:0:0:
320,192,120468,1,0,0:0:0:0:
192,192,120562,1,0,0:0:0:0:
320,192,120656,1,0,0:0:0:0:
64,192,120750,1,0,0:0:0:0:
448,192,120750,128,0,120937:0:0:0:0:
320,192,120937,128,2,121125:0:0:0:0:
192,192,120937,1,0,0:0:0:0:
192,192,121125,128,8,121312:0:0:0:0:
64,192,121125,1,0,0:0:0:0:
448,192,121125,1,0,0:0:0:0:
64,192,121312,128,0,121500:0:0:0:0:
320,192,121312,1,0,0:0:0:0:
320,192,121500,128,2,122250:0:0:0:0:
192,192,121500,128,0,122250:0:0:0:0:
448,192,121500,1,0,0:0:0:0:
64,192,121875,1,8,0:0:0:0:
448,192,121875,1,0,0:0:0:0:
64,192,122062,1,2,0:0:0:0:
448,192,122062,1,0,0:0:0:0:
64,192,122250,1,2,0:0:0:0:
448,192,122250,1,0,0:0:0:0:
320,192,122343,1,0,0:0:0:0:
192,192,122343,1,0,0:0:0:0:
64,192,122437,1,0,0:0:0:0:
448,192,122437,1,0,0:0:0:0:
320,192,122531,1,0,0:0:0:0:
448,192,122625,1,8,0:0:0:0:
192,192,122625,1,0,0:0:0:0:
64,192,122625,128,0,123000:0:0:0:0:
192,192,123000,1,6,0:0:0:0:
448,192,123000,1,0,0:0:0:0:
320,192,123000,1,0,0:0:0:0:
64,192,123187,1,0,0:0:0:0:
320,192,123187,1,0,0:0:0:0:
448,192,123375,1,8,0:0:0:0:
192,192,123375,1,0,0:0:0:0:
320,192,123375,1,0,0:0:0:0:
64,192,123562,1,0,0:0:0:0:
448,192,123562,1,0,0:0:0:0:
448,192,123750,1,2,0:0:0:0:
320,192,123750,1,0,0:0:0:0:
64,192,123750,1,0,0:0:0:0:
192,192,123843,1,0,0:0:0:0:
64,192,123937,128,0,124312:0:0:0:0:
448,192,124125,1,8,0:0:0:0:
320,192,124125,1,0,0:0:0:0:
192,192,124312,1,0,0:0:0:0:
320,192,124406,1,0,0:0:0:0:
64,192,124500,1,2,0:0:0:0:
448,192,124500,1,0,0:0:0:0:
192,192,124500,1,0,0:0:0:0:
320,192,124687,1,0,0:0:0:0:
192,192,124687,1,0,0:0:0:0:
192,192,124875,1,8,0:0:0:0:
448,192,124875,1,0,0:0:0:0:
64,192,124875,1,0,0:0:0:0:
320,192,125062,1,0,0:0:0:0:
64,192,125062,1,0,0:0:0:0:
192,192,125250,1,2,0:0:0:0:
448,192,125250,1,0,0:0:0:0:
64,192,125250,1,0,0:0:0:0:
320,192,125343,1,0,0:0:0:0:
448,192,125437,128,0,125812:0:0:0:0:
192,192,125625,1,8,0:0:0:0:
64,192,125625,1,0,0:0:0:0:
320,192,125812,1,0,0:0:0:0:
192,192,125906,1,0,0:0:0:0:
64,192,126000,1,2,0:0:0:0:
448,192,126000,1,0,0:0:0:0:
320,192,126000,1,0,0:0:0:0:
192,192,126187,1,0,0:0:0:0:
320,192,126187,1,0,0:0:0:0:
64,192,126375,1,8,0:0:0:0:
320,192,126375,1,0,0:0:0:0:
448,192,126375,1,0,0:0:0:0:
64,192,126562,1,0,0:0:0:0:
192,192,126609,1,0,0:0:0:0:
320,192,126656,1,0,0:0:0:0:
192,192,126703,1,0,0:0:0:0:
320,192,126750,1,2,0:0:0:0:
448,192,126750,1,0,0:0:0:0:
64,192,126937,1,0,0:0:0:0:
320,192,126937,1,0,0:0:0:0:
448,192,127125,1,8,0:0:0:0:
192,192,127125,1,0,0:0:0:0:
320,192,127125,1,0,0:0:0:0:
64,192,127312,1,0,0:0:0:0:
320,192,127312,1,0,0:0:0:0:
64,192,127500,128,6,127687:0:0:0:0:
448,192,127500,128,0,127687:0:0:0:0:
320,192,127500,1,0,0:0:0:0:
192,192,127500,1,0,0:0:0:0:
192,192,127687,1,0,0:0:0:0:
320,192,127781,1,0,0:0:0:0:
448,192,127875,1,8,0:0:0:0:
192,192,127875,1,0,0:0:0:0:
64,192,127968,1,0,0:0:0:0:
320,192,128062,1,2,0:0:0:0:
448,192,128062,1,2,0:0:0:0:
192,192,128156,1,0,0:0:0:0:
320,192,128250,1,2,0:0:0:0:
64,192,128250,1,0,0:0:0:0:
448,192,128250,128,0,128625:0:0:0:0:
320,192,128625,1,8,0:0:0:0:
64,192,128625,1,0,0:0:0:0:
192,192,128812,1,0,0:0:0:0:
320,192,128906,1,0,0:0:0:0:
448,192,129000,1,2,0:0:0:0:
64,192,129000,1,2,0:0:0:0:
192,192,129000,1,0,0:0:0:0:
320,192,129187,128,0,129375:0:0:0:0:
448,192,129375,128,8,129562:0:0:0:0:
192,192,129375,1,8,0:0:0:0:
64,192,129375,1,0,0:0:0:0:
64,192,129562,1,0,0:0:0:0:
192,192,129609,1,0,0:0:0:0:
448,192,129656,1,0,0:0:0:0:
320,192,129703,1,0,0:0:0:0:
64,192,129750,128,2,129937:0:0:0:0:
192,192,129750,128,2,129937:0:0:0:0:
320,192,129937,128,0,130125:0:0:0:0:
448,192,130125,128,8,130312:0:0:0:0:
64,192,130125,128,0,130312:0:0:0:0:
192,192,130125,1,0,0:0:0:0:
192,192,130312,128,0,130500:0:0:0:0:
320,192,130500,128,4,130687:0:0:0:0:
448,192,130500,1,0,0:0:0:0:
64,192,130500,1,0,0:0:0:0:
192,192,130687,128,0,130875:0:0:0:0:
64,192,130687,1,0,0:0:0:0:
448,192,130875,128,8,131062:0:0:0:0:
320,192,130875,128,0,131062:0:0:0:0:
64,192,131062,128,2,131250:0:0:0:0:
192,192,131062,128,0,131250:0:0:0:0:
448,192,131250,1,0,0:0:0:0:
320,192,131250,1,2,0:0:0:0:
192,192,131625,1,8,0:0:0:0:
64,192,131625,1,0,0:0:0:0:
448,192,131625,1,0,0:0:0:0:
320,192,131625,1,0,0:0:0:0:
