osu file format v14

[General]
AudioFilename: audio.mp3
AudioLeadIn: 0
PreviewTime: 56481
Countdown: 1
SampleSet: Soft
StackLeniency: 0.7
Mode: 0
LetterboxInBreaks: 0
WidescreenStoryboard: 0

[Editor]
DistanceSpacing: 0.5
BeatDivisor: 4
GridSize: 16
TimelineZoom: 1

[Metadata]
Title:Quo Vadis
TitleUnicode:Quo Vadis
Artist:M2U
ArtistUnicode:M2U
Creator:-Smine-
Version:Melody
Source:
Tags:Melody BMS
BeatmapID:1297316
BeatmapSetID:615012

[Difficulty]
HPDrainRate:7
CircleSize:4.5
OverallDifficulty:8
ApproachRate:9.3
SliderMultiplier:2.3
SliderTickRate:1

[Events]
//Background and Video events
0,0,"Cola.Gotouryouta.full.116646.jpg",0,0
//Break Periods
2,80306,84802
//Storyboard Layer 0 (Background)
//Storyboard Layer 1 (Fail)
//Storyboard Layer 2 (Pass)
//Storyboard Layer 3 (Foreground)
//Storyboard Sound Samples

[TimingPoints]
2481,375,4,2,0,100,1,0
8856,-100,4,1,0,100,0,0
9981,-100,4,2,0,100,0,0
19731,-66.6666666666667,4,2,0,100,0,0
21231,-100,4,2,0,100,0,0
24231,-133.333333333333,4,2,0,100,0,0
25731,-100,4,2,0,100,0,0
25918,-100,4,2,0,5,0,0
26106,-100,4,2,0,100,0,0
30231,-66.6666666666667,4,2,0,100,0,0
32106,-100,4,2,0,100,0,0
36231,-133.333333333333,4,2,0,100,0,0
36981,-100,4,2,0,100,0,0
37731,-133.333333333333,4,2,0,100,0,0
39231,-100,4,2,0,100,0,0
56481,-100,4,2,0,100,0,1
60137,-100,4,2,0,100,0,1
80106,-66.6666666666667,4,2,0,100,0,0
85356,-100,4,2,0,100,0,0
92481,-200,4,2,0,100,0,0
98106,-133.333333333333,4,2,0,100,0,0
98481,-133.333333333333,4,2,0,100,0,1
99606,-100,4,2,0,100,0,1
102793,-100,4,2,0,100,0,0
104481,-133.333333333333,4,2,0,100,0,0
116481,-133.333333333333,4,2,0,100,0,1
120981,-100,4,2,0,100,0,1
139731,-133.333333333333,4,2,0,100,0,1
140293,-133.333333333333,4,2,0,100,0,0

[HitObjects]
96,285,2106,5,0,0:0:0:0:
223,337,2293,1,0,0:0:0:0:
238,322,2387,1,0,0:0:0:0:
256,306,2481,5,0,0:0:0:0:
351,196,2668,1,0,0:0:0:0:
238,102,2856,1,0,0:0:0:0:
369,186,3043,1,0,0:0:0:0:
219,88,3231,1,0,0:0:0:0:
261,214,3418,1,0,0:0:0:0:
133,285,3606,1,0,0:0:0:0:
273,234,3793,1,0,0:0:0:0:
111,298,3981,6,0,L|179:298,1,57.5
190,298,4168,1,0,0:0:0:0:
208,299,4262,1,0,0:0:0:0:
228,300,4356,1,0,0:0:0:0:
344,298,4543,2,0,L|390:256,1,57.5
387,260,4731,2,0,L|436:214,1,57.5
438,153,4918,6,0,L|397:111,1,57.5
397,111,5106,2,0,L|350:59,1,57.5
288,64,5293,6,0,L|248:105,1,57.5
248,105,5481,2,0,L|209:147,1,57.5
141,207,5668,6,0,L|87:175,2,57.5
225,259,6043,1,0,0:0:0:0:
317,321,6231,1,0,0:0:0:0:
409,229,6418,1,0,0:0:0:0:
350,130,6606,1,0,0:0:0:0:
248,161,6793,1,0,0:0:0:0:
225,259,6981,6,0,L|150:230,1,57.5
156,231,7168,1,0,2:3:0:0:
138,224,7262,1,0,2:3:0:0:
120,216,7356,1,0,2:3:0:0:
62,123,7543,1,0,0:0:0:0:
155,49,7731,1,0,0:0:0:0:
172,63,7824,1,0,0:0:0:0:
194,69,7918,1,0,0:0:0:0:
216,62,8012,1,0,0:0:0:0:
237,52,8106,1,0,0:0:0:0:
354,87,8293,6,0,L|415:42,2,57.5,0|0|4,0:0|0:0|0:0,0:0:0:0:
269,231,8668,1,0,0:0:0:0:
127,312,8856,1,0,0:0:0:0:
302,211,9043,1,0,0:0:0:0:
102,227,9231,1,0,0:0:0:0:
344,191,9418,1,0,0:0:0:0:
103,323,9606,1,0,0:0:0:0:
383,175,9793,1,0,0:0:0:0:
214,210,9981,6,0,B|198:162|243:137,1,57.5,4|0,0:0|0:0,0:0:0:0:
236,138,10168,1,0,0:0:0:0:
253,122,10262,1,0,0:0:0:0:
273,111,10356,1,0,0:0:0:0:
383,175,10543,6,0,B|374:208|335:202,1,57.5
352,276,10731,2,0,B|331:304|297:282,1,57.5
253,337,10918,2,0,B|218:329|223:294,1,57.5
146,308,11106,2,0,B|126:278|154:257,1,57.5
98,213,11293,2,0,B|107:178|141:185,1,57.5,0|0,2:0|2:0,2:0:0:0:
239,156,11481,6,4,P|265:210|327:210,1,115
418,146,11856,1,0,0:0:0:0:
452,262,12043,1,0,0:0:0:0:
418,116,12231,1,0,0:0:0:0:
379,263,12418,1,0,0:0:0:0:
418,87,12606,1,0,0:0:0:0:
452,262,12793,1,0,0:0:0:0:
413,61,12981,6,0,P|389:35|362:24,1,57.5
335,17,13168,1,0,0:0:0:0:
306,13,13261,1,0,0:0:0:0:
277,17,13355,1,0,0:0:0:0:
251,26,13449,1,0,0:0:0:0:
226,41,13543,1,0,0:0:0:0:
205,60,13636,1,0,0:0:0:0:
189,85,13730,1,0,0:0:0:0:
178,111,13824,1,0,0:0:0:0:
173,138,13918,1,0,0:0:0:0:
173,168,14011,1,0,0:0:0:0:
182,195,14106,2,0,B|203:267|297:266,1,115
391,274,14481,5,4,0:0:0:0:
451,152,14856,1,0,0:0:0:0:
429,143,14949,1,0,0:0:0:0:
408,132,15043,1,0,0:0:0:0:
388,120,15137,1,0,0:0:0:0:
325,91,15231,5,0,0:0:0:0:
172,68,15418,6,0,L|214:112,1,38.3333333333333
171,211,15606,2,0,L|205:174,1,38.3333333333333
277,150,15793,1,0,0:0:0:0:
328,183,15887,1,0,0:0:0:0:
375,214,15981,1,4,0:0:0:0:
349,319,16168,5,0,0:0:0:0:
328,329,16262,1,0,0:0:0:0:
307,339,16356,1,4,0:0:0:0:
259,290,16449,5,0,0:0:0:0:
239,301,16543,1,0,0:0:0:0:
218,311,16637,1,0,0:0:0:0:
197,321,16731,1,4,0:0:0:0:
134,348,16824,5,0,0:0:0:0:
121,328,16918,1,0,0:0:0:0:
117,305,17012,1,0,0:0:0:0:
119,282,17106,1,0,0:0:0:0:
129,261,17199,1,0,0:0:0:0:
143,242,17293,1,0,0:0:0:0:
160,227,17387,1,0,0:0:0:0:
221,194,17481,5,0,0:0:0:0:
346,219,17668,5,0,0:0:0:0:
360,200,17762,1,0,0:0:0:0:
341,186,17856,1,0,0:0:0:0:
326,203,17949,1,0,0:0:0:0:
346,219,18043,1,0,0:0:0:0:
364,232,18137,1,0,0:0:0:0:
386,236,18231,1,0,0:0:0:0:
408,230,18324,1,0,0:0:0:0:
428,219,18418,1,0,0:0:0:0:
443,201,18512,1,0,0:0:0:0:
450,179,18606,1,0,0:0:0:0:
450,156,18699,1,0,0:0:0:0:
439,135,18793,1,0,0:0:0:0:
419,123,18887,1,0,0:0:0:0:
354,100,18981,5,4,0:0:0:0:
205,169,19168,1,0,0:0:0:0:
331,295,19356,1,0,0:0:0:0:
198,184,19543,1,0,0:0:0:0:
67,236,19731,2,0,B|70:276|70:276|114:252,1,86.2500032901765
374,124,20106,2,0,B|385:88|385:88|330:82,1,86.2500032901765
99,69,20481,5,4,0:0:0:0:
195,146,20668,1,0,0:0:0:0:
95,223,20856,1,0,0:0:0:0:
99,69,21043,1,0,0:0:0:0:
195,146,21231,2,0,B|256:135|307:158,1,115
428,218,21606,5,0,0:0:0:0:
419,228,21699,1,0,0:0:0:0:
410,238,21793,1,0,0:0:0:0:
401,248,21887,1,0,0:0:0:0:
353,298,21981,5,4,0:0:0:0:
240,214,22168,1,0,0:0:0:0:
350,136,22356,1,0,0:0:0:0:
353,298,22543,1,0,0:0:0:0:
240,214,22731,2,0,B|179:225|128:202,1,115
64,96,23106,5,0,2:0:0:0:
72,95,23199,1,0,2:0:0:0:
81,95,23293,1,0,2:0:0:0:
90,94,23387,1,0,2:0:0:0:
159,89,23481,5,4,0:0:0:0:
348,41,23668,1,0,0:0:0:0:
349,156,23856,1,0,0:0:0:0:
159,89,24043,1,0,0:0:0:0:
159,89,24231,2,0,B|252:121,1,86.2500032901765
349,156,24606,5,0,0:0:0:0:
460,255,24793,1,0,0:0:0:0:
352,353,24981,2,0,L|269:279,1,86.2500032901765
234,228,25262,5,0,0:0:0:0:
240,224,25356,1,0,0:0:0:0:
247,220,25449,1,0,0:0:0:0:
254,216,25543,1,0,0:0:0:0:
262,212,25637,1,0,0:0:0:0:
271,209,25731,2,0,B|332:225|332:225|382:213,1,115
451,149,26106,6,0,B|444:176|444:176|414:178|414:178|404:212|404:212|371:213,1,115
234,228,26481,1,4,0:0:0:0:
137,317,26668,1,0,0:0:0:0:
135,144,26856,1,0,0:0:0:0:
234,228,27043,1,0,0:0:0:0:
234,228,27231,2,0,B|295:217|346:240,1,115
461,289,27606,5,0,0:0:0:0:
455,283,27699,1,0,0:0:0:0:
450,277,27793,1,0,0:0:0:0:
444,271,27887,1,0,0:0:0:0:
405,214,27981,5,4,0:0:0:0:
269,171,28168,1,0,0:0:0:0:
416,77,28356,1,0,0:0:0:0:
405,214,28543,1,0,0:0:0:0:
405,214,28731,2,0,B|382:156|335:125,1,115,8|0,0:0|0:0,0:0:0:0:
170,68,29106,5,0,0:0:0:0:
265,136,29293,1,0,0:0:0:0:
270,145,29387,1,0,0:0:0:0:
275,152,29481,1,0,0:0:0:0:
46,180,29668,1,0,0:0:0:0:
252,239,29856,1,0,0:0:0:0:
46,309,30043,1,0,0:0:0:0:
46,84,30231,6,0,B|86:51|86:51|151:91,1,86.2500032901765
186,118,30418,1,0,0:0:0:0:
48,267,30606,1,0,0:0:0:0:
46,84,30793,1,0,0:0:0:0:
285,66,30981,5,0,0:0:0:0:
284,73,31074,1,0,0:0:0:0:
283,80,31168,1,0,0:0:0:0:
282,87,31262,1,0,0:0:0:0:
282,94,31356,1,0,0:0:0:0:
281,102,31449,1,0,0:0:0:0:
279,109,31543,1,0,0:0:0:0:
278,117,31637,1,0,0:0:0:0:
277,124,31731,1,0,0:0:0:0:
102,291,31918,1,0,0:0:0:0:
143,243,32012,1,0,0:0:0:0:
178,190,32106,2,0,P|245:186|299:139,1,115
408,52,32481,5,4,0:0:0:0:
286,143,32668,1,0,0:0:0:0:
413,242,32856,1,0,0:0:0:0:
408,52,33043,1,0,0:0:0:0:
286,143,33231,2,0,B|224:130|173:153,1,115,8|0,0:0|0:0,0:0:0:0:
92,226,33606,5,0,0:0:0:0:
98,232,33699,1,0,0:0:0:0:
105,238,33793,1,0,0:0:0:0:
112,244,33887,1,0,0:0:0:0:
170,282,33981,5,4,0:0:0:0:
288,192,34168,1,0,0:0:0:0:
172,100,34356,1,0,0:0:0:0:
170,282,34543,1,0,0:0:0:0:
288,192,34731,2,0,B|349:203|400:180,1,115
438,60,35106,5,0,0:0:0:0:
432,66,35199,1,0,0:0:0:0:
425,72,35293,1,0,0:0:0:0:
418,78,35387,1,0,0:0:0:0:
369,127,35481,5,4,0:0:0:0:
152,202,35668,1,0,0:0:0:0:
371,279,35856,1,0,0:0:0:0:
152,202,36043,1,0,0:0:0:0:
152,202,36231,2,0,B|233:170,1,86.2500032901765
335,138,36606,5,0,0:0:0:0:
463,310,36793,1,0,0:0:0:0:
217,245,36981,2,0,P|238:266|268:265,1,57.5
347,293,37168,5,0,0:0:0:0:
341,300,37262,1,0,0:0:0:0:
334,307,37356,1,0,0:0:0:0:
328,313,37449,1,0,0:0:0:0:
322,320,37543,1,0,0:0:0:0:
316,328,37637,1,0,0:0:0:0:
310,334,37731,2,0,B|272:304|272:304|226:325|226:325,1,86.2500032901765
158,230,38106,6,0,B|175:208|175:208|213:220|213:220|235:194|235:194,1,86.2500032901765
312,140,38481,1,4,0:0:0:0:
428,229,38668,1,0,0:0:0:0:
425,52,38856,1,0,0:0:0:0:
312,140,39043,1,0,0:0:0:0:
311,139,39231,2,0,B|250:112|189:146,1,115
76,184,39606,5,0,0:0:0:0:
86,188,39699,1,0,0:0:0:0:
96,192,39793,1,0,0:0:0:0:
105,196,39887,1,0,0:0:0:0:
169,223,39981,5,4,0:0:0:0:
284,311,40168,1,0,0:0:0:0:
283,140,40356,1,0,0:0:0:0:
169,223,40543,1,0,0:0:0:0:
169,223,40731,2,0,B|230:212|281:235,1,115
387,270,41106,5,0,0:0:0:0:
299,123,41293,1,0,0:0:0:0:
299,123,41387,1,0,0:0:0:0:
299,123,41481,1,0,0:0:0:0:
207,243,41668,1,0,0:0:0:0:
436,314,41856,1,0,0:0:0:0:
300,46,42043,1,0,0:0:0:0:
161,312,42231,6,0,B|189:334|189:334|252:302,1,57.5
395,233,42418,1,0,0:0:0:0:
192,195,42606,1,0,0:0:0:0:
342,99,42793,1,0,0:0:0:0:
182,61,42981,6,0,L|262:151,1,115
439,120,43262,1,0,0:0:0:0:
439,120,43356,2,0,L|325:213,1,115
382,339,43637,1,0,0:0:0:0:
378,334,43731,2,0,L|295:254,1,115
189,177,44106,1,0,0:0:0:0:
267,225,44293,1,0,0:0:0:0:
264,306,44481,5,0,0:0:0:0:
168,247,44668,2,0,P|118:209|119:142,1,115
117,151,45043,1,0,0:0:0:0:
114,179,45136,1,0,0:0:0:0:
125,206,45230,1,0,0:0:0:0:
321,278,45418,1,0,0:0:0:0:
200,278,45606,1,0,0:0:0:0:
321,278,45793,5,0,0:0:0:0:
369,250,45886,1,0,0:0:0:0:
376,195,45980,1,0,0:0:0:0:
455,107,46168,5,0,0:0:0:0:
438,83,46261,1,0,0:0:0:0:
418,63,46355,1,0,0:0:0:0:
394,47,46449,1,0,0:0:0:0:
367,36,46543,1,0,0:0:0:0:
342,22,46637,2,0,B|309:16|309:16|288:40,1,57.5
194,139,46918,5,0,0:0:0:0:
224,122,47011,1,0,0:0:0:0:
259,119,47105,1,0,0:0:0:0:
291,131,47199,1,0,0:0:0:0:
315,157,47293,1,0,0:0:0:0:
322,164,47387,1,0,0:0:0:0:
328,171,47481,6,0,P|271:212|217:197,1,115
98,144,47856,1,0,0:0:0:0:
77,164,47949,1,0,0:0:0:0:
71,191,48043,1,0,0:0:0:0:
79,217,48137,2,0,B|117:210|117:210|148:182,1,57.5
222,89,48418,5,0,0:0:0:0:
238,65,48512,1,0,0:0:0:0:
265,58,48606,1,0,0:0:0:0:
293,62,48699,1,0,0:0:0:0:
321,69,48793,1,0,0:0:0:0:
348,75,48887,1,0,0:0:0:0:
376,82,48981,6,0,P|417:139|402:193,1,115
318,263,49356,1,0,0:0:0:0:
161,212,49543,1,0,0:0:0:0:
154,196,49637,1,0,0:0:0:0:
149,184,49731,1,0,0:0:0:0:
114,48,49918,5,0,0:0:0:0:
114,48,50012,2,0,P|97:107|128:128,1,57.5
161,212,50293,1,0,0:0:0:0:
161,212,50387,1,0,0:0:0:0:
161,212,50481,2,0,B|153:156|153:156|232:132,1,115
341,114,50856,5,0,0:0:0:0:
289,35,51043,1,0,0:0:0:0:
289,35,51137,2,0,L|225:35,1,57.5
178,119,51418,2,0,L|235:119,2,57.5
136,41,51793,1,0,0:0:0:0:
91,65,51886,1,0,0:0:0:0:
78,110,51980,1,0,0:0:0:0:
129,203,52167,5,0,0:0:0:0:
154,206,52261,1,0,0:0:0:0:
177,218,52355,1,0,0:0:0:0:
199,231,52449,1,0,0:0:0:0:
223,242,52542,1,0,0:0:0:0:
248,249,52637,2,0,B|282:253|282:253|305:230,1,57.5
435,161,52918,5,0,0:0:0:0:
420,129,53011,1,0,0:0:0:0:
395,107,53105,1,0,0:0:0:0:
361,112,53199,1,0,0:0:0:0:
329,123,53293,1,0,0:0:0:0:
295,120,53387,2,0,B|257:110|257:110|215:131,1,57.5
94,200,53668,5,0,0:0:0:0:
119,217,53761,1,0,0:0:0:0:
142,237,53855,1,0,0:0:0:0:
162,261,53949,1,0,0:0:0:0:
176,289,54043,1,0,0:0:0:0:
184,319,54136,1,0,0:0:0:0:
185,349,54230,5,0,0:0:0:0:
215,344,54324,1,0,0:0:0:0:
245,337,54418,1,0,0:0:0:0:
275,329,54511,1,0,0:0:0:0:
304,318,54605,1,0,0:0:0:0:
331,303,54699,1,0,0:0:0:0:
356,285,54793,1,0,0:0:0:0:
375,261,54887,2,0,B|396:229|396:229|390:188,1,57.5
329,77,55168,5,0,0:0:0:0:
147,97,55356,1,0,0:0:0:0:
252,225,55543,1,0,0:0:0:0:
252,225,55637,1,0,0:0:0:0:
252,225,55731,1,0,0:0:0:0:
144,96,56106,2,0,B|216:74|272:128,1,115
340,190,56481,5,0,0:0:0:0:
248,144,56668,1,0,0:0:0:0:
251,281,56856,1,0,0:0:0:0:
340,190,57043,1,0,0:0:0:0:
248,144,57231,1,0,0:0:0:0:
248,144,57324,1,0,0:0:0:0:
248,144,57418,1,0,0:0:0:0:
408,130,57606,1,0,0:0:0:0:
390,249,57793,5,0,0:0:0:0:
372,258,57887,1,0,0:0:0:0:
354,268,57981,1,0,0:0:0:0:
164,312,58168,1,0,0:0:0:0:
288,78,58356,1,0,0:0:0:0:
390,249,58543,1,0,0:0:0:0:
164,312,58731,1,0,0:0:0:0:
164,312,58824,1,0,0:0:0:0:
164,312,58918,1,0,0:0:0:0:
343,240,59106,1,0,0:0:0:0:
369,63,59293,5,0,0:0:0:0:
356,78,59387,1,0,0:0:0:0:
345,93,59481,1,0,0:0:0:0:
186,210,59668,1,0,0:0:0:0:
386,296,59856,1,0,0:0:0:0:
226,52,60043,1,0,0:0:0:0:
226,52,60137,2,0,B|257:62|257:62|276:102,1,57.5
342,155,60418,1,0,0:0:0:0:
307,227,60606,1,0,0:0:0:0:
233,251,60793,1,0,0:0:0:0:
136,190,60981,6,0,P|188:243|251:245,1,115
396,219,61356,1,0,0:0:0:0:
284,115,61543,1,0,0:0:0:0:
135,188,61731,1,0,0:0:0:0:
147,214,61824,1,0,0:0:0:0:
166,231,61918,1,0,0:0:0:0:
190,240,62012,1,0,0:0:0:0:
217,238,62106,1,0,0:0:0:0:
255,97,62481,5,0,0:0:0:0:
133,163,62668,1,0,0:0:0:0:
257,305,62856,1,0,0:0:0:0:
255,97,63043,1,0,0:0:0:0:
133,163,63231,1,0,0:0:0:0:
133,163,63324,1,0,0:0:0:0:
133,163,63418,1,0,0:0:0:0:
328,139,63606,1,0,0:0:0:0:
399,272,63793,5,0,0:0:0:0:
374,278,63887,1,0,0:0:0:0:
350,283,63981,1,0,0:0:0:0:
153,292,64168,1,0,0:0:0:0:
271,44,64356,1,0,0:0:0:0:
399,272,64543,1,0,0:0:0:0:
153,292,64731,1,0,0:0:0:0:
153,292,64824,1,0,0:0:0:0:
153,292,64918,1,0,0:0:0:0:
65,181,65106,1,0,0:0:0:0:
145,76,65293,5,0,0:0:0:0:
162,85,65387,1,0,0:0:0:0:
181,93,65481,1,0,0:0:0:0:
355,143,65668,1,0,0:0:0:0:
161,210,65856,1,0,0:0:0:0:
332,257,66043,5,0,0:0:0:0:
315,246,66137,1,0,0:0:0:0:
301,236,66231,1,0,0:0:0:0:
152,108,66418,1,0,0:0:0:0:
400,172,66606,1,0,0:0:0:0:
158,274,66793,1,0,0:0:0:0:
389,314,66981,6,0,L|338:219,1,57.5
322,168,67168,1,0,0:0:0:0:
139,314,67356,2,0,L|191:216,1,57.5
228,169,67543,1,0,0:0:0:0:
391,76,67731,5,0,0:0:0:0:
141,137,67918,1,0,0:0:0:0:
158,149,68012,1,0,0:0:0:0:
176,161,68106,1,0,0:0:0:0:
304,242,68293,1,0,0:0:0:0:
182,150,68481,5,0,0:0:0:0:
289,93,68668,1,0,0:0:0:0:
286,265,68856,1,0,0:0:0:0:
182,151,69043,1,0,0:0:0:0:
289,93,69231,1,0,0:0:0:0:
289,93,69324,1,0,0:0:0:0:
289,93,69418,1,0,0:0:0:0:
201,26,69606,1,0,0:0:0:0:
119,106,69793,5,0,0:0:0:0:
137,118,69887,1,0,0:0:0:0:
156,130,69981,1,0,0:0:0:0:
255,322,70168,1,0,0:0:0:0:
354,58,70356,1,0,0:0:0:0:
119,106,70543,1,0,0:0:0:0:
255,322,70731,1,0,0:0:0:0:
255,322,70824,1,0,0:0:0:0:
255,322,70918,1,0,0:0:0:0:
141,205,71106,1,0,0:0:0:0:
203,61,71293,5,0,0:0:0:0:
214,73,71387,1,0,0:0:0:0:
224,83,71481,1,0,0:0:0:0:
390,185,71668,1,0,0:0:0:0:
217,321,71856,1,0,0:0:0:0:
328,57,72043,1,0,0:0:0:0:
328,57,72137,2,0,B|297:67|297:67|278:107,1,57.5
236,163,72418,1,0,0:0:0:0:
297,227,72606,1,0,0:0:0:0:
382,207,72793,1,0,0:0:0:0:
444,171,72981,6,0,P|392:224|329:226,1,115
240,169,73356,1,0,0:0:0:0:
346,73,73543,1,0,0:0:0:0:
444,171,73731,1,0,0:0:0:0:
428,194,73824,1,0,0:0:0:0:
402,211,73918,1,0,0:0:0:0:
379,222,74012,1,0,0:0:0:0:
354,230,74106,1,0,0:0:0:0:
92,247,74481,5,0,0:0:0:0:
174,113,74668,1,0,0:0:0:0:
274,312,74856,1,0,0:0:0:0:
218,215,75043,1,0,0:0:0:0:
320,116,75231,1,0,0:0:0:0:
320,116,75324,1,0,0:0:0:0:
320,116,75418,1,0,0:0:0:0:
434,194,75606,1,0,0:0:0:0:
386,298,75793,5,0,0:0:0:0:
374,286,75887,1,0,0:0:0:0:
362,274,75981,1,0,0:0:0:0:
295,126,76168,1,0,0:0:0:0:
212,297,76356,1,0,0:0:0:0:
159,156,76543,1,0,0:0:0:0:
71,308,76731,1,0,0:0:0:0:
71,308,76824,1,0,0:0:0:0:
71,308,76918,1,0,0:0:0:0:
30,197,77106,1,0,0:0:0:0:
101,117,77294,5,0,0:0:0:0:
114,114,77387,1,0,0:0:0:0:
127,112,77481,1,0,0:0:0:0:
310,167,77668,1,0,0:0:0:0:
101,117,77856,1,0,0:0:0:0:
310,167,78043,5,0,0:0:0:0:
297,169,78137,1,0,0:0:0:0:
284,172,78231,1,0,0:0:0:0:
131,214,78418,1,0,0:0:0:0:
252,280,78606,1,0,0:0:0:0:
170,327,78793,1,0,0:0:0:0:
63,217,78981,5,0,0:0:0:0:
74,202,79168,1,0,0:0:0:0:
190,214,79356,1,0,0:0:0:0:
179,226,79543,1,0,0:0:0:0:
277,222,79731,1,0,0:0:0:0:
436,215,80106,5,0,0:0:0:0:
189,75,85356,6,0,P|236:48|294:61,1,115
386,136,85731,1,0,0:0:0:0:
405,156,85824,1,0,0:0:0:0:
406,184,85918,1,0,0:0:0:0:
397,211,86012,1,0,0:0:0:0:
375,230,86106,1,0,0:0:0:0:
252,284,86293,5,0,0:0:0:0:
243,267,86387,1,0,0:0:0:0:
233,249,86481,1,0,0:0:0:0:
283,153,86668,1,0,0:0:0:0:
300,135,86856,1,0,0:0:0:0:
168,161,87043,1,0,0:0:0:0:
152,148,87231,1,0,0:0:0:0:
315,270,87418,1,0,0:0:0:0:
326,283,87606,1,0,0:0:0:0:
219,106,87793,1,0,0:0:0:0:
212,84,87981,6,0,P|266:62|280:75,1,57.5
288,68,88168,1,0,0:0:0:0:
309,76,88262,1,0,0:0:0:0:
330,84,88356,1,0,0:0:0:0:
207,231,88543,5,0,0:0:0:0:
312,148,88731,1,0,0:0:0:0:
313,235,88918,1,0,0:0:0:0:
208,146,89106,1,0,0:0:0:0:
137,311,89293,5,0,0:0:0:0:
362,92,89481,1,0,0:0:0:0:
365,317,89668,1,0,0:0:0:0:
144,91,89856,1,0,0:0:0:0:
343,185,90043,5,0,0:0:0:0:
343,185,90231,2,0,L|232:250,1,115
270,170,90606,2,0,L|157:235,1,115
136,151,90981,6,0,P|150:110|189:83,1,57.5
187,92,91168,1,0,0:0:0:0:
210,87,91262,1,0,0:0:0:0:
232,85,91355,1,0,0:0:0:0:
254,82,91449,1,0,0:0:0:0:
275,78,91543,1,0,0:0:0:0:
296,72,91637,1,0,0:0:0:0:
317,63,91730,1,0,0:0:0:0:
337,54,91824,1,0,0:0:0:0:
351,59,91918,1,0,0:0:0:0:
359,79,92012,1,0,0:0:0:0:
366,95,92106,2,0,P|378:174|342:195,1,115
121,137,92481,6,0,P|84:200|104:251,1,115
220,170,93137,1,0,0:0:0:0:
220,170,93231,2,0,P|243:207|221:278,1,115
399,160,93793,1,0,0:0:0:0:
413,138,93981,6,0,P|385:70|327:56,1,115
125,78,94543,1,0,0:0:0:0:
146,108,94731,2,0,L|189:157,1,57.5
234,105,95106,2,0,L|276:146,1,57.5
400,150,95481,6,0,P|440:209|415:259,1,115
285,200,96137,1,0,0:0:0:0:
285,200,96231,2,0,P|261:250|306:300,1,115
72,85,96793,1,0,0:0:0:0:
80,165,96981,5,0,0:0:0:0:
103,180,97074,1,0,0:0:0:0:
130,173,97168,1,0,0:0:0:0:
153,163,97262,1,0,0:0:0:0:
214,107,97356,5,0,0:0:0:0:
214,79,97449,1,0,0:0:0:0:
235,61,97543,1,0,0:0:0:0:
257,58,97637,1,0,0:0:0:0:
337,56,97731,5,0,0:0:0:0:
336,84,97824,1,0,0:0:0:0:
335,112,97918,1,0,0:0:0:0:
335,140,98012,1,0,0:0:0:0:
335,161,98106,2,0,P|303:202|249:210,1,86.2500032901765
155,203,98481,6,0,L|104:173,3,43.1250016450883
159,278,98856,2,0,L|115:309,3,43.1250016450883
182,171,99231,2,0,L|137:136,3,43.1250016450883
209,303,99606,2,0,L|159:343,3,57.5
210,137,99981,5,0,0:0:0:0:
240,102,100074,1,0,0:0:0:0:
281,81,100168,1,0,0:0:0:0:
326,76,100262,1,0,0:0:0:0:
369,90,100356,1,0,0:0:0:0:
311,161,100543,1,0,0:0:0:0:
399,185,100731,5,0,0:0:0:0:
369,220,100824,1,0,0:0:0:0:
328,241,100918,1,0,0:0:0:0:
283,246,101012,1,0,0:0:0:0:
240,232,101106,1,0,0:0:0:0:
157,191,101293,1,0,0:0:0:0:
115,273,101481,6,0,L|39:273,3,57.5
175,340,101856,2,0,L|95:340,3,57.5
186,273,102231,1,0,0:0:0:0:
231,274,102324,1,0,0:0:0:0:
277,274,102418,1,0,0:0:0:0:
323,276,102512,1,0,0:0:0:0:
369,276,102606,1,0,0:0:0:0:
367,184,102793,5,0,0:0:0:0:
428,113,102981,2,0,P|399:50|354:47,1,115
280,89,103356,2,0,P|257:145|305:178,1,115
378,171,103731,1,0,0:0:0:0:
360,45,103918,1,0,0:0:0:0:
257,128,104106,1,0,0:0:0:0:
107,263,104481,6,0,P|70:187|89:105,1,172.500006580353
239,276,105043,1,0,0:0:0:0:
253,273,105137,1,0,0:0:0:0:
264,271,105231,1,0,0:0:0:0:
184,187,105418,1,0,0:0:0:0:
318,122,105606,1,0,0:0:0:0:
106,81,105793,1,0,0:0:0:0:
206,81,105982,6,0,P|256:90|276:129,1,86.2500032901765
274,134,106262,1,0,0:0:0:0:
257,173,106356,1,0,0:0:0:0:
252,215,106449,1,0,0:0:0:0:
272,253,106543,1,0,0:0:0:0:
300,285,106637,1,0,0:0:0:0:
341,296,106731,6,0,P|278:324|221:302,1,129.375004935265
190,276,107106,2,0,P|171:215|198:159,1,129.375004935265
254,112,107481,6,0,P|192:84|153:99,1,86.2500032901765
141,112,107762,1,0,0:0:0:0:
117,147,107855,1,0,0:0:0:0:
113,190,107949,1,0,0:0:0:0:
123,232,108043,1,0,0:0:0:0:
155,260,108137,1,0,0:0:0:0:
191,282,108231,6,0,P|213:330|275:298,1,129.375004935265
292,269,108606,2,0,P|349:254|366:311,1,129.375004935265,0|0,0:3|0:3,0:3:0:0:
443,236,108981,6,0,P|489:193|451:150,1,129.375004935265
418,126,109356,5,0,0:0:0:0:
382,149,109449,1,0,0:0:0:0:
338,148,109543,1,0,0:0:0:0:
306,118,109637,1,0,0:0:0:0:
273,89,109731,2,0,P|234:108|271:142,1,86.2500032901765
222,222,110106,2,0,P|259:247|295:209,1,86.2500032901765
342,296,110481,6,0,P|312:341|201:307,1,172.500006580353
114,270,111043,1,0,0:0:0:0:
128,268,111137,1,0,0:0:0:0:
139,267,111231,1,0,0:0:0:0:
161,166,111418,1,0,0:0:0:0:
244,103,111606,1,0,0:0:0:0:
334,153,111793,1,0,0:0:0:0:
306,279,111981,6,0,P|363:301|400:277,1,86.2500032901765
366,253,112262,1,0,0:0:0:0:
334,223,112356,1,0,0:0:0:0:
321,180,112449,1,0,0:0:0:0:
336,139,112543,1,0,0:0:0:0:
360,103,112637,1,0,0:0:0:0:
399,82,112731,6,0,P|342:78|284:33,1,129.375004935265
240,114,113106,2,0,P|183:110|125:65,1,129.375004935265
68,180,113481,6,0,P|125:184|148:204,1,86.2500032901765
168,238,113762,1,0,0:0:0:0:
190,274,113856,1,0,0:0:0:0:
226,296,113949,1,0,0:0:0:0:
280,287,114043,1,0,0:0:0:0:
310,255,114137,1,0,0:0:0:0:
313,211,114231,5,0,0:0:0:0:
332,172,114324,1,0,0:0:0:0:
368,149,114418,1,0,0:0:0:0:
409,159,114512,1,0,0:0:0:0:
441,187,114606,1,0,0:0:0:0:
443,229,114699,1,0,0:0:0:0:
429,270,114793,1,0,0:0:0:0:
392,293,114887,1,0,0:0:0:0:
352,305,114981,2,0,P|301:301|257:272,1,86.2500032901765
256,192,115356,12,0,116106,0:0:0:0:
311,255,116481,5,0,0:0:0:0:
287,155,116668,1,0,0:0:0:0:
184,245,116856,1,0,0:0:0:0:
311,255,117043,1,0,0:0:0:0:
287,155,117231,1,0,0:0:0:0:
287,155,117324,1,0,0:0:0:0:
287,155,117418,1,0,0:0:0:0:
404,234,117606,1,0,0:0:0:0:
298,331,117793,5,0,0:0:0:0:
280,323,117887,1,0,0:0:0:0:
260,315,117981,1,0,0:0:0:0:
104,198,118168,1,0,0:0:0:0:
363,143,118356,1,0,0:0:0:0:
298,331,118543,1,0,0:0:0:0:
104,198,118731,1,0,0:0:0:0:
104,198,118824,1,0,0:0:0:0:
104,198,118918,1,0,0:0:0:0:
262,195,119106,1,0,0:0:0:0:
427,195,119293,5,0,0:0:0:0:
407,195,119387,1,0,0:0:0:0:
389,196,119481,1,0,0:0:0:0:
197,149,119668,1,0,0:0:0:0:
259,358,119856,1,0,0:0:0:0:
343,79,120043,1,0,0:0:0:0:
343,79,120137,2,0,B|356:109|356:109|337:149,1,57.5
339,234,120418,1,0,0:0:0:0:
261,253,120606,1,0,0:0:0:0:
196,212,120793,1,0,0:0:0:0:
180,98,120981,6,0,P|173:172|212:222,1,115
330,277,121356,1,0,0:0:0:0:
346,118,121543,1,0,0:0:0:0:
180,98,121731,1,0,0:0:0:0:
171,125,121824,1,0,0:0:0:0:
175,153,121918,1,0,0:0:0:0:
188,178,122012,1,0,0:0:0:0:
211,194,122106,1,0,0:0:0:0:
328,130,122481,5,0,0:0:0:0:
199,79,122668,1,0,0:0:0:0:
170,265,122856,1,0,0:0:0:0:
328,130,123043,1,0,0:0:0:0:
199,79,123231,1,0,0:0:0:0:
199,79,123324,1,0,0:0:0:0:
199,79,123418,1,0,0:0:0:0:
246,200,123606,1,0,0:0:0:0:
286,352,123793,5,0,0:0:0:0:
265,337,123887,1,0,0:0:0:0:
246,322,123981,1,0,0:0:0:0:
113,177,124168,1,0,0:0:0:0:
379,108,124356,1,0,0:0:0:0:
286,352,124543,1,0,0:0:0:0:
113,177,124731,1,0,0:0:0:0:
113,177,124824,1,0,0:0:0:0:
113,177,124918,1,0,0:0:0:0:
132,53,125106,1,0,0:0:0:0:
273,32,125293,5,0,0:0:0:0:
277,51,125387,1,0,0:0:0:0:
283,70,125481,1,0,0:0:0:0:
357,236,125668,1,0,0:0:0:0:
181,130,125856,1,0,0:0:0:0:
255,292,126043,5,0,0:0:0:0:
252,271,126137,1,0,0:0:0:0:
251,254,126231,1,0,0:0:0:0:
354,54,126418,1,0,0:0:0:0:
357,310,126606,1,0,0:0:0:0:
256,170,126793,1,0,0:0:0:0:
150,307,126981,6,0,L|234:260,1,57.5
277,231,127168,1,0,0:0:0:0:
149,63,127356,2,0,L|231:110,1,57.5
276,132,127543,1,0,0:0:0:0:
431,220,127731,5,0,0:0:0:0:
224,68,127918,1,0,0:0:0:0:
225,89,128012,1,0,0:0:0:0:
228,110,128106,1,0,0:0:0:0:
248,260,128293,1,0,0:0:0:0:
176,221,128481,5,0,0:0:0:0:
201,103,128668,1,0,0:0:0:0:
331,215,128856,1,0,0:0:0:0:
177,222,129043,1,0,0:0:0:0:
201,103,129231,1,0,0:0:0:0:
201,103,129324,1,0,0:0:0:0:
201,103,129418,1,0,0:0:0:0:
54,133,129606,1,0,0:0:0:0:
102,241,129793,5,0,0:0:0:0:
122,235,129887,1,0,0:0:0:0:
144,228,129981,1,0,0:0:0:0:
354,276,130168,1,0,0:0:0:0:
216,30,130356,1,0,0:0:0:0:
102,241,130543,1,0,0:0:0:0:
354,276,130731,1,0,0:0:0:0:
354,276,130824,1,0,0:0:0:0:
354,276,130918,1,0,0:0:0:0:
161,298,131106,1,0,0:0:0:0:
121,148,131293,5,0,0:0:0:0:
137,147,131387,1,0,0:0:0:0:
151,146,131481,1,0,0:0:0:0:
336,84,131668,1,0,0:0:0:0:
329,304,131856,1,0,0:0:0:0:
198,50,132043,1,0,0:0:0:0:
198,50,132137,2,0,B|186:80|186:80|205:120,1,57.5
220,188,132418,1,0,0:0:0:0:
309,183,132606,1,0,0:0:0:0:
348,105,132793,1,0,0:0:0:0:
360,34,132981,6,0,P|367:108|328:157,1,115
228,189,133356,1,0,0:0:0:0:
215,48,133543,1,0,0:0:0:0:
360,34,133731,1,0,0:0:0:0:
368,61,133824,1,0,0:0:0:0:
371,89,133918,1,0,0:0:0:0:
363,116,134012,1,0,0:0:0:0:
347,140,134106,1,0,0:0:0:0:
189,187,134481,5,0,0:0:0:0:
293,136,134668,1,0,0:0:0:0:
286,289,134856,1,0,0:0:0:0:
189,187,135043,1,0,0:0:0:0:
293,136,135231,1,0,0:0:0:0:
293,136,135324,1,0,0:0:0:0:
293,136,135418,1,0,0:0:0:0:
129,151,135606,1,0,0:0:0:0:
118,294,135793,5,0,0:3:0:0:
136,285,135887,1,0,0:3:0:0:
153,278,135981,1,0,0:3:0:0:
348,197,136168,1,0,0:0:0:0:
224,97,136356,1,0,0:0:0:0:
118,294,136543,1,0,0:0:0:0:
348,197,136731,1,0,0:0:0:0:
348,197,136824,1,0,0:0:0:0:
348,197,136918,1,0,0:0:0:0:
217,296,137106,1,0,0:0:0:0:
116,165,137293,5,0,0:0:0:0:
131,173,137386,1,0,0:0:0:0:
143,180,137480,1,0,0:0:0:0:
335,179,137668,1,0,0:0:0:0:
170,313,137856,1,0,0:0:0:0:
143,180,138043,5,0,0:0:0:0:
131,173,138137,1,0,0:0:0:0:
116,165,138230,1,0,0:0:0:0:
215,61,138418,1,0,0:0:0:0:
344,109,138606,1,0,0:0:0:0:
383,227,138793,1,0,0:0:0:0:
312,307,138981,6,0,B|292:325|292:325|254:310,1,57.5
238,297,139168,1,0,0:0:0:0:
182,286,139261,1,0,0:0:0:0:
138,249,139355,1,0,0:0:0:0:
119,196,139449,1,0,0:0:0:0:
129,140,139543,1,0,0:0:0:0:
166,96,139636,1,0,0:0:0:0:
219,77,139731,2,0,P|311:74|369:137,1,172.500006580353
350,286,140293,5,0,0:0:0:0:
334,274,140387,1,0,0:0:0:0:
321,262,140481,1,0,0:0:0:0:
161,231,140668,1,0,0:0:0:0:
284,101,140856,1,0,0:0:0:0:
350,286,141043,1,0,0:0:0:0:
177,127,141231,5,0,0:0:0:0:
242,327,141418,1,0,0:0:0:0:
375,175,141606,1,0,0:0:0:0:
177,127,141793,1,0,0:0:0:0:
347,270,141981,5,0,0:0:0:0:
335,288,142168,1,0,0:0:0:0:
246,206,142356,1,0,0:0:0:0:
258,188,142543,1,0,0:0:0:0:
161,110,142731,1,0,0:0:0:0:
256,192,142918,12,0,143481,0:0:0:0:
