osu file format v14

[General]
AudioFilename: audio.mp3
AudioLeadIn: 0
PreviewTime: 56481
Countdown: 1
SampleSet: Soft
StackLeniency: 0.7
Mode: 0
LetterboxInBreaks: 0
WidescreenStoryboard: 1

[Editor]
Bookmarks: 2483,8483,14483,20483,26483,32483,38483,44483,50483,56483,62483,68483,74483,80483,86483,92483,98483,104483,110483,116483,122483,128483,134483,140483
DistanceSpacing: 0.7
BeatDivisor: 4
GridSize: 16
TimelineZoom: 1

[Metadata]
Title:Quo Vadis
TitleUnicode:Quo Vadis
Artist:M2U
ArtistUnicode:M2U
Creator:-Smine-
Version:Extra
Source:
Tags:Melody BMS
BeatmapID:1856715
BeatmapSetID:615012

[Difficulty]
HPDrainRate:7
CircleSize:4.5
OverallDifficulty:6
ApproachRate:9
SliderMultiplier:1.9
SliderTickRate:1

[Events]
//Background and Video events
0,0,"Cola.Gotouryouta.full.116646.jpg",0,0
//Break Periods
2,80308,84383
//Storyboard Layer 0 (Background)
//Storyboard Layer 1 (Fail)
//Storyboard Layer 2 (Pass)
//Storyboard Layer 3 (Foreground)
//Storyboard Sound Samples

[TimingPoints]
2483,375,4,2,0,100,1,0
2483,-133.333333333333,4,2,0,100,0,0
8483,-100,4,2,0,100,0,0
15895,-66.6666666666667,4,2,0,100,0,0
17108,-100,4,2,0,100,0,0
32108,-66.6666666666667,4,2,0,100,0,0
32483,-100,4,2,0,100,0,0
42983,-66.6666666666667,4,2,0,100,0,0
44483,-100,4,2,0,100,0,0
49920,-66.6666666666667,4,2,0,100,0,0
50295,-100,4,2,0,100,0,0
54983,-66.6666666666667,4,2,0,100,0,0
56483,-100,4,2,0,100,0,1
60233,-66.6666666666667,4,2,0,100,0,1
60983,-100,4,2,0,100,0,1
66233,-66.6666666666667,4,2,0,100,0,1
66983,-100,4,2,0,100,0,1
72233,-66.6666666666667,4,2,0,100,0,1
72983,-100,4,2,0,100,0,1
78233,-66.6666666666667,4,2,0,100,0,1
78983,-100,4,2,0,100,0,1
80108,-100,4,2,0,100,0,0

[Colours]
Combo1 : 255,0,0
Combo2 : 255,128,0
Combo3 : 158,215,40
Combo4 : 241,141,239

[HitObjects]
76,333,2483,6,0,P|136:312|199:314,1,106.875004076958,0|0,0:0|0:0,0:0:0:0:
210,315,2858,1,0,0:0:0:0:
332,353,3045,2,0,P|307:296|325:241,1,106.875004076958,0|0,0:0|0:0,0:0:0:0:
336,229,3420,1,0,0:0:0:0:
377,155,3608,2,0,P|425:161|465:189,1,71.2500027179719,0|0,0:0|0:0,0:0:0:0:
461,32,3983,6,0,L|351:37,1,106.875004076958,0|0,0:0|0:0,0:0:0:0:
322,39,4358,1,0,0:0:0:0:
226,76,4545,2,0,P|270:106|274:159,1,106.875004076958,0|0,0:0|0:0,0:0:0:0:
251,177,4920,2,0,L|251:220,1,35.625001358986,0|0,0:0|0:0,0:0:0:0:
177,262,5108,2,0,L|177:227,1,35.625001358986
177,149,5295,1,0,0:0:0:0:
43,204,5483,6,0,P|56:256|47:317,1,106.875004076958
47,333,5858,1,0,0:0:0:0:
149,368,6045,2,0,P|201:349|213:290,1,106.875004076958
217,271,6420,1,0,0:0:0:0:
343,238,6608,2,0,P|335:285|352:332,1,71.2500027179719
479,157,6983,6,0,L|479:205,1,35.625001358986,0|0,0:0|0:0,0:0:0:0:
411,48,7170,2,0,L|411:0,1,35.625001358986,0|0,0:0|0:0,0:0:0:0:
361,170,7358,2,0,P|316:170|272:142,1,71.2500027179719,0|0,0:0|0:0,0:0:0:0:
166,56,7733,2,0,L|128:56,1,35.625001358986
19,133,7920,2,0,L|57:133,1,35.625001358986
201,204,8108,2,0,P|162:200|118:214,1,71.2500027179719
111,223,8389,1,0,0:0:0:0:
111,223,8483,6,0,P|161:228|215:300,1,142.5
214,331,8858,1,0,0:0:0:0:
331,274,9045,2,0,P|366:312|455:315,1,142.5
481,302,9420,1,0,0:0:0:0:
435,212,9608,2,0,P|392:202|367:178,1,47.5,0|0,0:0|0:0,0:0:0:0:
326,101,9795,2,0,P|369:111|394:135,1,47.5,0|0,0:0|0:0,0:0:0:0:
245,133,9983,6,0,P|192:87|193:30,1,95,0|0,0:0|0:0,0:0:0:0:
178,33,10264,1,0,0:0:0:0:
178,33,10358,2,0,P|135:64|76:63,1,95,0|0,0:0|0:0,0:0:0:0:
50,148,10733,2,0,L|44:228,1,47.5,0|0,0:0|0:0,0:0:0:0:
45,228,10920,1,0,0:0:0:0:
145,315,11108,2,0,L|139:235,1,47.5,0|0,0:0|0:0,0:0:0:0:
140,235,11295,1,0,0:0:0:0:
237,292,11483,6,0,B|280:292|280:292|308:356|392:334,1,142.5
399,339,11858,1,0,0:0:0:0:
473,147,12045,2,0,P|405:175|359:243,1,142.5
353,262,12420,1,0,0:0:0:0:
215,213,12608,2,0,P|258:193|284:151,1,95
166,314,12983,6,0,L|111:320,1,47.5,0|0,0:0|0:0,0:0:0:0:
46,227,13170,2,0,L|42:169,1,47.5,0|0,0:0|0:0,0:0:0:0:
112,106,13358,2,0,L|115:153,1,47.5,0|0,0:0|0:0,0:0:0:0:
196,209,13545,2,0,L|192:161,1,47.5,0|0,0:0|0:0,0:0:0:0:
253,45,13733,2,0,L|256:92,1,47.5,0|0,0:0|0:0,0:0:0:0:
340,246,13920,2,0,L|336:198,1,47.5,0|0,0:0|0:0,0:0:0:0:
409,25,14108,2,0,B|413:78|413:78|436:119|436:119|441:201,1,142.5,0|0,0:0|0:0,0:0:0:0:
443,194,14483,6,0,B|446:248|446:248|498:298,1,95,0|0,0:0|0:0,0:0:0:0:
314,310,14858,2,0,P|277:304|243:316,1,47.5,0|0,0:0|0:0,0:0:0:0:
161,362,15045,2,0,P|198:368|232:356,1,47.5,0|0,0:0|0:0,0:0:0:0:
117,296,15233,2,0,P|93:250|32:235,1,95,0|0,0:0|0:0,0:0:0:0:
104,81,15608,2,0,P|128:127|189:142,1,95,0|0,0:0|0:0,0:0:0:0:
199,139,15889,1,0,0:0:0:0:
199,139,15983,38,0,P|279:150|330:192,1,142.500005435944
348,321,16264,1,0,0:0:0:0:
348,321,16358,2,0,P|317:246|328:181,1,142.500005435944
431,101,16639,1,0,0:0:0:0:
431,101,16733,2,0,P|381:164|319:187,1,142.500005435944
228,277,17014,1,0,0:0:0:0:
228,277,17108,2,0,L|145:281,1,47.5,0|0,0:0|0:0,0:0:0:0:
85,355,17295,2,0,L|168:351,1,47.5,0|0,0:0|0:0,0:0:0:0:
54,273,17483,2,0,P|84:227|74:188,1,95
75,162,17764,1,0,0:0:0:0:
75,162,17858,2,0,L|16:162,1,47.5
118,71,18045,2,0,L|165:71,1,47.5
274,160,18233,2,0,L|226:160,1,47.5
187,297,18420,2,0,L|228:273,1,47.5
364,254,18608,2,0,L|340:295,1,47.5
441,380,18795,2,0,L|441:332,1,47.5
447,193,18983,21,0,0:0:0:0:
257,153,19170,1,0,0:0:0:0:
432,74,19358,1,0,0:0:0:0:
337,241,19545,1,0,0:0:0:0:
317,49,19733,2,0,P|267:49|238:8,1,95
54,56,20108,2,0,P|92:23|137:44,1,95
195,118,20483,6,0,P|217:162|202:236,1,95
54,262,20858,2,0,P|98:240|172:255,1,95
207,287,21233,2,0,P|206:341|285:351,1,142.5
303,330,21608,2,0,L|367:330,1,47.5
426,255,21795,2,0,L|362:255,1,47.5
298,223,21983,22,0,P|281:167|288:120,1,95
458,54,22358,2,0,P|402:71|355:64,1,95,0|0,0:0|0:0,0:0:0:0:
278,31,22733,2,0,B|223:52|175:30|175:30|148:75,1,142.5,0|0,0:0|0:0,0:0:0:0:
145,92,23108,2,0,L|93:92,1,47.5
9,172,23295,2,0,L|61:172,1,47.5
129,174,23483,6,0,P|109:224|41:241,1,95
38,336,23858,2,0,B|88:336|88:336|98:340|98:340|167:340,1,95
252,347,24233,2,0,P|238:294|239:222,1,95
343,189,24608,2,0,P|336:238|340:287,1,95
444,352,24983,2,0,B|431:331|431:331|453:326|453:326|422:268|451:195,1,142.5
447,201,25358,22,0,P|440:164|447:132,1,47.5
334,23,25545,2,0,P|340:45|340:69,1,47.5,0|0,0:0|0:0,0:0:0:0:
257,187,25733,2,0,P|250:140|178:84,1,142.5,0|0,0:0|0:0,0:0:0:0:
145,84,26108,2,0,B|145:114|145:114|135:127|135:127|140:184|86:200,1,142.5,0|0,0:0|0:0,0:0:0:0:
57,216,26483,38,0,P|102:255|108:323,1,95
229,295,26858,2,0,P|191:322|173:366,1,95,0|0,0:0|0:0,0:0:0:0:
322,316,27233,2,0,P|312:246|263:196,1,142.5,0|0,0:0|0:0,0:0:0:0:
232,183,27608,2,0,P|205:205|179:212,1,47.5,0|0,0:0|0:0,0:0:0:0:
117,169,27795,2,0,P|144:147|170:140,1,47.5,0|0,0:0|0:0,0:0:0:0:
227,101,27983,22,0,P|240:53|240:-11,1,95
350,160,28358,2,0,P|337:112|337:48,1,95,0|0,0:0|0:0,0:0:0:0:
430,128,28733,2,0,B|458:201|401:201|443:303,1,142.5,0|0,0:0|0:0,0:0:0:0:
442,299,29108,2,0,P|473:292|497:275,1,47.5,0|0,0:0|0:0,0:0:0:0:
354,270,29295,2,0,P|323:277|299:294,1,47.5,0|0,0:0|0:0,0:0:0:0:
234,360,29483,6,0,P|204:298|144:275,1,95,0|0,0:0|0:0,0:0:0:0:
74,250,29858,1,0,0:0:0:0:
137,370,30045,1,0,0:0:0:0:
246,215,30233,2,0,P|216:153|156:130,1,95,0|0,0:0|0:0,0:0:0:0:
86,105,30608,1,0,0:0:0:0:
149,225,30795,1,0,0:0:0:0:
224,74,30983,22,0,L|219:21,1,47.5
310,78,31170,2,0,L|315:131,1,47.5,0|0,0:0|0:0,0:0:0:0:
469,204,31358,2,0,L|474:151,1,47.5,0|0,0:0|0:0,0:0:0:0:
383,208,31545,2,0,L|378:261,1,47.5,0|0,0:0|0:0,0:0:0:0:
294,312,31733,2,0,P|240:286|182:311,1,95,0|0,0:0|0:0,0:0:0:0:
147,365,32014,1,0,0:0:0:0:
147,365,32108,2,0,B|127:348|127:348|87:338|87:338|86:246|162:211,1,213.750008153916,0|0,0:0|0:0,0:0:0:0:
184,196,32483,38,0,P|145:159|74:157,1,95
25,116,32858,2,0,P|64:79|135:77,1,95,0|0,0:0|0:0,0:0:0:0:
222,68,33233,2,0,B|191:42|191:42|237:19|293:36,1,142.5,0|0,0:0|0:0,0:0:0:0:
322,45,33608,2,0,L|322:92,1,47.5,0|0,0:0|0:0,0:0:0:0:
401,173,33795,2,0,L|401:126,1,47.5
412,33,33983,22,0,P|461:58|534:55,1,95
512,163,34358,2,0,P|487:212|490:285,1,95
363,347,34733,2,0,B|360:312|374:274|374:274|327:285|283:270,1,142.5,0|0,0:0|0:0,0:0:0:0:
273,273,35108,2,0,L|213:273,1,47.5,0|0,0:0|0:0,0:0:0:0:
130,201,35295,2,0,L|190:201,1,47.5
264,179,35483,6,0,P|252:128|251:83,1,95
126,31,35858,2,0,B|137:66|137:66|133:80|133:80|144:122,1,95
25,225,36233,2,0,B|36:190|36:190|32:176|32:176|43:134,1,95
164,273,36608,1,0,0:0:0:0:
46,359,36795,1,0,0:0:0:0:
210,339,36983,22,0,P|239:337|287:317,1,47.5
363,342,37170,2,0,P|392:344|440:364,1,47.5,0|0,0:0|0:0,0:0:0:0:
287,232,37358,2,0,P|258:230|210:210,1,47.5,0|0,0:0|0:0,0:0:0:0:
443,179,37545,2,0,P|472:177|520:157,1,47.5,0|0,0:0|0:0,0:0:0:0:
263,119,37733,2,0,B|227:72|238:18|238:18|274:4,1,142.5
203,66,38108,2,0,P|145:75|91:53,1,95
53,136,38483,38,0,P|50:186|58:259,1,95
147,321,38858,2,0,P|150:273|147:226,1,95,0|0,0:0|0:0,0:0:0:0:
219,190,39233,2,0,B|269:190|289:215|289:215|307:237|348:246,1,142.5,0|0,0:0|0:0,0:0:0:0:
378,251,39608,2,0,P|386:282|378:309,1,47.5
313,358,39795,2,0,P|305:327|313:300,1,47.5
377,172,39983,22,0,P|424:186|457:239,1,95
497,104,40358,2,0,P|449:89|416:36,1,95
293,43,40733,2,0,P|316:53|256:76,1,142.5,0|0,0:0|0:0,0:0:0:0:
231,88,41108,2,0,P|204:81|160:88,1,47.5
140,157,41295,2,0,P|167:164|211:157,1,47.5
112,71,41483,6,0,P|84:35|39:19,1,95
22,139,41858,1,0,0:0:0:0:
63,256,42045,1,0,0:0:0:0:
140,157,42233,2,0,P|176:185|192:230,1,95
176,347,42608,1,0,0:0:0:0:
63,256,42795,1,0,0:0:0:0:
192,230,42983,22,0,P|262:215|335:283,1,142.500005435944
356,341,43264,1,0,0:0:0:0:
356,341,43358,2,0,P|341:271|409:198,1,142.500005435944,0|0,0:0|0:0,0:0:0:0:
462,169,43639,1,0,0:0:0:0:
462,169,43733,2,0,P|392:184|319:116,1,142.500005435944,0|0,0:0|0:0,0:0:0:0:
224,57,44108,2,0,B|217:73|217:73|196:72|196:72|184:97|184:97|137:91|102:143,1,142.500005435944
33,233,44483,38,0,P|80:220|129:244,1,95
137,325,44858,1,0,0:0:0:0:
240,249,45045,2,0,L|236:176,2,47.5
367,341,45420,2,0,P|351:290|371:216,1,95
419,161,45795,2,0,L|492:163,2,47.5
340,85,46170,22,0,P|336:54|339:17,1,47.5
269,105,46358,2,0,P|273:136|270:173,1,47.5
354,75,46545,2,0,P|350:44|353:7,2,47.5
380,203,46920,2,0,P|411:199|448:202,1,47.5
357,279,47108,2,0,P|326:283|289:280,1,47.5
362,191,47295,2,0,P|393:187|430:190,1,47.5
366,294,47483,6,0,B|336:299|311:294|311:294|277:243,1,95
212,148,47858,2,0,L|212:202,1,47.5
129,138,48045,2,0,L|129:84,2,47.5
31,244,48420,2,0,P|43:277|43:313,1,47.5
153,334,48608,2,0,P|141:301|141:265,1,47.5
35,260,48795,2,0,P|47:293|47:329,1,47.5
165,354,48983,6,0,B|153:334|152:310|152:310|209:271,1,95
284,215,49358,1,0,0:0:0:0:
410,294,49545,2,0,L|462:302,2,47.5
412,143,49920,2,0,L|502:132,2,71.2500027179719
300,55,50295,2,0,L|254:47,1,47.5
174,43,50483,22,0,B|147:90|147:90|71:120,1,95
39,171,50858,2,0,B|66:218|66:218|103:232,1,95
137,237,51139,1,0,0:0:0:0:
164,218,51233,2,0,P|212:218|212:274,1,95
207,286,51514,1,0,0:0:0:0:
179,304,51608,2,0,P|208:297|277:323,1,95
299,330,51889,1,0,0:0:0:0:
274,352,51983,6,0,P|282:319|305:280,1,47.5
417,308,52170,2,0,P|397:321|375:329,1,47.5
395,229,52358,2,0,P|414:215|436:207,1,47.5
436,311,52545,2,0,P|416:324|394:332,2,47.5
471,128,52920,2,0,P|483:97|478:50,1,47.5
383,59,53108,2,0,P|371:28|376:-19,1,47.5
482,142,53295,2,0,P|494:111|489:64,1,47.5
374,76,53483,6,0,B|358:53|357:30|357:30|296:39,1,95
279,43,53764,1,0,0:0:0:0:
279,43,53858,2,0,P|263:77|260:102,1,47.5
158,71,54045,2,0,P|174:105|177:130,1,47.5
64,182,54233,2,0,P|80:148|83:123,1,47.5
133,267,54420,2,0,P|167:283|192:286,1,47.5
259,220,54608,2,0,P|225:204|200:201,1,47.5
277,357,54795,2,0,P|293:323|296:298,1,47.5
379,199,54983,6,0,B|384:212|384:212|383:220|383:220|399:251|399:251|382:306|382:306|401:376,1,142.500005435944
465,78,55358,2,0,B|452:73|452:73|444:74|444:74|413:58|413:58|358:75|358:75|288:56,1,142.500005435944
258,59,55639,1,0,0:0:0:0:
258,59,55733,2,0,B|188:50|188:50|130:110,1,142.500005435944
102,270,56108,2,0,P|44:264|85:301,1,142.500005435944
203,348,56483,6,0,P|264:316|320:316,1,95
476,209,56858,2,0,P|415:241|359:241,1,95
280,149,57233,1,0,0:0:0:0:
272,153,57326,1,0,0:0:0:0:
263,158,57420,1,0,0:0:0:0:
218,176,57608,2,0,B|194:153|194:153|194:72,1,95
120,53,57889,1,0,0:0:0:0:
120,53,57983,6,0,P|59:85|3:85,1,95
43,240,58358,2,0,P|104:272|160:272,1,95
297,229,58733,1,0,0:0:0:0:
294,238,58826,1,0,0:0:0:0:
291,247,58920,1,0,0:0:0:0:
278,293,59108,2,0,B|339:293|339:293|403:257,1,95
395,210,59389,1,0,0:0:0:0:
395,210,59483,6,0,P|436:249|427:319,1,95
344,106,59858,2,0,P|398:89|454:132,1,95
255,155,60139,1,0,0:0:0:0:
255,155,60233,2,0,B|255:106|255:106|228:62|228:62|228:12,1,142.500005435944
49,37,60608,1,0,0:0:0:0:
178,130,60795,1,0,0:0:0:0:
41,240,60983,6,0,P|71:230|120:238,1,47.5
216,319,61170,2,0,P|186:309|137:317,1,47.5
313,374,61358,2,0,P|343:384|392:376,1,47.5
440,272,61545,2,0,P|427:304|426:340,1,47.5
492,165,61733,1,0,0:0:0:0:
482,163,61826,1,0,0:0:0:0:
472,161,61920,1,0,0:0:0:0:
463,158,62014,1,0,0:0:0:0:
453,156,62108,2,0,B|404:142|359:156|359:156|344:215,1,142.5
258,209,62483,6,0,P|274:156|282:101,1,95
120,112,62858,2,0,P|104:59|96:4,1,95
87,249,63233,1,0,0:0:0:0:
87,258,63326,1,0,0:0:0:0:
87,267,63420,1,0,0:0:0:0:
90,315,63608,2,0,P|149:309|230:318,1,95
256,361,63889,1,0,0:0:0:0:
256,361,63983,6,0,P|320:324|334:283,1,95
473,280,64358,2,0,P|408:243|366:251,1,95
323,78,64732,1,0,0:0:0:0:
317,85,64825,1,0,0:0:0:0:
312,93,64919,1,0,0:0:0:0:
290,134,65108,2,0,P|281:180|299:223,1,95
252,280,65389,1,0,0:0:0:0:
252,280,65483,6,0,P|191:276|118:285,1,95
16,133,65858,2,0,B|72:152|72:152|107:154|148:147,1,95
181,195,66139,1,0,0:0:0:0:
181,195,66233,2,0,B|197:160|197:160|197:96|147:73,1,142.500005435944
272,185,66608,1,0,0:0:0:0:
300,39,66795,1,0,0:0:0:0:
387,139,66983,22,0,P|401:103|428:80,1,47.5
429,72,67170,1,0,0:0:0:0:
434,220,67358,2,0,P|440:242|453:262,1,47.5
476,287,67545,1,0,0:0:0:0:
484,283,67639,1,0,0:0:0:0:
488,274,67733,2,0,P|439:261|403:290,1,95
394,316,68014,1,0,0:0:0:0:
378,345,68108,2,0,P|329:358|293:329,1,95
154,238,68483,6,0,P|184:274|197:319,1,95
27,190,68858,2,0,P|63:159|108:146,1,95
237,46,69233,1,0,0:0:0:0:
228,49,69326,1,0,0:0:0:0:
219,52,69420,1,0,0:0:0:0:
176,73,69608,2,0,P|210:110|287:114,1,95
318,80,69889,1,0,0:0:0:0:
318,80,69983,6,0,P|329:147|318:207,1,95
413,304,70358,2,0,P|424:237|413:177,1,95
285,292,70733,1,0,0:0:0:0:
279,299,70826,1,0,0:0:0:0:
273,306,70920,1,0,0:0:0:0:
237,337,71108,2,0,B|213:314|213:314|213:233,1,95
145,193,71389,1,0,0:0:0:0:
145,193,71483,22,0,P|135:245|93:281,1,95
153,64,71858,2,0,P|199:71|234:102,1,95
283,165,72139,1,0,0:0:0:0:
283,165,72233,2,0,B|331:110|331:110|407:78,1,142.500005435944
512,48,72608,1,0,0:0:0:0:
395,186,72795,1,0,0:0:0:0:
485,298,72983,38,0,P|453:293|422:297,1,47.5
360,369,73170,2,0,P|336:369|313:364,1,47.5
258,260,73358,2,0,P|253:236|253:213,1,47.5
152,324,73545,2,0,P|157:356|153:387,1,47.5
31,222,73733,1,0,0:0:0:0:
40,219,73826,1,0,0:0:0:0:
49,217,73920,1,0,0:0:0:0:
58,215,74014,1,0,0:0:0:0:
67,212,74108,2,0,B|100:196|136:202|136:202|145:161|184:123,1,142.5
228,84,74483,22,0,P|249:139|217:206,1,95
406,142,74858,2,0,P|379:181|336:199,1,95
479,266,75233,1,0,0:0:0:0:
476,274,75326,1,0,0:0:0:0:
473,283,75420,1,0,0:0:0:0:
449,325,75608,2,0,P|390:315|348:254,1,95
296,273,75889,1,0,0:0:0:0:
296,273,75983,6,0,P|276:324|254:362,1,95
119,361,76358,2,0,P|88:324|64:283,1,95
82,124,76733,1,0,0:0:0:0:
88,130,76826,1,0,0:0:0:0:
94,136,76920,1,0,0:0:0:0:
129,168,77108,2,0,P|175:160|223:159,1,95
295,192,77389,1,0,0:0:0:0:
295,192,77483,22,0,P|298:134|258:85,1,95
440,35,77858,2,0,P|437:93|477:142,1,95
497,190,78139,1,0,0:0:0:0:
497,190,78233,2,0,B|506:260|506:260|494:339,1,142.500005435944
272,260,78608,1,0,0:0:0:0:
380,303,78795,1,0,0:0:0:0:
147,162,78983,38,0,P|158:122|160:77,1,47.5
381,158,79170,2,0,P|370:118|368:73,1,47.5
137,227,79358,2,0,P|148:187|150:142,1,47.5
399,236,79545,2,0,P|388:196|386:151,1,47.5
267,49,79733,2,0,B|244:118|286:118|262:202,1,142.5
265,198,80108,1,0,0:0:0:0:
43,330,84983,54,0,P|67:311|96:295,1,47.5
200,230,85170,2,0,P|220:242|238:257,1,47.5
346,370,85358,2,0,P|372:322|355:243,1,95
256,133,85733,2,0,P|222:139|189:137,1,47.5
431,73,85920,2,0,P|465:67|498:69,1,47.5
258,32,86108,2,0,P|207:27|141:52,1,95
137,57,86389,1,0,0:0:0:0:
137,57,86483,6,0,P|150:123|118:191,1,142.5
96,213,86858,1,0,0:0:0:0:
