osu file format v14

[General]
AudioFilename: audio.mp3
AudioLeadIn: 0
PreviewTime: 58197
Countdown: 0
SampleSet: Soft
StackLeniency: 0.7
Mode: 3
LetterboxInBreaks: 0
SpecialStyle: 0
WidescreenStoryboard: 1

[Editor]
Bookmarks: 14997,29397,58197,72597,86997,103197,131997
DistanceSpacing: 1.2
BeatDivisor: 12
GridSize: 8
TimelineZoom: 1.8

[Metadata]
Title:Promise (feat. Sherie)
TitleUnicode:約束之歌 (약속지가) (feat. Sherie)
Artist:M2U
ArtistUnicode:M2U
Creator:-NoName-
Version:guden's 4K Bond
Source:하이파이브
Tags:yakusoku no uta yagsogjiga o2jam high5 adieu chérie video game folk famoss guden korean ダイバーシティ DIVERSITY. Diversity Universal Music
BeatmapID:2717138
BeatmapSetID:1301740

[Difficulty]
HPDrainRate:8
CircleSize:4
OverallDifficulty:7.6
ApproachRate:5
SliderMultiplier:1.4
SliderTickRate:1

[Events]
//Background and Video events
0,0,"bg.jpg",0,0
//Break Periods
//Storyboard Layer 0 (Background)
//Storyboard Layer 1 (Fail)
//Storyboard Layer 2 (Pass)
//Storyboard Layer 3 (Foreground)
//Storyboard Layer 4 (Overlay)
//Storyboard Sound Samples
Sample,57747,0,"LR_Drum Rpd vFast.wav",70

[TimingPoints]
597,300,6,2,1,70,1,0
58197,-100,6,2,1,70,0,1
70797,-100,6,2,1,70,0,0
72597,-100,6,2,1,70,0,1
86997,-100,6,2,1,70,0,0
103197,-100,6,2,1,70,0,1
115797,-100,6,2,1,70,0,0
117597,-100,6,2,1,70,0,1
131997,-100,6,2,1,70,0,0

[HitObjects]
64,192,597,128,0,1197:0:0:0:0:
448,192,597,1,0,0:0:0:0:
192,192,897,128,0,1497:0:0:0:0:
448,192,1197,128,0,1497:0:0:0:0:
64,192,1497,128,0,1647:0:0:0:0:
320,192,1497,128,0,1797:0:0:0:0:
192,192,1797,128,0,1947:0:0:0:0:
320,192,2330,1,0,0:0:0:0:
64,192,2397,128,0,2997:0:0:0:0:
448,192,2397,1,0,0:0:0:0:
192,192,2697,128,0,3297:0:0:0:0:
320,192,2997,1,0,0:0:0:0:
448,192,2997,128,0,3297:0:0:0:0:
64,192,3297,128,0,3447:0:0:0:0:
320,192,3297,128,0,3597:0:0:0:0:
448,192,3597,128,0,3897:0:0:0:0:
64,192,3897,1,0,0:0:0:0:
64,192,4197,128,0,4797:0:0:0:0:
320,192,4197,1,0,0:0:0:0:
192,192,4497,128,0,4947:0:0:0:0:
320,192,4797,128,0,4947:0:0:0:0:
192,192,5097,128,0,5697:0:0:0:0:
320,192,5097,128,0,5247:0:0:0:0:
448,192,5397,128,0,5997:0:0:0:0:
64,192,5697,128,0,5847:0:0:0:0:
192,192,5847,128,0,5997:0:0:0:0:
64,192,5997,128,0,7047:0:0:0:0:
320,192,5997,128,0,6297:0:0:0:0:
192,192,6297,1,0,0:0:0:0:
448,192,6297,128,0,6597:0:0:0:0:
320,192,6597,128,0,6747:0:0:0:0:
320,192,6859,1,0,0:0:0:0:
192,192,6897,128,0,7197:0:0:0:0:
448,192,6897,128,0,6972:0:0:0:0:
320,192,7197,1,0,0:0:0:0:
192,192,7272,1,0,0:0:0:0:
320,192,7347,128,0,7572:0:0:0:0:
448,192,7422,128,0,7572:0:0:0:0:
64,192,7497,1,0,0:0:0:0:
192,192,7497,128,0,7572:0:0:0:0:
64,192,7647,128,0,7722:0:0:0:0:
192,192,7722,1,0,0:0:0:0:
64,192,7797,128,2,8397:0:0:0:0:
320,192,7797,1,4,0:0:0:0:
448,192,7797,1,0,0:0:0:0:
192,192,8097,128,0,8697:0:0:0:70:LR_Drum Rpd vFast.wav
320,192,8247,1,0,0:0:0:0:
448,192,8397,128,0,8697:0:0:0:70:LR_Drum Rpd x2.wav
320,192,8397,1,0,0:0:0:0:
64,192,8697,128,0,8847:0:0:0:70:LR_Drum Rpd x2.wav
320,192,8697,128,0,8997:0:0:0:0:
192,192,8997,128,0,9147:0:0:0:70:LR_Drum Rpd vFast.wav
320,192,9297,1,0,0:0:0:0:
320,192,9530,1,0,0:0:0:0:
64,192,9597,128,0,10197:0:0:0:70:LR_Drum Rpd x2.wav
448,192,9597,1,0,0:0:0:0:
448,192,9897,128,0,10497:0:0:0:70:LR_Drum Rpd vFast.wav
192,192,10047,1,0,0:0:0:0:
192,192,10197,128,0,10497:0:0:0:70:LR_Drum Rpd x2.wav
320,192,10197,1,0,0:0:0:0:
64,192,10497,128,0,10647:0:0:0:70:LR_Drum Rpd x2.wav
320,192,10497,128,0,10797:0:0:0:0:
192,192,10797,128,0,10947:0:0:0:70:LR_Drum Rpd vFast.wav
448,192,10797,128,0,11097:0:0:0:0:
64,192,11097,1,0,0:0:0:0:
64,192,11397,128,0,11547:0:0:0:70:LR_Drum Rpd x2.wav
320,192,11397,1,0,0:0:0:0:
448,192,11547,128,0,11622:0:0:0:0:
64,192,11622,128,0,11697:0:0:0:0:
320,192,11697,128,0,12147:0:0:0:70:LR_Drum Rpd vFast.wav
192,192,11847,1,0,0:0:0:0:
448,192,11997,128,0,12147:0:0:0:70:LR_Drum Rpd x2.wav
320,192,12297,128,0,12897:0:0:0:70:LR_Drum Rpd x2.wav
448,192,12297,128,0,12447:0:0:0:0:
192,192,12597,128,0,13197:0:0:0:70:LR_Drum Rpd vFast.wav
448,192,12897,128,0,13197:0:0:0:70:LR_Drum Rpd vFast.wav
64,192,13197,128,0,13497:0:0:0:70:LR_Drum Rpd x2.wav
320,192,13197,128,0,13497:0:0:0:0:
192,192,13347,1,0,0:0:0:70:LR_Drum Rpd vFast.wav
448,192,13497,128,0,13572:0:0:0:0:
192,192,13497,128,0,13647:0:0:0:0:
64,192,13572,1,0,0:0:0:0:
448,192,13647,1,0,0:0:0:0:
320,192,13722,1,0,0:0:0:0:
64,192,13797,1,0,0:0:0:70:LR_Drum Rpd x2.wav
192,192,13797,128,0,13947:0:0:0:0:
320,192,13947,1,0,0:0:0:0:
64,192,14022,1,0,0:0:0:0:
192,192,14097,128,0,14397:0:0:0:70:LR_Drum Rpd vFast.wav
320,192,14097,128,0,14247:0:0:0:0:
448,192,14097,128,0,14172:0:0:0:0:
448,192,14247,1,0,0:0:0:0:
64,192,14397,128,2,14472:0:0:0:0:
320,192,14397,128,0,14622:0:0:0:70:CrashR.wav
448,192,14397,128,0,14547:0:0:0:0:
64,192,14547,128,0,14697:0:0:0:0:
192,192,14622,128,0,14772:0:0:0:70:CrashL.wav
320,192,14697,128,0,14847:0:0:0:0:
448,192,14697,128,0,14922:0:0:0:0:
64,192,14922,1,0,0:0:0:0:
192,192,14997,128,2,15297:0:0:0:0:
320,192,14997,128,4,15147:0:0:0:0:
448,192,14997,1,0,0:0:0:0:
320,192,15297,128,8,15372:0:0:0:0:
448,192,15297,128,0,15372:0:0:0:0:
320,192,15597,1,0,0:0:0:70:LR_Drum Rpd vFast.wav
448,192,15597,128,0,15897:0:0:0:0:
64,192,15897,1,0,0:0:0:70:LR_Drum Rpd x2.wav
192,192,15897,128,0,16197:0:0:0:0:
320,192,16197,128,8,16272:0:0:0:0:
448,192,16197,128,0,16272:0:0:0:0:
64,192,16384,128,0,16497:0:0:0:0:
320,192,16497,128,8,16797:0:0:0:0:
192,192,16759,1,0,0:0:0:0:
64,192,16797,128,0,17097:0:0:0:70:LR_Drum Rpd vFast.wav
448,192,16797,128,0,16909:0:0:0:0:
192,192,17097,128,8,17172:0:0:0:0:
320,192,17097,128,0,17172:0:0:0:0:
192,192,17397,128,0,17697:0:0:0:70:LR_Drum Rpd vFast.wav
448,192,17397,1,0,0:0:0:0:
64,192,17697,128,0,17772:0:0:0:70:LR_Drum Rpd x2.wav
448,192,17697,128,0,17847:0:0:0:0:
64,192,17847,1,0,0:0:0:0:
320,192,17997,128,8,18147:0:0:0:0:
448,192,17997,128,0,18072:0:0:0:0:
448,192,18147,1,0,0:0:0:0:
192,192,18222,128,0,18372:0:0:0:0:
64,192,18297,128,8,18372:0:0:0:0:
320,192,18297,128,0,18447:0:0:0:0:
192,192,18447,1,0,0:0:0:0:
64,192,18597,128,0,18709:0:0:0:70:LR_Drum Rpd vFast.wav
192,192,18597,128,0,18747:0:0:0:0:
448,192,18597,1,0,0:0:0:0:
192,192,18897,128,8,18972:0:0:0:0:
320,192,18897,128,0,18972:0:0:0:0:
64,192,19047,1,0,0:0:0:0:
64,192,19197,1,0,0:0:0:70:LR_Drum Rpd vFast.wav
192,192,19197,128,0,19497:0:0:0:0:
320,192,19497,128,0,19797:0:0:0:70:LR_Drum Rpd x2.wav
448,192,19497,128,0,19572:0:0:0:0:
448,192,19647,1,0,0:0:0:0:
64,192,19797,128,8,19872:0:0:0:0:
192,192,19797,128,0,20097:0:0:0:0:
64,192,19947,1,0,0:0:0:0:
448,192,20097,128,0,20322:0:0:0:0:
320,192,20097,1,0,0:0:0:0:
64,192,20172,1,0,0:0:0:0:
192,192,20247,1,0,0:0:0:0:
64,192,20397,128,0,20697:0:0:0:70:LR_Drum Rpd vFast.wav
448,192,20397,128,0,20584:0:0:0:0:
192,192,20697,1,8,0:0:0:0:
320,192,20697,1,0,0:0:0:0:
320,192,20847,1,0,0:0:0:0:
448,192,20847,1,0,0:0:0:0:
64,192,20997,1,0,0:0:0:70:LR_Drum Rpd vFast.wav
192,192,20997,1,0,0:0:0:0:
448,192,21147,1,0,0:0:0:0:
64,192,21297,128,0,21447:0:0:0:70:LR_Drum Rpd x2.wav
320,192,21297,128,0,21372:0:0:0:0:
320,192,21447,1,0,0:0:0:0:
64,192,21597,128,8,21709:0:0:0:0:
192,192,21597,1,0,0:0:0:0:
448,192,21597,128,0,21672:0:0:0:0:
448,192,21747,1,0,0:0:0:0:
320,192,21897,128,8,22197:0:0:0:0:
64,192,21897,128,0,21972:0:0:0:0:
64,192,22047,1,0,0:0:0:0:
64,192,22197,128,2,22347:0:0:0:0:
192,192,22197,128,0,22497:0:0:0:0:
448,192,22197,1,0,0:0:0:0:
320,192,22497,128,8,22572:0:0:0:0:
448,192,22497,128,0,22572:0:0:0:0:
320,192,22797,128,0,22947:0:0:0:70:LR_Drum Rpd vFast.wav
448,192,22797,128,0,23097:0:0:0:0:
64,192,23097,128,0,23397:0:0:0:70:LR_Drum Rpd x2.wav
320,192,23097,1,0,0:0:0:0:
192,192,23172,1,0,0:0:0:0:
448,192,23247,1,0,0:0:0:0:
320,192,23397,128,8,23472:0:0:0:0:
448,192,23397,128,0,23472:0:0:0:0:
192,192,23547,1,0,0:0:0:0:
320,192,23697,128,8,23997:0:0:0:0:
192,192,23847,1,0,0:0:0:0:
64,192,23997,128,0,24297:0:0:0:70:LR_Drum Rpd vFast.wav
448,192,23997,128,0,24072:0:0:0:0:
192,192,24072,1,0,0:0:0:0:
320,192,24147,1,0,0:0:0:0:
448,192,24222,1,0,0:0:0:0:
192,192,24297,128,8,24372:0:0:0:0:
320,192,24297,128,0,24372:0:0:0:0:
64,192,24372,1,0,0:0:0:0:
448,192,24447,1,0,0:0:0:0:
320,192,24522,1,0,0:0:0:0:
192,192,24597,128,0,24897:0:0:0:70:LR_Drum Rpd vFast.wav
448,192,24597,128,0,24672:0:0:0:0:
64,192,24897,128,0,24972:0:0:0:70:LR_Drum Rpd x2.wav
448,192,24897,128,0,25047:0:0:0:0:
64,192,25047,1,0,0:0:0:0:
192,192,25197,1,8,0:0:0:0:
320,192,25197,128,0,25347:0:0:0:0:
448,192,25197,128,0,25272:0:0:0:0:
448,192,25347,1,0,0:0:0:0:
320,192,25497,128,0,25647:0:0:0:0:
192,192,25572,1,0,0:0:0:0:
64,192,25647,1,0,0:0:0:0:
320,192,25722,1,0,0:0:0:0:
192,192,25797,128,0,26022:0:0:0:70:LR_Drum Rpd vFast.wav
448,192,25797,128,0,25947:0:0:0:0:
64,192,26097,128,8,26397:0:0:0:0:
448,192,26097,128,0,26397:0:0:0:0:
192,192,26247,1,0,0:0:0:0:
192,192,26397,128,0,26697:0:0:0:70:LR_Drum Rpd vFast.wav
320,192,26397,128,0,26547:0:0:0:0:
64,192,26697,128,0,26922:0:0:0:70:LR_Drum Rpd x2.wav
320,192,26697,128,0,26997:0:0:0:0:
64,192,26997,1,8,0:0:0:0:
448,192,26997,128,0,27297:0:0:0:0:
192,192,27147,1,0,0:0:0:0:
192,192,27297,128,8,27447:0:0:0:0:
320,192,27297,128,0,27597:0:0:0:0:
64,192,27597,128,0,27897:0:0:0:70:LR_Drum Rpd vFast.wav
192,192,27597,128,0,27847:0:0:0:0:
448,192,27597,128,0,28497:0:0:0:0:
320,192,27897,1,0,0:0:0:0:
192,192,27947,1,0,0:0:0:0:
64,192,27997,1,0,0:0:0:0:
320,192,28047,128,0,28197:0:0:0:0:
192,192,28197,1,0,0:0:0:70:LR_Drum Rpd vFast.wav
192,192,28347,1,0,0:0:0:70:LR_Drum Rpd vFast.wav
64,192,28497,128,0,28797:0:0:0:70:LR_Drum Rpd x2.wav
320,192,28497,128,0,28647:0:0:0:70:CrashR.wav
192,192,28572,128,0,28722:0:0:0:0:
192,192,28797,1,2,0:0:0:0:
320,192,28797,1,0,0:0:0:0:
448,192,28797,1,0,0:0:0:0:
64,192,29397,128,2,29697:0:0:0:0:
320,192,29397,1,0,0:0:0:70:LR_Chm Echo long.wav
448,192,29397,1,0,0:0:0:0:
192,192,29697,128,0,30072:0:0:0:0:
320,192,29997,1,0,0:0:0:70:LR_Drum Rpd x2.wav
64,192,30297,128,0,30447:0:0:0:70:LR_Drum Rpd vFast.wav
448,192,30297,1,0,0:0:0:0:
192,192,30597,128,0,30972:0:0:0:0:
448,192,30897,128,0,31122:0:0:0:0:
192,192,31197,1,2,0:0:0:0:
320,192,31197,128,0,31647:0:0:0:0:
64,192,31497,1,0,0:0:0:0:
192,192,31797,128,0,32022:0:0:0:70:LR_Drum Rpd x2.wav
320,192,31797,1,0,0:0:0:0:
192,192,32097,128,0,32547:0:0:0:70:LR_Drum Rpd vFast.wav
448,192,32097,1,0,0:0:0:0:
320,192,32397,1,0,0:0:0:70:LR_J Hit Edge F.wav
448,192,32397,1,0,0:0:0:0:
192,192,32997,128,2,33147:0:0:0:0:
320,192,32997,1,0,0:0:0:0:
192,192,33297,128,0,33597:0:0:0:0:
64,192,33597,1,0,0:0:0:70:LR_Drum Rpd x2.wav
320,192,33597,128,0,33822:0:0:0:0:
64,192,33897,128,0,34347:0:0:0:70:LR_Drum Rpd vFast.wav
192,192,33897,1,0,0:0:0:0:
320,192,34197,1,0,0:0:0:0:
448,192,34497,128,0,34647:0:0:0:0:
64,192,34797,1,2,0:0:0:0:
192,192,34797,1,0,0:0:0:0:
64,192,34947,128,0,35847:0:0:0:0:
320,192,35097,1,0,0:0:0:0:
448,192,35397,1,0,0:0:0:70:LR_Drum Rpd x2.wav
320,192,35547,1,0,0:0:0:0:
192,192,35697,1,0,0:0:0:70:LR_Drum Rpd vFast.wav
448,192,35847,1,0,0:0:0:0:
64,192,35997,1,0,0:0:0:70:TomTom1.wav
320,192,35997,1,0,0:0:0:0:
192,192,36297,1,0,0:0:0:0:
64,192,36597,128,2,36822:0:0:0:0:
448,192,36597,1,0,0:0:0:0:
192,192,36897,128,0,37347:0:0:0:0:
320,192,37197,1,0,0:0:0:70:LR_Drum Rpd x2.wav
64,192,37497,128,0,37872:0:0:0:70:LR_Drum Rpd vFast.wav
448,192,37497,1,0,0:0:0:0:
192,192,37797,128,0,38022:0:0:0:0:
448,192,38097,128,0,38322:0:0:0:0:
192,192,38397,1,2,0:0:0:0:
320,192,38397,128,0,38847:0:0:0:0:
64,192,38697,1,0,0:0:0:0:
192,192,38997,128,0,39297:0:0:0:70:LR_Drum Rpd x2.wav
320,192,38997,1,0,0:0:0:0:
64,192,39297,1,0,0:0:0:70:LR_Drum Rpd vFast.wav
448,192,39297,1,0,0:0:0:0:
192,192,39597,128,0,39897:0:0:0:70:LR_J Hit Edge F.wav
320,192,39597,1,0,0:0:0:0:
320,192,39897,128,0,40197:0:0:0:0:
64,192,40197,1,2,0:0:0:0:
448,192,40197,128,0,40497:0:0:0:0:
320,192,40497,128,0,40647:0:0:0:70:LR_Drum Rpd x2.wav
192,192,40797,128,0,41097:0:0:0:70:LR_Drum Rpd x2.wav
320,192,41097,128,0,41397:0:0:0:70:LR_Drum Rpd vFast.wav
448,192,41097,1,0,0:0:0:0:
64,192,41397,128,0,41697:0:0:0:70:LR_Drum Rpd x2.wav
192,192,41697,128,0,41997:0:0:0:70:LR_Drum Rpd vFast.wav
64,192,41997,1,2,0:0:0:0:
320,192,41997,128,0,42147:0:0:0:0:
320,192,42297,128,0,43497:0:0:0:70:LR_Drum Rpd x2.wav
192,192,42597,1,0,0:0:0:70:LR_Drum Rpd x2.wav
64,192,42897,1,0,0:0:0:70:LR_Drum Rpd vFast.wav
448,192,42897,1,0,0:0:0:0:
64,192,43197,1,0,0:0:0:70:LR_Drum Rpd x2.wav
192,192,43197,1,0,0:0:0:70:TomTom1.wav
320,192,43747,1,0,0:0:0:0:
192,192,43797,1,2,0:0:0:0:
448,192,43797,128,0,44247:0:0:0:70:CrashL.wav
320,192,44097,1,0,0:0:0:0:
448,192,44397,128,0,44697:0:0:0:0:
192,192,44547,1,0,0:0:0:0:
320,192,44697,128,0,45222:0:0:0:0:
64,192,44847,1,0,0:0:0:0:
448,192,44997,1,0,0:0:0:0:
192,192,45297,128,0,45597:0:0:0:0:
320,192,45447,1,0,0:0:0:0:
64,192,45597,128,0,46347:0:0:0:0:
448,192,45597,1,0,0:0:0:0:
320,192,45897,1,0,0:0:0:0:
448,192,46197,128,0,46497:0:0:0:0:
192,192,46497,128,0,47097:0:0:0:0:
320,192,46647,1,0,0:0:0:0:
64,192,46797,1,0,0:0:0:0:
448,192,47097,128,0,47397:0:0:0:0:
64,192,47397,128,2,48297:0:0:0:0:
192,192,47397,1,0,0:0:0:0:
448,192,47697,1,0,0:0:0:0:
192,192,47997,1,0,0:0:0:0:
320,192,48147,1,0,0:0:0:0:
192,192,48297,1,0,0:0:0:0:
448,192,48297,128,0,48747:0:0:0:0:
320,192,48672,1,0,0:0:0:0:
64,192,48747,128,0,48897:0:0:0:0:
192,192,48822,128,0,48972:0:0:0:0:
320,192,48897,128,0,49122:0:0:0:0:
192,192,49122,1,0,0:0:0:0:
64,192,49197,128,8,49272:0:0:0:0:
320,192,49197,128,0,49347:0:0:0:0:
448,192,49197,128,0,49272:0:0:0:0:
448,192,49347,1,0,0:0:0:0:
64,192,49647,128,8,49797:0:0:0:0:
192,192,49647,128,0,49722:0:0:0:70:CrashL.wav
192,192,49797,1,0,0:0:0:0:
64,192,50097,128,8,50172:0:0:0:0:
192,192,50097,128,0,50247:0:0:0:70:CrashR.wav
448,192,50097,128,0,50322:0:0:0:0:
64,192,50247,1,0,0:0:0:0:
192,192,50322,1,0,0:0:0:0:
448,192,50397,1,0,0:0:0:0:
64,192,50547,128,8,50697:0:0:0:0:
192,192,50547,128,0,50772:0:0:0:70:CrashL.wav
320,192,50547,128,0,50622:0:0:0:0:
320,192,50697,1,0,0:0:0:0:
192,192,50922,1,0,0:0:0:0:
64,192,50997,1,2,0:0:0:0:
320,192,50997,128,0,51597:0:0:0:70:CrashR.wav
448,192,50997,128,0,51297:0:0:0:0:
64,192,51297,128,8,51372:0:0:0:0:
192,192,51297,128,0,51372:0:0:0:0:
64,192,51597,128,0,51822:0:0:0:0:
64,192,51897,128,4,52047:0:0:0:0:
320,192,51897,1,2,0:0:0:0:
448,192,51897,128,0,51972:0:0:0:0:
448,192,52047,128,0,52422:0:0:0:0:
64,192,52197,128,8,52272:0:0:0:0:
320,192,52197,128,0,52272:0:0:0:0:
192,192,52347,1,0,0:0:0:0:
320,192,52497,128,0,52797:0:0:0:0:
64,192,52797,1,2,0:0:0:0:
192,192,52797,128,4,53022:0:0:0:0:
448,192,52797,128,0,52947:0:0:0:0:
64,192,53097,128,8,53397:0:0:0:0:
320,192,53097,1,0,0:0:0:0:
448,192,53247,1,0,0:0:0:0:
448,192,53397,128,0,53622:0:0:0:0:
192,192,53397,1,0,0:0:0:0:
64,192,53547,1,0,0:0:0:0:
192,192,53697,128,2,53997:0:0:0:0:
448,192,53697,1,0,0:0:0:0:
320,192,53997,128,8,54147:0:0:0:0:
448,192,53997,128,0,54072:0:0:0:0:
448,192,54147,1,0,0:0:0:0:
320,192,54297,1,8,0:0:0:0:
192,192,54447,1,0,0:0:0:0:
64,192,54597,128,2,54897:0:0:0:0:
320,192,54597,128,0,54747:0:0:0:70:CrashL.wav
448,192,54597,1,0,0:0:0:0:
320,192,54897,128,8,54972:0:0:0:0:
448,192,54897,128,0,54972:0:0:0:0:
64,192,55197,1,0,0:0:0:70:LR_Drum Rpd vFast.wav
320,192,55197,1,0,0:0:0:0:
448,192,55197,128,0,55497:0:0:0:0:
64,192,55497,1,2,0:0:0:0:
192,192,55497,1,0,0:0:0:70:CrashR.wav
320,192,55497,128,0,55947:0:0:0:0:
64,192,55797,128,8,55872:0:0:0:0:
448,192,55797,128,0,55872:0:0:0:0:
64,192,56097,1,0,0:0:0:70:LR_Drum Rpd vFast.wav
192,192,56097,128,0,56397:0:0:0:0:
448,192,56097,1,0,0:0:0:0:
320,192,56397,128,2,56622:0:0:0:0:
448,192,56397,1,4,0:0:0:0:
64,192,56397,1,0,0:0:0:0:
448,192,56547,128,0,57747:0:0:0:0:
64,192,56697,128,0,56847:0:0:0:70:LR_Drum Rpd vFast.wav
192,192,56697,128,0,56922:0:0:0:0:
320,192,56697,128,0,56772:0:0:0:0:
320,192,56847,1,0,0:0:0:0:
64,192,56997,128,0,57072:0:0:0:70:LR_Drum Rpd x2.wav
192,192,56997,128,0,57147:0:0:0:0:
320,192,56997,128,0,57222:0:0:0:0:
64,192,57147,1,0,0:0:0:0:
64,192,57297,128,2,57447:0:0:0:0:
192,192,57297,128,4,57372:0:0:0:0:
192,192,57447,1,0,0:0:0:0:
192,192,57597,128,0,57672:0:0:0:70:LR_Drum Rpd vFast.wav
320,192,57597,128,0,57747:0:0:0:0:
64,192,57747,128,0,57897:0:0:0:0:
192,192,57822,128,0,57972:0:0:0:0:
320,192,57897,128,0,58047:0:0:0:70:LR_Drum Rpd x2.wav
448,192,57897,128,0,58122:0:0:0:0:
320,192,58122,1,0,0:0:0:0:
64,192,58197,128,2,58347:0:0:0:0:
192,192,58197,128,4,58272:0:0:0:0:
448,192,58197,1,0,0:0:0:0:
192,192,58347,128,0,58797:0:0:0:0:
320,192,58497,128,8,58647:0:0:0:0:
448,192,58497,128,0,58572:0:0:0:0:
448,192,58647,1,0,0:0:0:0:
320,192,58797,1,0,0:0:0:70:LR_Drum Rpd vFast.wav
448,192,58797,128,0,59097:0:0:0:0:
64,192,59097,128,0,59247:0:0:0:70:LR_Drum Rpd x2.wav
192,192,59097,128,0,59172:0:0:0:0:
192,192,59247,128,0,59697:0:0:0:0:
320,192,59397,128,8,59472:0:0:0:0:
448,192,59397,128,0,59547:0:0:0:0:
320,192,59547,1,0,0:0:0:0:
64,192,59584,128,0,59697:0:0:0:0:
320,192,59697,128,8,59997:0:0:0:0:
448,192,59697,128,0,59847:0:0:0:0:
192,192,59959,1,0,0:0:0:0:
64,192,59997,128,0,60072:0:0:0:70:LR_Drum Rpd vFast.wav
448,192,59997,128,0,60109:0:0:0:0:
64,192,60147,128,0,60597:0:0:0:0:
192,192,60297,128,8,60372:0:0:0:0:
320,192,60297,128,0,60447:0:0:0:0:
192,192,60447,1,0,0:0:0:0:
192,192,60597,128,0,60897:0:0:0:70:LR_Drum Rpd vFast.wav
448,192,60597,1,0,0:0:0:0:
320,192,60859,1,0,0:0:0:0:
64,192,60897,128,0,60972:0:0:0:70:LR_Drum Rpd x2.wav
448,192,60897,128,0,61047:0:0:0:0:
64,192,61047,1,0,0:0:0:0:
192,192,61197,128,8,61347:0:0:0:0:
320,192,61197,128,0,61309:0:0:0:0:
448,192,61197,128,0,61272:0:0:0:0:
448,192,61347,1,0,0:0:0:0:
64,192,61497,128,8,61572:0:0:0:0:
320,192,61497,128,0,61647:0:0:0:0:
64,192,61647,1,0,0:0:0:0:
64,192,61797,128,0,61909:0:0:0:70:LR_Drum Rpd vFast.wav
192,192,61797,128,0,61947:0:0:0:70:CrashL.wav
448,192,61797,128,0,61872:0:0:0:0:
192,192,62097,128,8,62172:0:0:0:0:
320,192,62097,128,0,62172:0:0:0:0:
320,192,62397,1,0,0:0:0:70:LR_Drum Rpd vFast.wav
192,192,62397,128,0,62847:0:0:0:0:
64,192,62547,1,0,0:0:0:0:
320,192,62697,128,0,62997:0:0:0:70:LR_Drum Rpd x2.wav
448,192,62697,128,0,62847:0:0:0:70:CrashR.wav
64,192,62847,1,0,0:0:0:0:
64,192,62997,128,8,63372:0:0:0:0:
192,192,62997,128,0,63222:0:0:0:0:
448,192,63147,1,0,0:0:0:0:
192,192,63297,1,8,0:0:0:0:
448,192,63297,128,0,63522:0:0:0:0:
64,192,63447,1,0,0:0:0:0:
192,192,63597,128,0,63822:0:0:0:70:LR_Drum Rpd vFast.wav
320,192,63597,1,0,0:0:0:70:CrashL.wav
448,192,63597,128,0,63784:0:0:0:0:
64,192,63747,128,0,63972:0:0:0:0:
192,192,63897,1,8,0:0:0:0:
320,192,63897,1,0,0:0:0:0:
320,192,64047,1,0,0:0:0:0:
448,192,64047,1,0,0:0:0:0:
64,192,64197,1,0,0:0:0:70:LR_Drum Rpd vFast.wav
192,192,64197,1,0,0:0:0:0:
192,192,64347,128,0,64497:0:0:0:0:
64,192,64497,128,0,64647:0:0:0:70:LR_Drum Rpd x2.wav
320,192,64497,128,0,64572:0:0:0:70:CrashR.wav
320,192,64647,1,0,0:0:0:0:
64,192,64797,128,8,64947:0:0:0:0:
192,192,64797,128,4,64947:0:0:0:0:
448,192,64797,128,0,64872:0:0:0:0:
448,192,64947,1,0,0:0:0:0:
320,192,65097,128,8,65397:0:0:0:0:
64,192,65097,128,0,65172:0:0:0:0:
64,192,65247,1,0,0:0:0:0:
64,192,65397,128,2,65547:0:0:0:0:
192,192,65397,128,4,65472:0:0:0:0:
448,192,65397,1,0,0:0:0:0:
192,192,65547,128,0,65997:0:0:0:0:
320,192,65697,128,8,65772:0:0:0:0:
448,192,65697,128,0,65772:0:0:0:0:
320,192,65997,128,0,66147:0:0:0:70:LR_Drum Rpd vFast.wav
448,192,65997,128,0,66297:0:0:0:0:
64,192,66297,128,0,66447:0:0:0:70:LR_Drum Rpd x2.wav
192,192,66297,1,0,0:0:0:0:
320,192,66372,1,0,0:0:0:0:
448,192,66447,1,0,0:0:0:0:
64,192,66522,1,0,0:0:0:0:
192,192,66597,128,8,66672:0:0:0:0:
320,192,66597,128,0,66672:0:0:0:0:
448,192,66672,1,0,0:0:0:0:
64,192,66747,1,0,0:0:0:0:
192,192,66822,1,0,0:0:0:0:
320,192,66897,128,8,67197:0:0:0:0:
448,192,67047,128,0,67122:0:0:0:0:
192,192,67159,1,0,0:0:0:0:
64,192,67197,128,0,67272:0:0:0:70:LR_Drum Rpd vFast.wav
448,192,67197,128,0,67309:0:0:0:0:
64,192,67347,128,0,67797:0:0:0:0:
192,192,67497,128,8,67572:0:0:0:0:
320,192,67497,128,0,67572:0:0:0:0:
192,192,67797,128,0,68097:0:0:0:70:LR_Drum Rpd vFast.wav
448,192,67797,128,0,67872:0:0:0:0:
320,192,68059,1,0,0:0:0:0:
448,192,68097,128,0,68172:0:0:0:0:
64,192,68097,1,0,0:0:0:0:
192,192,68172,1,0,0:0:0:0:
320,192,68247,1,0,0:0:0:0:
448,192,68322,1,0,0:0:0:0:
192,192,68397,128,0,68472:0:0:0:0:
64,192,68397,128,0,68547:0:0:0:0:
320,192,68472,1,0,0:0:0:0:
192,192,68547,1,0,0:0:0:0:
448,192,68622,1,0,0:0:0:0:
64,192,68697,128,8,68847:0:0:0:0:
320,192,68697,1,0,0:0:0:0:
192,192,68772,128,0,68847:0:0:0:0:
64,192,68997,128,0,69184:0:0:0:70:LR_Drum Rpd vFast.wav
192,192,68997,128,0,69222:0:0:0:70:CrashL.wav
448,192,68997,128,0,69147:0:0:0:0:
320,192,69278,1,0,0:0:0:0:
64,192,69297,128,8,69447:0:0:0:0:
448,192,69297,128,0,69372:0:0:0:0:
448,192,69447,1,0,0:0:0:0:
192,192,69597,128,0,69897:0:0:0:70:LR_Drum Rpd vFast.wav
320,192,69597,128,0,69747:0:0:0:0:
64,192,69897,128,0,70122:0:0:0:70:LR_Drum Rpd x2.wav
320,192,69897,128,0,70197:0:0:0:0:
192,192,70197,128,8,70347:0:0:0:0:
448,192,70197,128,0,70497:0:0:0:0:
320,192,70347,1,0,0:0:0:0:
64,192,70497,128,8,70647:0:0:0:0:
320,192,70497,128,0,70797:0:0:0:0:
64,192,70797,128,4,71247:0:0:0:0:
192,192,70797,128,0,71097:0:0:0:70:LR_Drum Rpd vFast.wav
448,192,70797,128,0,71397:0:0:0:0:
320,192,71097,1,8,0:0:0:0:
192,192,71247,1,0,0:0:0:0:
64,192,71397,1,0,0:0:0:70:LR_Drum Rpd vFast.wav
320,192,71397,128,0,71622:0:0:0:0:
64,192,71697,128,0,72297:0:0:0:70:LR_Drum Rpd x2.wav
192,192,71697,128,0,72222:0:0:0:70:CrashL.wav
320,192,71697,128,0,71847:0:0:0:0:
320,192,71997,128,8,72297:0:0:0:0:
448,192,71997,128,0,72222:0:0:0:0:
192,192,72297,128,8,72447:0:0:0:0:
448,192,72297,128,0,72522:0:0:0:0:
64,192,72597,128,2,72747:0:0:0:0:
192,192,72597,128,4,72672:0:0:0:0:
448,192,72597,1,0,0:0:0:0:
192,192,72747,128,0,73197:0:0:0:0:
320,192,72897,128,8,72972:0:0:0:0:
448,192,72897,128,0,72972:0:0:0:0:
320,192,73197,1,0,0:0:0:70:LR_Drum Rpd vFast.wav
448,192,73197,128,0,73497:0:0:0:0:
64,192,73497,128,0,73647:0:0:0:70:LR_Drum Rpd x2.wav
192,192,73497,128,0,73572:0:0:0:0:
192,192,73647,128,0,74247:0:0:0:0:
320,192,73797,128,8,73872:0:0:0:0:
448,192,73797,128,0,73872:0:0:0:0:
64,192,73984,128,0,74247:0:0:0:0:
320,192,74097,128,8,74397:0:0:0:0:
448,192,74097,128,0,74247:0:0:0:0:
192,192,74359,1,0,0:0:0:0:
64,192,74397,128,0,74472:0:0:0:70:LR_Drum Rpd vFast.wav
448,192,74397,128,0,74509:0:0:0:0:
64,192,74547,128,0,74997:0:0:0:0:
192,192,74697,128,8,74772:0:0:0:0:
320,192,74697,128,0,74772:0:0:0:0:
192,192,74997,128,0,75297:0:0:0:70:LR_Drum Rpd vFast.wav
448,192,74997,1,0,0:0:0:0:
320,192,75259,1,0,0:0:0:0:
64,192,75297,128,0,75447:0:0:0:70:LR_Drum Rpd x2.wav
448,192,75297,1,0,0:0:0:0:
320,192,75372,1,0,0:0:0:0:
192,192,75447,1,0,0:0:0:0:
64,192,75522,1,0,0:0:0:0:
320,192,75597,128,8,75747:0:0:0:0:
448,192,75597,1,0,0:0:0:0:
192,192,75672,1,0,0:0:0:0:
64,192,75747,1,0,0:0:0:0:
448,192,75822,1,0,0:0:0:0:
64,192,75897,128,8,75972:0:0:0:0:
320,192,75897,128,0,76047:0:0:0:0:
64,192,76197,128,0,76309:0:0:0:70:LR_Drum Rpd vFast.wav
192,192,76197,128,0,76347:0:0:0:70:CrashL.wav
448,192,76197,1,0,0:0:0:0:
192,192,76497,128,8,76647:0:0:0:0:
320,192,76497,128,0,76572:0:0:0:0:
320,192,76647,1,0,0:0:0:0:
64,192,76797,1,0,0:0:0:70:LR_Drum Rpd vFast.wav
192,192,76797,128,0,77247:0:0:0:0:
320,192,77097,128,0,77397:0:0:0:70:LR_Drum Rpd x2.wav
448,192,77097,128,0,77247:0:0:0:0:
64,192,77397,128,8,77847:0:0:0:0:
192,192,77397,128,0,77622:0:0:0:0:
192,192,77697,1,8,0:0:0:0:
448,192,77697,128,0,77922:0:0:0:0:
64,192,77922,1,0,0:0:0:0:
192,192,77997,128,0,78222:0:0:0:70:LR_Drum Rpd vFast.wav
320,192,77997,1,0,0:0:0:70:CrashL.wav
448,192,77997,128,0,78184:0:0:0:0:
64,192,78147,128,0,78372:0:0:0:0:
192,192,78297,1,8,0:0:0:0:
320,192,78297,1,0,0:0:0:0:
320,192,78447,1,0,0:0:0:0:
448,192,78447,1,0,0:0:0:0:
64,192,78597,1,0,0:0:0:70:LR_Drum Rpd vFast.wav
192,192,78597,1,0,0:0:0:0:
192,192,78747,128,0,78897:0:0:0:0:
64,192,78897,128,0,79047:0:0:0:70:LR_Drum Rpd x2.wav
320,192,78897,128,0,78972:0:0:0:70:CrashR.wav
320,192,79047,1,0,0:0:0:0:
64,192,79197,128,8,79309:0:0:0:0:
192,192,79197,128,4,79347:0:0:0:0:
448,192,79197,128,0,79272:0:0:0:0:
448,192,79347,1,0,0:0:0:0:
320,192,79497,128,8,79797:0:0:0:0:
64,192,79497,128,0,79572:0:0:0:0:
64,192,79647,1,0,0:0:0:0:
64,192,79797,128,2,79947:0:0:0:0:
192,192,79797,128,4,79872:0:0:0:0:
448,192,79797,1,0,0:0:0:0:
192,192,79947,128,0,80397:0:0:0:0:
320,192,80097,128,8,80172:0:0:0:0:
448,192,80097,128,0,80172:0:0:0:0:
320,192,80397,128,0,80547:0:0:0:70:LR_Drum Rpd vFast.wav
448,192,80397,128,0,80697:0:0:0:0:
64,192,80697,128,0,80847:0:0:0:70:LR_Drum Rpd x2.wav
192,192,80697,128,0,80772:0:0:0:0:
192,192,80847,128,0,80997:0:0:0:0:
320,192,80997,128,8,81072:0:0:0:0:
448,192,80997,128,0,81072:0:0:0:0:
64,192,81072,128,0,81147:0:0:0:0:
320,192,81147,128,0,81222:0:0:0:0:
192,192,81222,128,0,81297:0:0:0:0:
320,192,81297,128,8,81597:0:0:0:0:
64,192,81372,128,0,81447:0:0:0:0:
448,192,81447,128,0,81522:0:0:0:0:
192,192,81559,1,0,0:0:0:0:
64,192,81597,128,0,81672:0:0:0:70:LR_Drum Rpd vFast.wav
448,192,81597,128,0,81709:0:0:0:0:
64,192,81747,128,0,82197:0:0:0:0:
192,192,81897,128,8,81972:0:0:0:0:
320,192,81897,128,0,81972:0:0:0:0:
192,192,82197,128,0,82497:0:0:0:70:LR_Drum Rpd vFast.wav
448,192,82197,128,0,82272:0:0:0:0:
320,192,82459,1,0,0:0:0:0:
448,192,82497,128,0,82647:0:0:0:70:LR_Drum Rpd x2.wav
192,192,82647,128,0,82897:0:0:0:0:
64,192,82797,128,8,82997:0:0:0:0:
448,192,82797,128,0,83097:0:0:0:0:
320,192,82897,128,0,83097:0:0:0:0:
192,192,82997,128,0,83197:0:0:0:0:
64,192,83097,128,8,83297:0:0:0:0:
448,192,83197,128,0,83297:0:0:0:0:
320,192,83297,128,0,83397:0:0:0:0:
64,192,83397,128,0,83584:0:0:0:70:LR_Drum Rpd vFast.wav
192,192,83397,128,0,83622:0:0:0:70:CrashL.wav
448,192,83397,128,0,83547:0:0:0:0:
320,192,83678,1,0,0:0:0:0:
64,192,83697,128,8,83847:0:0:0:0:
448,192,83697,128,0,83772:0:0:0:0:
192,192,83847,1,0,0:0:0:0:
192,192,83997,128,0,84297:0:0:0:70:LR_Drum Rpd vFast.wav
320,192,83997,128,0,84147:0:0:0:0:
64,192,84297,128,0,84522:0:0:0:70:LR_Drum Rpd x2.wav
320,192,84297,128,0,84597:0:0:0:0:
448,192,84597,128,0,84897:0:0:0:0:
64,192,84597,1,0,0:0:0:0:
320,192,84672,1,0,0:0:0:0:
192,192,84747,1,0,0:0:0:0:
192,192,84897,128,8,85047:0:0:0:0:
320,192,84897,128,0,85197:0:0:0:0:
64,192,85197,128,0,85497:0:0:0:70:LR_Drum Rpd vFast.wav
192,192,85197,128,0,85447:0:0:0:70:CrashR.wav
448,192,85197,128,0,86097:0:0:0:0:
320,192,85497,1,0,0:0:0:0:
192,192,85547,1,0,0:0:0:0:
64,192,85597,1,0,0:0:0:0:
320,192,85647,1,0,0:0:0:0:
192,192,85797,1,0,0:0:0:70:LR_Drum Rpd vFast.wav
192,192,85947,1,0,0:0:0:0:
64,192,86097,128,4,86397:0:0:0:0:
320,192,86097,128,0,86247:0:0:0:70:LR_Drum Rpd x2.wav
192,192,86172,128,0,86322:0:0:0:0:
192,192,86397,1,8,0:0:0:0:
320,192,86397,1,0,0:0:0:0:
448,192,86397,1,0,0:0:0:0:
64,192,86697,1,0,0:0:0:0:
64,192,86997,128,2,87747:0:0:0:0:
448,192,86997,1,0,0:0:0:70:CrashL.wav
320,192,87034,1,0,0:0:0:0:
192,192,87297,128,0,87897:0:0:0:0:
448,192,87597,128,0,87897:0:0:0:0:
64,192,87897,128,0,88047:0:0:0:0:
320,192,87897,128,0,88197:0:0:0:0:
192,192,88197,128,0,88347:0:0:0:0:
320,192,88497,1,0,0:0:0:0:
192,192,88647,1,0,0:0:0:0:
64,192,88797,128,2,89547:0:0:0:0:
448,192,88797,1,0,0:0:0:0:
192,192,89097,128,0,89697:0:0:0:0:
320,192,89397,1,0,0:0:0:0:
448,192,89397,128,0,89697:0:0:0:0:
64,192,89697,128,0,89847:0:0:0:70:LR_Drum Rpd x2.wav
320,192,89697,128,0,89997:0:0:0:0:
192,192,89997,1,0,0:0:0:0:
448,192,89997,128,0,90297:0:0:0:0:
64,192,90297,128,0,90447:0:0:0:0:
64,192,90597,128,2,91047:0:0:0:0:
320,192,90597,1,0,0:0:0:0:
192,192,90897,128,0,91347:0:0:0:70:LR_Drum Rpd x2.wav
320,192,91197,128,0,91347:0:0:0:0:
192,192,91497,128,2,92097:0:0:0:0:
320,192,91497,128,0,91647:0:0:0:0:
448,192,91797,128,0,92397:0:0:0:70:LR_Drum Rpd x2.wav
64,192,92097,128,0,92247:0:0:0:0:
192,192,92247,128,0,92397:0:0:0:0:
64,192,92397,128,2,93447:0:0:0:0:
320,192,92397,128,0,92697:0:0:0:0:
192,192,92697,1,0,0:0:0:70:LR_Drum Rpd x2.wav
448,192,92697,128,0,92997:0:0:0:0:
320,192,92997,128,0,93147:0:0:0:70:LR_Drum Rpd vFast.wav
448,192,93147,1,0,0:0:0:0:
320,192,93222,1,0,0:0:0:0:
192,192,93297,128,2,93597:0:0:0:0:
448,192,93297,128,0,93372:0:0:0:0:
64,192,93597,1,0,0:0:0:70:LR_Drum Rpd x2.wav
320,192,93597,1,0,0:0:0:0:
448,192,93672,1,0,0:0:0:0:
320,192,93747,128,0,93822:0:0:0:0:
192,192,93897,128,0,93972:0:0:0:70:LR_Drum Rpd vFast.wav
448,192,93897,128,0,94047:0:0:0:0:
64,192,94047,128,0,94122:0:0:0:0:
64,192,94197,128,2,94272:0:0:0:0:
320,192,94197,128,0,94347:0:0:0:70:CrashR.wav
448,192,94197,1,0,0:0:0:0:
192,192,94347,128,0,94422:0:0:0:0:
320,192,94497,128,0,94572:0:0:0:70:LR_Drum Rpd vFast.wav
448,192,94497,128,0,94647:0:0:0:0:
192,192,94647,128,0,94722:0:0:0:0:
64,192,94797,128,0,94872:0:0:0:70:LR_Drum Rpd x2.wav
320,192,94797,128,0,94947:0:0:0:0:
448,192,94947,128,0,95022:0:0:0:0:
64,192,95097,1,4,0:0:0:0:
192,192,95097,128,0,95247:0:0:0:70:LR_Drum Rpd x2.wav
448,192,95097,1,0,0:0:0:0:
448,192,95247,1,0,0:0:0:0:
192,192,95397,128,0,95472:0:0:0:70:LR_Drum Rpd vFast.wav
320,192,95397,128,0,95547:0:0:0:0:
448,192,95697,128,0,95772:0:0:0:70:LR_Drum Rpd x2.wav
448,192,95847,1,0,0:0:0:0:
64,192,95997,1,0,0:0:0:70:LR_Drum Rpd x2.wav
320,192,95997,128,0,96072:0:0:0:0:
448,192,95997,1,0,0:0:0:0:
192,192,96147,128,0,96222:0:0:0:0:
64,192,96297,128,0,96372:0:0:0:70:LR_Drum Rpd vFast.wav
320,192,96297,128,0,96447:0:0:0:0:
448,192,96447,128,0,96522:0:0:0:0:
192,192,96597,128,0,96897:0:0:0:70:LR_Drum Rpd x2.wav
320,192,96597,128,0,96747:0:0:0:0:
64,192,96897,128,0,97047:0:0:0:70:LR_Drum Rpd x2.wav
320,192,96897,128,0,97197:0:0:0:0:
448,192,97047,128,0,97197:0:0:0:0:
64,192,97197,128,0,97272:0:0:0:70:LR_Drum Rpd vFast.wav
192,192,97197,128,0,97347:0:0:0:0:
320,192,97347,128,0,97497:0:0:0:0:
192,192,97497,128,0,97647:0:0:0:70:LR_Drum Rpd x2.wav
64,192,97647,128,0,97797:0:0:0:0:
192,192,97797,128,4,98097:0:0:0:0:
320,192,97797,128,0,97947:0:0:0:70:LR_Drum Rpd x2.wav
448,192,97797,1,0,0:0:0:0:
320,192,98097,128,0,98397:0:0:0:70:LR_Drum Rpd vFast.wav
448,192,98097,128,0,98247:0:0:0:0:
192,192,98247,1,0,0:0:0:0:
64,192,98397,1,0,0:0:0:70:LR_Drum Rpd x2.wav
448,192,98397,128,0,98697:0:0:0:0:
192,192,98547,1,0,0:0:0:70:LR_Drum Rpd vFast.wav
192,192,98697,128,0,98847:0:0:0:70:LR_Drum Rpd x2.wav
320,192,98697,128,0,98997:0:0:0:0:
64,192,98997,128,0,99297:0:0:0:70:LR_Drum Rpd vFast.wav
192,192,98997,128,0,99147:0:0:0:0:
192,192,99297,128,0,99597:0:0:0:70:LR_Drum Rpd x2.wav
448,192,99297,1,0,0:0:0:0:
320,192,99447,1,0,0:0:0:0:
64,192,99597,128,0,99672:0:0:0:70:LR_Drum Rpd x2.wav
320,192,99597,128,0,100647:0:0:0:0:
64,192,99747,1,0,0:0:0:70:LR_Drum Rpd vFast.wav
64,192,100047,1,0,0:0:0:70:LR_Drum Rpd vFast.wav
64,192,100197,1,0,0:0:0:70:LR_Drum Rpd x2.wav
448,192,100197,128,0,100647:0:0:0:0:
64,192,100347,1,0,0:0:0:70:LR_Drum Rpd vFast.wav
64,192,100497,128,0,100797:0:0:0:70:LR_Drum Rpd x2.wav
192,192,100497,128,0,101097:0:0:0:0:
320,192,100797,1,0,0:0:0:70:LR_Drum Rpd vFast.wav
448,192,100797,1,0,0:0:0:70:CrashR.wav
64,192,101097,1,0,0:0:0:70:LR_Drum Rpd x2.wav
320,192,101097,1,0,0:0:0:0:
192,192,101322,1,0,0:0:0:0:
320,192,101359,1,0,0:0:0:0:
64,192,101397,1,2,0:0:0:0:
448,192,101397,128,0,101547:0:0:0:0:
64,192,101697,1,4,0:0:0:0:
320,192,101697,1,0,0:0:0:70:LR_Drum Rpd vFast.wav
448,192,101697,128,0,101847:0:0:0:0:
192,192,101847,128,0,101997:0:0:0:0:
64,192,101997,1,4,0:0:0:0:
320,192,101997,128,2,102147:0:0:0:0:
448,192,101997,128,0,102147:0:0:0:0:
192,192,102147,128,0,102297:0:0:0:0:
64,192,102297,128,0,102597:0:0:0:70:LR_Drum Rpd x2.wav
448,192,102297,128,0,102447:0:0:0:0:
192,192,102597,128,0,102747:0:0:0:70:LR_Drum Rpd vFast.wav
448,192,102597,128,0,102897:0:0:0:0:
320,192,102747,128,0,103047:0:0:0:70:LR_Drum Rpd vFast.wav
64,192,102897,128,0,103047:0:0:0:70:LR_Drum Rpd x2.wav
192,192,102897,128,0,103197:0:0:0:0:
64,192,103197,1,4,0:0:0:0:
320,192,103197,128,2,104022:0:0:0:0:
448,192,103197,1,0,0:0:0:0:
64,192,103497,1,8,0:0:0:0:
192,192,103797,1,0,0:0:0:0:
320,192,104097,1,0,0:0:0:0:
448,192,104097,128,0,104922:0:0:0:0:
64,192,104397,1,8,0:0:0:0:
192,192,104697,128,8,104922:0:0:0:0:
64,192,104997,1,0,0:0:0:0:
320,192,104997,128,0,105822:0:0:0:0:
448,192,105034,1,0,0:0:0:0:
192,192,105147,128,0,105597:0:0:0:0:
448,192,105597,1,0,0:0:0:0:
64,192,105897,1,0,0:0:0:0:
192,192,105897,128,0,106197:0:0:0:0:
320,192,106047,128,0,106347:0:0:0:0:
448,192,106197,1,8,0:0:0:0:
320,192,106497,1,8,0:0:0:0:
64,192,106797,1,0,0:0:0:70:CrashL.wav
192,192,106797,128,0,107097:0:0:0:0:
64,192,107097,128,8,107397:0:0:0:0:
448,192,107247,128,0,107397:0:0:0:0:
192,192,107397,128,0,107547:0:0:0:0:
64,192,107547,128,0,107697:0:0:0:0:
320,192,107697,128,0,107997:0:0:0:0:
448,192,107697,1,0,0:0:0:0:
448,192,107847,128,0,107997:0:0:0:0:
192,192,107997,128,8,108297:0:0:0:0:
64,192,108147,128,0,108297:0:0:0:0:
320,192,108297,128,8,108597:0:0:0:0:
448,192,108447,128,0,108522:0:0:0:0:
64,192,108597,1,0,0:0:0:70:CrashR.wav
192,192,108597,128,0,109047:0:0:0:0:
448,192,108597,1,0,0:0:0:0:
448,192,108747,128,0,109797:0:0:0:0:
64,192,108897,128,8,109422:0:0:0:0:
320,192,108897,1,0,0:0:0:0:
320,192,109047,1,0,0:0:0:0:
192,192,109197,1,0,0:0:0:0:
64,192,109497,128,0,109647:0:0:0:70:LR_Drum Rpd x2.wav
192,192,109497,128,0,109572:0:0:0:0:
192,192,109647,1,0,0:0:0:0:
64,192,109797,1,0,0:0:0:70:LR_Drum Rpd vFast.wav
192,192,109797,128,0,109872:0:0:0:0:
320,192,109797,128,0,109947:0:0:0:0:
64,192,109947,128,0,110172:0:0:0:0:
192,192,110022,128,0,110172:0:0:0:0:
320,192,110097,128,0,110172:0:0:0:70:LR_Drum Rpd x2.wav
448,192,110097,128,0,110247:0:0:0:0:
320,192,110247,1,0,0:0:0:0:
64,192,110397,1,4,0:0:0:0:
320,192,110397,128,2,110472:0:0:0:0:
448,192,110397,1,0,0:0:0:0:
320,192,110547,128,0,111147:0:0:0:0:
64,192,110697,128,8,110772:0:0:0:0:
192,192,110697,128,0,110772:0:0:0:0:
64,192,110997,128,8,111147:0:0:0:0:
192,192,110997,1,0,0:0:0:0:
192,192,111297,128,8,111447:0:0:0:0:
448,192,111297,128,0,111372:0:0:0:0:
320,192,111372,128,0,111522:0:0:0:0:
448,192,111447,128,0,112122:0:0:0:0:
64,192,111597,128,8,111672:0:0:0:0:
192,192,111597,128,0,111672:0:0:0:0:
64,192,111897,128,8,112047:0:0:0:0:
192,192,112197,128,8,112347:0:0:0:0:
320,192,112197,128,0,112272:0:0:0:0:
448,192,112234,1,0,0:0:0:0:
320,192,112347,128,0,112647:0:0:0:0:
64,192,112497,128,8,112572:0:0:0:0:
448,192,112497,128,0,112572:0:0:0:0:
192,192,112647,128,0,112797:0:0:0:0:
448,192,112797,128,8,112947:0:0:0:0:
320,192,112947,128,0,113097:0:0:0:0:
64,192,113097,128,8,113172:0:0:0:0:
448,192,113097,128,0,113322:0:0:0:0:
320,192,113172,1,0,0:0:0:0:
64,192,113397,128,8,113472:0:0:0:0:
448,192,113397,128,0,113697:0:0:0:0:
192,192,113472,1,0,0:0:0:0:
320,192,113697,128,8,113997:0:0:0:0:
64,192,113997,1,8,0:0:0:0:
192,192,113997,128,0,114297:0:0:0:70:CrashL.wav
448,192,113997,1,0,0:0:0:0:
64,192,114297,128,8,114597:0:0:0:0:
320,192,114297,128,0,114372:0:0:0:0:
192,192,114597,128,8,114747:0:0:0:0:
64,192,114747,1,0,0:0:0:0:
320,192,114897,128,8,115197:0:0:0:0:
448,192,114897,1,0,0:0:0:0:
192,192,115197,128,8,115422:0:0:0:0:
448,192,115197,128,0,115422:0:0:0:0:
64,192,115309,128,0,115422:0:0:0:0:
192,192,115497,128,8,115722:0:0:0:0:
320,192,115497,128,0,115722:0:0:0:0:
448,192,115609,128,0,115722:0:0:0:0:
64,192,115797,128,8,115872:0:0:0:0:
192,192,115797,128,0,116097:0:0:0:70:CrashR.wav
320,192,115797,128,0,115872:0:0:0:0:
64,192,115947,128,0,116247:0:0:0:0:
448,192,115947,1,0,0:0:0:0:
320,192,116097,1,8,0:0:0:0:
192,192,116247,1,0,0:0:0:0:
64,192,116397,128,8,116697:0:0:0:0:
320,192,116397,1,0,0:0:0:0:
448,192,116547,1,0,0:0:0:0:
192,192,116697,128,8,116997:0:0:0:0:
320,192,116697,128,0,117222:0:0:0:70:CrashL.wav
448,192,116697,128,0,116922:0:0:0:0:
64,192,116997,128,0,117522:0:0:0:70:LR_Drum Rpd vFast.wav
448,192,116997,1,0,0:0:0:0:
448,192,117147,1,0,0:0:0:0:
192,192,117297,128,0,117522:0:0:0:70:LR_Drum Rpd x2.wav
320,192,117297,1,0,0:0:0:0:
448,192,117447,1,0,0:0:0:0:
64,192,117597,1,2,0:0:0:0:
320,192,117597,128,4,117672:0:0:0:0:
448,192,117597,1,0,0:0:0:0:
320,192,117747,128,0,118347:0:0:0:0:
64,192,117897,128,8,117972:0:0:0:0:
192,192,117897,128,0,117972:0:0:0:0:
64,192,118197,128,0,118272:0:0:0:70:LR_Drum Rpd vFast.wav
192,192,118197,1,0,0:0:0:0:
64,192,118497,128,0,118647:0:0:0:70:LR_Drum Rpd x2.wav
448,192,118497,128,0,118572:0:0:0:0:
448,192,118647,128,0,119322:0:0:0:0:
64,192,118797,128,8,118872:0:0:0:0:
192,192,118797,128,0,118947:0:0:0:0:
320,192,119097,128,8,119247:0:0:0:0:
192,192,119397,128,0,119547:0:0:0:70:LR_Drum Rpd vFast.wav
320,192,119397,128,0,119472:0:0:0:0:
448,192,119434,1,0,0:0:0:0:
320,192,119547,128,0,120072:0:0:0:0:
64,192,119697,128,8,119772:0:0:0:0:
448,192,119697,128,0,119772:0:0:0:0:
192,192,119847,128,0,119922:0:0:0:0:
448,192,119997,128,0,120072:0:0:0:70:LR_Drum Rpd vFast.wav
320,192,120147,128,0,120222:0:0:0:0:
64,192,120297,1,0,0:0:0:70:LR_Drum Rpd x2.wav
192,192,120297,128,0,120372:0:0:0:0:
192,192,120447,128,0,120747:0:0:0:0:
64,192,120597,128,8,120697:0:0:0:0:
320,192,120597,128,0,120797:0:0:0:0:
64,192,120897,128,8,121047:0:0:0:0:
64,192,121197,1,0,0:0:0:70:LR_Drum Rpd vFast.wav
192,192,121197,128,0,121422:0:0:0:70:CrashL.wav
448,192,121197,1,0,0:0:0:0:
64,192,121497,128,8,121797:0:0:0:0:
448,192,121647,128,0,121797:0:0:0:0:
192,192,121797,128,0,122097:0:0:0:70:LR_Drum Rpd vFast.wav
64,192,121947,128,0,122097:0:0:0:0:
320,192,122097,128,0,122172:0:0:0:70:LR_Drum Rpd x2.wav
448,192,122097,1,0,0:0:0:0:
320,192,122247,128,0,122397:0:0:0:0:
192,192,122397,128,8,122697:0:0:0:0:
64,192,122547,128,0,122697:0:0:0:0:
320,192,122697,128,8,122997:0:0:0:0:
448,192,122847,128,0,122922:0:0:0:0:
64,192,122997,1,0,0:0:0:70:LR_Drum Rpd vFast.wav
192,192,122997,128,0,123447:0:0:0:70:CrashL.wav
448,192,122997,1,0,0:0:0:0:
448,192,123147,128,0,124197:0:0:0:0:
64,192,123297,128,8,123822:0:0:0:0:
320,192,123297,1,0,0:0:0:0:
320,192,123447,1,0,0:0:0:0:
192,192,123597,1,0,0:0:0:70:LR_Drum Rpd vFast.wav
64,192,123897,128,0,124047:0:0:0:70:LR_Drum Rpd x2.wav
192,192,123897,128,0,123972:0:0:0:70:CrashR.wav
64,192,124197,1,8,0:0:0:0:
192,192,124197,128,4,124272:0:0:0:0:
320,192,124197,128,0,124347:0:0:0:0:
64,192,124347,1,0,0:0:0:0:
448,192,124347,1,0,0:0:0:0:
320,192,124497,128,8,124572:0:0:0:0:
448,192,124497,128,0,124647:0:0:0:0:
64,192,124647,1,0,0:0:0:0:
320,192,124647,1,0,0:0:0:0:
64,192,124797,1,2,0:0:0:0:
320,192,124797,128,4,124872:0:0:0:0:
448,192,124797,1,0,0:0:0:0:
192,192,124872,1,0,0:0:0:0:
320,192,124947,128,0,125547:0:0:0:0:
64,192,125097,128,8,125172:0:0:0:0:
192,192,125097,128,0,125172:0:0:0:0:
64,192,125397,128,0,125547:0:0:0:70:LR_Drum Rpd vFast.wav
192,192,125397,1,0,0:0:0:0:
192,192,125697,128,0,125847:0:0:0:70:LR_Drum Rpd x2.wav
448,192,125697,128,0,125772:0:0:0:0:
320,192,125772,128,0,125922:0:0:0:0:
448,192,125847,128,0,126522:0:0:0:0:
64,192,125997,128,8,126072:0:0:0:0:
192,192,125997,128,0,126147:0:0:0:0:
64,192,126297,128,8,126447:0:0:0:0:
192,192,126597,128,0,126747:0:0:0:70:LR_Drum Rpd vFast.wav
320,192,126597,128,0,126672:0:0:0:0:
448,192,126634,1,0,0:0:0:0:
320,192,126747,128,0,127047:0:0:0:0:
64,192,126897,128,8,126972:0:0:0:0:
448,192,126897,128,0,126972:0:0:0:0:
192,192,127047,128,0,127197:0:0:0:0:
448,192,127197,128,0,127272:0:0:0:70:LR_Drum Rpd vFast.wav
192,192,127347,128,0,127422:0:0:0:0:
64,192,127497,128,0,127572:0:0:0:70:LR_Drum Rpd x2.wav
448,192,127497,128,0,127722:0:0:0:0:
320,192,127572,1,0,0:0:0:0:
64,192,127797,128,8,127872:0:0:0:0:
448,192,127797,128,0,128097:0:0:0:0:
192,192,127872,1,0,0:0:0:0:
320,192,128097,128,8,128397:0:0:0:0:
64,192,128397,1,4,0:0:0:0:
192,192,128397,128,0,128697:0:0:0:70:LR_Drum Rpd vFast.wav
448,192,128397,1,0,0:0:0:0:
64,192,128697,128,8,128997:0:0:0:0:
448,192,128697,128,0,128772:0:0:0:0:
320,192,128847,128,0,128922:0:0:0:0:
192,192,128997,128,0,129147:0:0:0:70:LR_Drum Rpd vFast.wav
448,192,128997,128,0,129072:0:0:0:0:
64,192,129147,1,0,0:0:0:0:
320,192,129297,128,0,129597:0:0:0:70:LR_Drum Rpd x2.wav
448,192,129297,1,0,0:0:0:0:
192,192,129597,128,8,129822:0:0:0:0:
448,192,129597,128,0,129822:0:0:0:0:
192,192,129897,128,8,130122:0:0:0:0:
320,192,129897,128,0,130122:0:0:0:0:
64,192,130197,128,4,130272:0:0:0:0:
192,192,130197,128,0,130497:0:0:0:70:LR_Drum Rpd vFast.wav
320,192,130197,128,0,130347:0:0:0:0:
64,192,130347,128,0,130947:0:0:0:0:
320,192,130497,1,8,0:0:0:0:
192,192,130647,1,0,0:0:0:0:
192,192,130797,1,0,0:0:0:70:LR_Drum Rpd vFast.wav
448,192,130797,1,0,0:0:0:0:
64,192,131097,1,0,0:0:0:70:LR_Drum Rpd x2.wav
192,192,131097,128,0,131247:0:0:0:70:CrashL.wav
320,192,131097,128,0,131397:0:0:0:0:
64,192,131397,1,8,0:0:0:0:
448,192,131397,1,0,0:0:0:0:
192,192,131622,1,0,0:0:0:0:
320,192,131659,1,0,0:0:0:0:
448,192,131697,1,0,0:0:0:0:
64,192,131772,1,0,0:0:0:0:
320,192,131847,1,0,0:0:0:0:
448,192,131922,1,0,0:0:0:0:
64,192,131997,128,2,132897:0:0:0:0:
192,192,131997,1,0,0:0:0:70:LR_Chm Echo long.wav
192,192,132297,128,0,132897:0:0:0:0:
448,192,132597,128,0,132747:0:0:0:0:
320,192,132897,1,0,0:0:0:0:
448,192,132897,128,0,133797:0:0:0:0:
192,192,133197,1,0,0:0:0:0:
64,192,133797,1,2,0:0:0:0:
320,192,133797,128,0,134547:0:0:0:0:
192,192,134097,128,0,134697:0:0:0:0:
64,192,134397,1,0,0:0:0:0:
448,192,134397,128,0,134697:0:0:0:0:
64,192,134697,128,0,135147:0:0:0:0:
320,192,134697,1,0,0:0:0:0:
192,192,134997,1,0,0:0:0:0:
64,192,135297,1,0,0:0:0:0:
64,192,135597,1,2,0:0:0:0:
192,192,135597,128,0,135897:0:0:0:0:
64,192,135897,128,0,136197:0:0:0:0:
448,192,135897,128,0,136497:0:0:0:0:
192,192,136197,128,0,136497:0:0:0:0:
64,192,136497,128,0,137097:0:0:0:0:
320,192,136497,128,0,136797:0:0:0:0:
448,192,136797,128,0,137097:0:0:0:0:
192,192,137097,128,0,137247:0:0:0:0:
320,192,137097,128,0,137397:0:0:0:0:
448,192,137247,1,0,0:0:0:0:
64,192,137397,128,2,137997:0:0:0:0:
192,192,137397,128,0,137847:0:0:0:0:
448,192,137697,1,0,0:0:0:70:LR_Drum Rpd x2.wav
192,192,137997,1,0,0:0:0:70:LR_Drum Rpd x2.wav
320,192,137997,1,0,0:0:0:0:
64,192,138297,128,2,138597:0:0:0:0:
192,192,138597,1,2,0:0:0:0:
64,192,139197,128,0,140097:0:0:0:0:
192,192,139197,1,0,0:0:0:0:
320,192,139497,1,0,0:0:0:0:
448,192,139797,1,0,0:0:0:0:
320,192,140097,1,0,0:0:0:0:
448,192,140097,128,0,140997:0:0:0:0:
192,192,140397,1,0,0:0:0:0:
64,192,140997,1,0,0:0:0:0:
320,192,140997,128,0,141897:0:0:0:0:
192,192,141297,1,0,0:0:0:0:
448,192,141597,1,0,0:0:0:0:
64,192,141897,128,0,142197:0:0:0:0:
192,192,141897,1,0,0:0:0:0:
320,192,142197,1,0,0:0:0:0:
192,192,142497,128,0,142647:0:0:0:0:
64,192,142797,1,0,0:0:0:0:
192,192,142797,128,0,143697:0:0:0:0:
320,192,143097,1,0,0:0:0:0:
448,192,143397,1,0,0:0:0:0:
320,192,143697,128,0,144597:0:0:0:0:
448,192,143697,1,0,0:0:0:0:
64,192,143997,1,0,0:0:0:0:
448,192,144297,1,0,0:0:0:0:
64,192,144447,1,0,0:0:0:0:
192,192,144597,1,0,0:0:0:0:
448,192,144597,128,0,144672:0:0:0:0:
448,192,144747,128,0,147297:0:0:0:0:
320,192,144897,1,0,0:0:0:0:
192,192,145197,1,0,0:0:0:0:
64,192,145497,128,0,147297:0:0:0:0:
