osu file format v14

[General]
AudioFilename: audio.mp3
AudioLeadIn: 0
PreviewTime: 58197
Countdown: 0
SampleSet: Soft
StackLeniency: 0.7
Mode: 3
LetterboxInBreaks: 0
SpecialStyle: 0
WidescreenStoryboard: 1

[Editor]
Bookmarks: 14997,29397,58197,72597,86997,103197,131997
DistanceSpacing: 1.2
BeatDivisor: 4
GridSize: 8
TimelineZoom: 0.9999998

[Metadata]
Title:Promise (feat. Sherie)
TitleUnicode:約束之歌 (약속지가) (feat. Sherie)
Artist:M2U
ArtistUnicode:M2U
Creator:-NoName-
Version:6K Easy
Source:하이파이브
Tags:yakusoku no uta yagsogjiga o2jam high5 adieu chérie video game folk famoss guden korean ダイバーシティ DIVERSITY. Diversity Universal Music
BeatmapID:2702471
BeatmapSetID:1301740

[Difficulty]
HPDrainRate:7
CircleSize:6
OverallDifficulty:7
ApproachRate:5
SliderMultiplier:1.4
SliderTickRate:1

[Events]
//Background and Video events
0,0,"bg.jpg",0,0
//Break Periods
//Storyboard Layer 0 (Background)
//Storyboard Layer 1 (Fail)
//Storyboard Layer 2 (Pass)
//Storyboard Layer 3 (Foreground)
//Storyboard Layer 4 (Overlay)
//Storyboard Sound Samples
Sample,14397,0,"CrashR.wav",70
Sample,29397,0,"LR_Chm Echo long.wav",70
Sample,43197,0,"TomTom1.wav",70
Sample,57747,0,"LR_Drum Rpd vFast.wav",70
Sample,62697,0,"CrashR.wav",70
Sample,86997,0,"CrashL.wav",70
Sample,100797,0,"CrashR.wav",70

[TimingPoints]
597,300,6,2,1,70,1,0
58197,-100,6,2,1,70,0,1
70797,-100,6,2,1,70,0,0
72597,-100,6,2,1,70,0,1
86997,-100,6,2,1,70,0,0
103197,-100,6,2,1,70,0,1
115797,-100,6,2,1,70,0,0
117597,-100,6,2,1,70,0,1
131997,-100,6,2,1,70,0,0

[HitObjects]
298,192,597,128,0,1497:0:0:0:0:
42,192,1497,1,0,0:0:0:0:
213,192,2397,128,0,3297:0:0:0:0:
469,192,3297,1,0,0:0:0:0:
128,192,4197,128,0,5097:0:0:0:0:
213,192,5097,128,0,5997:0:0:0:0:
384,192,5997,128,0,6897:0:0:0:0:
42,192,6897,128,0,7797:0:0:0:0:
469,192,7497,1,0,0:0:0:0:
213,192,7797,1,2,0:0:0:0:
298,192,7797,128,4,8697:0:0:0:0:
42,192,8697,1,0,0:0:0:70:LR_Drum Rpd x2.wav
213,192,9597,128,0,10497:0:0:0:70:LR_Drum Rpd x2.wav
469,192,10497,1,0,0:0:0:70:LR_Drum Rpd x2.wav
42,192,11397,128,0,12297:0:0:0:70:LR_Drum Rpd x2.wav
128,192,12297,128,0,13197:0:0:0:70:LR_Drum Rpd x2.wav
469,192,13197,128,0,14097:0:0:0:70:LR_Drum Rpd x2.wav
42,192,14097,1,0,0:0:0:70:LR_Drum Rpd vFast.wav
213,192,14397,1,2,0:0:0:0:
298,192,14697,1,0,0:0:0:70:CrashL.wav
128,192,14997,1,2,0:0:0:0:
384,192,14997,128,4,15597:0:0:0:0:
469,192,15597,128,0,15897:0:0:0:70:LR_Drum Rpd vFast.wav
384,192,15897,128,0,16497:0:0:0:70:LR_Drum Rpd x2.wav
128,192,16497,128,8,16797:0:0:0:0:
213,192,16797,128,0,17397:0:0:0:70:LR_Drum Rpd vFast.wav
384,192,17397,128,0,17697:0:0:0:70:LR_Drum Rpd vFast.wav
298,192,17697,128,0,17997:0:0:0:70:LR_Drum Rpd x2.wav
213,192,17997,128,8,18297:0:0:0:0:
128,192,18297,128,8,18597:0:0:0:0:
42,192,18597,128,0,19197:0:0:0:70:LR_Drum Rpd vFast.wav
384,192,18597,1,0,0:0:0:0:
298,192,19197,128,0,19497:0:0:0:70:LR_Drum Rpd vFast.wav
213,192,19497,128,0,19797:0:0:0:70:LR_Drum Rpd x2.wav
298,192,19797,128,8,20097:0:0:0:0:
384,192,20097,128,8,20397:0:0:0:0:
469,192,20397,128,0,22197:0:0:0:70:LR_Drum Rpd vFast.wav
42,192,21297,128,0,21597:0:0:0:70:LR_Drum Rpd x2.wav
128,192,21597,128,8,21897:0:0:0:0:
213,192,21897,128,8,22197:0:0:0:0:
298,192,22197,1,2,0:0:0:0:
384,192,22197,128,0,22797:0:0:0:0:
469,192,22797,128,0,23097:0:0:0:70:LR_Drum Rpd vFast.wav
384,192,23097,128,0,23697:0:0:0:70:LR_Drum Rpd x2.wav
128,192,23697,128,8,23997:0:0:0:0:
213,192,23997,128,0,24597:0:0:0:70:LR_Drum Rpd vFast.wav
469,192,24597,128,0,24897:0:0:0:70:LR_Drum Rpd vFast.wav
384,192,24897,128,0,25197:0:0:0:70:LR_Drum Rpd x2.wav
298,192,25197,128,8,25497:0:0:0:0:
128,192,25497,128,0,25797:0:0:0:0:
42,192,25797,128,0,26697:0:0:0:70:LR_Drum Rpd vFast.wav
213,192,26697,128,0,27597:0:0:0:70:LR_Drum Rpd x2.wav
384,192,27597,128,0,28197:0:0:0:70:LR_Drum Rpd vFast.wav
298,192,28197,128,0,28497:0:0:0:70:LR_Drum Rpd vFast.wav
42,192,28497,1,0,0:0:0:70:LR_Drum Rpd x2.wav
128,192,28497,1,0,0:0:0:70:CrashR.wav
384,192,28797,1,2,0:0:0:0:
469,192,28797,1,0,0:0:0:0:
128,192,29397,128,2,29697:0:0:0:0:
213,192,29697,128,0,30297:0:0:0:0:
128,192,30297,128,0,30597:0:0:0:70:LR_Drum Rpd vFast.wav
384,192,30297,1,0,0:0:0:0:
213,192,30597,128,0,30897:0:0:0:0:
469,192,30897,128,0,31197:0:0:0:0:
384,192,31197,128,2,31797:0:0:0:0:
128,192,31797,1,0,0:0:0:70:LR_Drum Rpd x2.wav
128,192,32097,128,0,32697:0:0:0:70:LR_Drum Rpd vFast.wav
298,192,32097,1,0,0:0:0:0:
298,192,32997,1,2,0:0:0:0:
298,192,33297,128,0,33597:0:0:0:0:
384,192,33597,128,0,33897:0:0:0:70:LR_Drum Rpd x2.wav
213,192,33897,128,0,34497:0:0:0:70:LR_Drum Rpd vFast.wav
469,192,33897,1,0,0:0:0:0:
42,192,34497,128,0,34797:0:0:0:0:
213,192,34797,128,2,35997:0:0:0:0:
298,192,34797,1,0,0:0:0:0:
384,192,35997,1,0,0:0:0:70:TomTom1.wav
128,192,36597,128,2,36897:0:0:0:0:
213,192,36897,128,0,37497:0:0:0:0:
128,192,37497,128,0,37797:0:0:0:70:LR_Drum Rpd vFast.wav
384,192,37497,1,0,0:0:0:0:
213,192,37797,128,0,38097:0:0:0:0:
469,192,38097,128,0,38397:0:0:0:0:
384,192,38397,128,2,38997:0:0:0:0:
213,192,38997,128,0,39297:0:0:0:70:LR_Drum Rpd x2.wav
469,192,39297,1,0,0:0:0:70:LR_Drum Rpd vFast.wav
298,192,39597,128,0,39897:0:0:0:70:LR_J Hit Edge F.wav
384,192,39897,128,0,40197:0:0:0:0:
469,192,40197,128,2,40497:0:0:0:0:
384,192,40497,128,0,40797:0:0:0:70:LR_Drum Rpd x2.wav
298,192,40797,128,0,41097:0:0:0:70:LR_Drum Rpd x2.wav
128,192,41097,128,0,41397:0:0:0:70:LR_Drum Rpd vFast.wav
42,192,41397,128,0,41697:0:0:0:70:LR_Drum Rpd x2.wav
128,192,41697,128,0,41997:0:0:0:70:LR_Drum Rpd vFast.wav
213,192,41997,128,2,43197:0:0:0:0:
298,192,41997,1,0,0:0:0:0:
469,192,42897,1,0,0:0:0:70:LR_Drum Rpd vFast.wav
42,192,43197,1,0,0:0:0:70:LR_Drum Rpd x2.wav
128,192,43797,1,2,0:0:0:0:
384,192,43797,128,0,44397:0:0:0:70:CrashL.wav
298,192,44397,1,0,0:0:0:0:
213,192,44697,128,0,45297:0:0:0:0:
298,192,45297,1,0,0:0:0:0:
42,192,45597,128,0,46197:0:0:0:0:
384,192,46197,1,0,0:0:0:0:
298,192,46497,128,0,47097:0:0:0:0:
213,192,47097,1,0,0:0:0:0:
128,192,47397,128,2,48297:0:0:0:0:
384,192,47697,1,0,0:0:0:0:
213,192,48297,128,0,49197:0:0:0:0:
469,192,48597,1,0,0:0:0:0:
128,192,49197,1,8,0:0:0:0:
298,192,49197,128,0,49647:0:0:0:0:
42,192,49647,128,8,50097:0:0:0:0:
469,192,49647,1,0,0:0:0:70:CrashL.wav
128,192,50097,128,8,50547:0:0:0:0:
384,192,50097,1,0,0:0:0:70:CrashR.wav
213,192,50547,128,8,50997:0:0:0:0:
298,192,50547,1,0,0:0:0:70:CrashL.wav
42,192,50997,1,2,0:0:0:0:
384,192,50997,128,0,51597:0:0:0:70:CrashR.wav
128,192,51297,1,8,0:0:0:0:
213,192,51597,128,0,51897:0:0:0:0:
298,192,51897,1,4,0:0:0:0:
469,192,51897,128,2,52497:0:0:0:0:
42,192,52197,1,8,0:0:0:0:
384,192,52497,128,0,52797:0:0:0:0:
128,192,52797,1,2,0:0:0:0:
298,192,52797,128,4,53097:0:0:0:0:
213,192,53097,128,8,53397:0:0:0:0:
42,192,53397,128,8,53697:0:0:0:0:
213,192,53697,128,2,53997:0:0:0:0:
298,192,53997,128,8,54297:0:0:0:0:
42,192,54597,128,2,55197:0:0:0:0:
213,192,54597,1,0,0:0:0:70:CrashL.wav
298,192,55197,128,0,55497:0:0:0:70:LR_Drum Rpd vFast.wav
384,192,55197,1,0,0:0:0:0:
128,192,55497,1,2,0:0:0:0:
213,192,55497,128,0,56097:0:0:0:70:CrashR.wav
42,192,56097,128,0,56397:0:0:0:70:LR_Drum Rpd vFast.wav
384,192,56097,1,0,0:0:0:0:
128,192,56397,1,2,0:0:0:0:
469,192,56397,128,4,57597:0:0:0:0:
213,192,56697,1,0,0:0:0:70:LR_Drum Rpd vFast.wav
298,192,56997,1,0,0:0:0:70:LR_Drum Rpd x2.wav
42,192,57297,1,6,0:0:0:0:
128,192,57597,1,0,0:0:0:70:LR_Drum Rpd vFast.wav
213,192,57747,1,8,0:0:0:0:
298,192,57897,1,0,0:0:0:70:LR_Drum Rpd x2.wav
384,192,58047,1,0,0:0:0:70:LR_Drum Rpd x2.wav
42,192,58197,128,2,58797:0:0:0:0:
469,192,58197,1,4,0:0:0:0:
298,192,58497,1,8,0:0:0:0:
469,192,58797,128,0,59097:0:0:0:70:LR_Drum Rpd vFast.wav
128,192,59097,1,0,0:0:0:70:LR_Drum Rpd x2.wav
384,192,59097,128,0,59697:0:0:0:0:
213,192,59397,1,8,0:0:0:0:
42,192,59697,128,8,59997:0:0:0:0:
128,192,59997,128,0,60597:0:0:0:70:LR_Drum Rpd vFast.wav
469,192,59997,1,0,0:0:0:0:
298,192,60297,1,8,0:0:0:0:
469,192,60597,128,0,60897:0:0:0:70:LR_Drum Rpd vFast.wav
42,192,60897,1,0,0:0:0:70:LR_Drum Rpd x2.wav
298,192,60897,128,0,61197:0:0:0:0:
213,192,61197,128,8,61497:0:0:0:0:
128,192,61497,128,8,61797:0:0:0:0:
42,192,61797,1,0,0:0:0:70:LR_Drum Rpd vFast.wav
384,192,61797,1,0,0:0:0:70:CrashL.wav
128,192,62097,1,8,0:0:0:0:
298,192,62397,128,0,62697:0:0:0:70:LR_Drum Rpd vFast.wav
213,192,62697,128,0,62997:0:0:0:70:LR_Drum Rpd x2.wav
298,192,62997,128,8,63297:0:0:0:0:
384,192,63297,128,8,63597:0:0:0:0:
42,192,63597,1,0,0:0:0:70:LR_Drum Rpd vFast.wav
469,192,63597,1,0,0:0:0:70:CrashL.wav
128,192,63897,1,8,0:0:0:0:
213,192,64047,1,0,0:0:0:0:
298,192,64197,1,0,0:0:0:70:LR_Drum Rpd vFast.wav
42,192,64497,128,0,64797:0:0:0:70:LR_Drum Rpd x2.wav
298,192,64497,1,0,0:0:0:70:CrashR.wav
128,192,64797,128,8,65097:0:0:0:0:
384,192,64797,1,4,0:0:0:0:
213,192,65097,128,8,65397:0:0:0:0:
469,192,65097,1,0,0:0:0:0:
42,192,65397,128,2,65997:0:0:0:0:
384,192,65397,1,4,0:0:0:0:
298,192,65697,1,8,0:0:0:0:
469,192,65997,128,0,66297:0:0:0:70:LR_Drum Rpd vFast.wav
128,192,66297,1,0,0:0:0:70:LR_Drum Rpd x2.wav
384,192,66297,128,0,66897:0:0:0:0:
213,192,66597,1,8,0:0:0:0:
42,192,66897,128,8,67197:0:0:0:0:
128,192,67197,1,0,0:0:0:70:LR_Drum Rpd vFast.wav
213,192,67197,128,0,67797:0:0:0:0:
384,192,67497,1,8,0:0:0:0:
469,192,67797,128,0,68097:0:0:0:70:LR_Drum Rpd vFast.wav
128,192,68097,1,0,0:0:0:70:LR_Drum Rpd x2.wav
298,192,68097,128,0,68397:0:0:0:0:
213,192,68397,128,8,68697:0:0:0:0:
42,192,68697,128,8,68997:0:0:0:0:
298,192,68997,128,0,69297:0:0:0:70:LR_Drum Rpd vFast.wav
384,192,68997,1,0,0:0:0:70:CrashL.wav
42,192,69297,128,8,69597:0:0:0:0:
298,192,69597,128,0,69897:0:0:0:70:LR_Drum Rpd vFast.wav
128,192,69897,128,0,70197:0:0:0:70:LR_Drum Rpd x2.wav
384,192,70197,128,8,70497:0:0:0:0:
128,192,70497,128,8,70797:0:0:0:0:
384,192,70797,1,4,0:0:0:0:
469,192,70797,1,0,0:0:0:70:LR_Drum Rpd vFast.wav
384,192,71097,1,8,0:0:0:0:
213,192,71397,1,0,0:0:0:70:LR_Drum Rpd vFast.wav
42,192,71697,1,0,0:0:0:70:LR_Drum Rpd x2.wav
128,192,71697,1,0,0:0:0:70:CrashL.wav
128,192,71997,1,8,0:0:0:0:
298,192,72297,1,8,0:0:0:0:
42,192,72597,128,2,73197:0:0:0:0:
384,192,72597,1,4,0:0:0:0:
298,192,72897,1,8,0:0:0:0:
469,192,73197,128,0,73497:0:0:0:70:LR_Drum Rpd vFast.wav
128,192,73497,1,0,0:0:0:70:LR_Drum Rpd x2.wav
384,192,73497,128,0,74097:0:0:0:0:
213,192,73797,1,8,0:0:0:0:
42,192,74097,128,8,74397:0:0:0:0:
128,192,74397,128,0,74997:0:0:0:70:LR_Drum Rpd vFast.wav
298,192,74397,1,0,0:0:0:0:
384,192,74697,1,8,0:0:0:0:
469,192,74997,128,0,75297:0:0:0:70:LR_Drum Rpd vFast.wav
213,192,75297,1,0,0:0:0:70:LR_Drum Rpd x2.wav
384,192,75297,128,0,75597:0:0:0:0:
298,192,75597,128,8,75897:0:0:0:0:
128,192,75897,128,8,76197:0:0:0:0:
42,192,76197,128,0,76797:0:0:0:70:LR_Drum Rpd vFast.wav
469,192,76197,1,0,0:0:0:70:CrashL.wav
298,192,76497,1,8,0:0:0:0:
384,192,76797,128,0,77097:0:0:0:70:LR_Drum Rpd vFast.wav
213,192,77097,128,0,77397:0:0:0:70:LR_Drum Rpd x2.wav
298,192,77397,128,8,77697:0:0:0:0:
384,192,77697,128,8,77997:0:0:0:0:
213,192,77997,1,0,0:0:0:70:LR_Drum Rpd vFast.wav
469,192,77997,128,0,78447:0:0:0:70:CrashL.wav
128,192,78297,1,8,0:0:0:0:
213,192,78447,1,0,0:0:0:0:
298,192,78597,1,0,0:0:0:70:LR_Drum Rpd vFast.wav
42,192,78897,128,0,79197:0:0:0:70:LR_Drum Rpd x2.wav
298,192,78897,1,0,0:0:0:70:CrashR.wav
128,192,79197,128,8,79497:0:0:0:0:
384,192,79197,1,4,0:0:0:0:
469,192,79497,1,0,0:0:0:0:
213,192,79497,128,8,79797:0:0:0:0:
42,192,79797,128,2,80397:0:0:0:0:
384,192,79797,1,4,0:0:0:0:
298,192,80097,1,8,0:0:0:0:
469,192,80397,128,0,80697:0:0:0:70:LR_Drum Rpd vFast.wav
128,192,80697,1,0,0:0:0:70:LR_Drum Rpd x2.wav
384,192,80697,128,0,81297:0:0:0:0:
213,192,80997,1,8,0:0:0:0:
42,192,81297,128,8,81597:0:0:0:0:
128,192,81597,128,0,82197:0:0:0:70:LR_Drum Rpd vFast.wav
384,192,81597,1,0,0:0:0:0:
298,192,81897,1,8,0:0:0:0:
469,192,82197,128,0,82497:0:0:0:70:LR_Drum Rpd vFast.wav
213,192,82497,1,0,0:0:0:70:LR_Drum Rpd x2.wav
384,192,82497,128,0,82797:0:0:0:0:
298,192,82797,128,8,83097:0:0:0:0:
42,192,83097,128,8,83397:0:0:0:0:
213,192,83397,128,0,83697:0:0:0:70:LR_Drum Rpd vFast.wav
384,192,83397,1,0,0:0:0:70:CrashL.wav
42,192,83697,128,8,83997:0:0:0:0:
213,192,83997,128,0,84297:0:0:0:70:LR_Drum Rpd vFast.wav
298,192,84297,128,0,84597:0:0:0:70:LR_Drum Rpd x2.wav
469,192,84597,128,8,84897:0:0:0:0:
298,192,84897,128,8,85197:0:0:0:0:
213,192,85197,128,0,86097:0:0:0:70:LR_Drum Rpd vFast.wav
384,192,85197,1,0,0:0:0:70:CrashR.wav
42,192,86097,1,4,0:0:0:0:
128,192,86097,1,0,0:0:0:70:LR_Drum Rpd x2.wav
384,192,86397,1,8,0:0:0:0:
469,192,86397,1,0,0:0:0:0:
298,192,86997,128,2,87897:0:0:0:0:
213,192,87897,1,0,0:0:0:0:
128,192,88497,1,0,0:0:0:0:
384,192,88797,128,2,89697:0:0:0:0:
213,192,89697,1,0,0:0:0:70:LR_Drum Rpd x2.wav
298,192,90297,1,0,0:0:0:0:
42,192,90597,128,2,91497:0:0:0:0:
128,192,91497,128,2,92397:0:0:0:0:
469,192,92397,128,2,93297:0:0:0:0:
128,192,93297,1,2,0:0:0:0:
384,192,93297,128,0,94197:0:0:0:0:
213,192,93597,1,0,0:0:0:70:LR_Drum Rpd x2.wav
298,192,93897,1,0,0:0:0:70:LR_Drum Rpd vFast.wav
42,192,94197,1,2,0:0:0:0:
213,192,94197,1,0,0:0:0:70:CrashR.wav
128,192,94497,1,0,0:0:0:70:LR_Drum Rpd vFast.wav
469,192,94497,1,0,0:0:0:0:
298,192,94797,1,0,0:0:0:70:LR_Drum Rpd x2.wav
42,192,95097,1,4,0:0:0:0:
213,192,95097,1,0,0:0:0:70:LR_Drum Rpd x2.wav
128,192,95397,1,0,0:0:0:70:LR_Drum Rpd vFast.wav
384,192,95397,1,0,0:0:0:0:
469,192,95697,1,0,0:0:0:70:LR_Drum Rpd x2.wav
42,192,95997,128,0,96297:0:0:0:70:LR_Drum Rpd x2.wav
298,192,95997,1,0,0:0:0:0:
128,192,96297,128,0,96597:0:0:0:70:LR_Drum Rpd vFast.wav
213,192,96597,128,0,96897:0:0:0:70:LR_Drum Rpd x2.wav
384,192,96897,128,0,97197:0:0:0:70:LR_Drum Rpd x2.wav
469,192,97197,128,0,97497:0:0:0:70:LR_Drum Rpd vFast.wav
42,192,97497,128,0,97797:0:0:0:70:LR_Drum Rpd x2.wav
128,192,97797,1,4,0:0:0:0:
213,192,97797,128,0,98097:0:0:0:70:LR_Drum Rpd x2.wav
298,192,98097,128,0,98397:0:0:0:70:LR_Drum Rpd vFast.wav
469,192,98397,128,0,98697:0:0:0:70:LR_Drum Rpd x2.wav
298,192,98697,128,0,98997:0:0:0:70:LR_Drum Rpd x2.wav
42,192,98997,128,0,99297:0:0:0:70:LR_Drum Rpd vFast.wav
128,192,99297,128,0,99597:0:0:0:70:LR_Drum Rpd x2.wav
213,192,99597,128,0,101397:0:0:0:70:LR_Drum Rpd x2.wav
469,192,99597,1,0,0:0:0:0:
384,192,99897,1,0,0:0:0:0:
298,192,100197,1,0,0:0:0:70:LR_Drum Rpd x2.wav
42,192,100497,1,0,0:0:0:70:LR_Drum Rpd x2.wav
128,192,100797,1,0,0:0:0:70:LR_Drum Rpd vFast.wav
298,192,101097,1,0,0:0:0:70:LR_Drum Rpd x2.wav
384,192,101397,1,2,0:0:0:0:
298,192,101697,1,4,0:0:0:0:
384,192,101697,1,0,0:0:0:70:LR_Drum Rpd vFast.wav
213,192,101847,1,0,0:0:0:0:
128,192,101997,1,4,0:0:0:0:
469,192,101997,1,2,0:0:0:0:
42,192,102297,1,0,0:0:0:70:LR_Drum Rpd x2.wav
384,192,102297,1,0,0:0:0:0:
128,192,102597,1,0,0:0:0:70:LR_Drum Rpd vFast.wav
213,192,102747,1,0,0:0:0:70:LR_Drum Rpd vFast.wav
298,192,102897,1,0,0:0:0:70:LR_Drum Rpd x2.wav
384,192,103047,1,0,0:0:0:70:LR_Drum Rpd x2.wav
128,192,103197,128,4,104097:0:0:0:0:
469,192,103197,1,2,0:0:0:0:
384,192,104097,128,0,104997:0:0:0:0:
298,192,104997,128,0,105897:0:0:0:0:
42,192,105897,128,0,106497:0:0:0:0:
213,192,106797,128,0,107097:0:0:0:70:CrashL.wav
298,192,106797,1,0,0:0:0:0:
128,192,107097,128,8,107397:0:0:0:0:
213,192,107397,128,0,107697:0:0:0:0:
384,192,107697,128,0,107997:0:0:0:0:
298,192,107997,128,8,108297:0:0:0:0:
384,192,108297,128,8,108597:0:0:0:0:
42,192,108597,1,0,0:0:0:70:CrashR.wav
469,192,108597,128,0,109497:0:0:0:0:
128,192,108897,1,8,0:0:0:0:
298,192,109047,1,0,0:0:0:0:
213,192,109197,1,0,0:0:0:0:
42,192,109497,128,0,109797:0:0:0:70:LR_Drum Rpd x2.wav
213,192,109797,128,0,110097:0:0:0:70:LR_Drum Rpd vFast.wav
384,192,110097,128,0,110397:0:0:0:70:LR_Drum Rpd x2.wav
128,192,110397,128,4,111297:0:0:0:0:
213,192,110397,1,2,0:0:0:0:
469,192,110697,1,8,0:0:0:0:
298,192,110997,1,8,0:0:0:0:
298,192,111297,1,8,0:0:0:0:
384,192,111297,128,0,112197:0:0:0:0:
42,192,111597,1,8,0:0:0:0:
128,192,111897,1,8,0:0:0:0:
298,192,112197,128,8,112797:0:0:0:0:
213,192,112497,1,8,0:0:0:0:
128,192,112797,1,8,0:0:0:0:
384,192,113097,1,8,0:0:0:0:
42,192,113397,1,8,0:0:0:0:
384,192,113397,128,0,113697:0:0:0:0:
128,192,113697,1,8,0:0:0:0:
298,192,113697,128,0,113997:0:0:0:0:
213,192,113997,128,8,114297:0:0:0:0:
469,192,113997,1,0,0:0:0:70:CrashL.wav
128,192,114297,128,8,114597:0:0:0:0:
213,192,114597,128,8,114897:0:0:0:0:
298,192,114897,128,8,115197:0:0:0:0:
384,192,115197,128,8,115497:0:0:0:0:
298,192,115497,128,8,115797:0:0:0:0:
42,192,115797,128,8,116397:0:0:0:0:
469,192,115797,1,0,0:0:0:70:CrashR.wav
298,192,116097,1,8,0:0:0:0:
128,192,116397,128,8,116697:0:0:0:0:
298,192,116697,1,8,0:0:0:0:
384,192,116697,128,0,117297:0:0:0:70:CrashL.wav
213,192,116997,1,0,0:0:0:70:LR_Drum Rpd vFast.wav
128,192,117147,1,0,0:0:0:0:
42,192,117297,1,0,0:0:0:70:LR_Drum Rpd x2.wav
469,192,117297,128,0,117597:0:0:0:0:
128,192,117597,1,2,0:0:0:0:
213,192,117597,128,4,118497:0:0:0:0:
384,192,117897,1,8,0:0:0:0:
298,192,118197,1,0,0:0:0:70:LR_Drum Rpd vFast.wav
298,192,118497,1,0,0:0:0:70:LR_Drum Rpd x2.wav
469,192,118497,128,0,119397:0:0:0:0:
42,192,118797,1,8,0:0:0:0:
213,192,119097,1,8,0:0:0:0:
128,192,119397,1,0,0:0:0:70:LR_Drum Rpd vFast.wav
384,192,119397,128,0,120297:0:0:0:0:
42,192,119697,1,8,0:0:0:0:
298,192,119997,1,0,0:0:0:70:LR_Drum Rpd vFast.wav
128,192,120297,1,0,0:0:0:70:LR_Drum Rpd x2.wav
213,192,120297,128,0,120597:0:0:0:0:
469,192,120597,1,8,0:0:0:0:
384,192,120897,1,8,0:0:0:0:
42,192,121197,1,0,0:0:0:70:LR_Drum Rpd vFast.wav
128,192,121197,128,0,121497:0:0:0:70:CrashL.wav
384,192,121497,128,8,121797:0:0:0:0:
128,192,121797,128,0,122097:0:0:0:70:LR_Drum Rpd vFast.wav
469,192,122097,128,0,122397:0:0:0:70:LR_Drum Rpd x2.wav
213,192,122397,128,8,122697:0:0:0:0:
469,192,122697,128,8,122997:0:0:0:0:
298,192,122997,128,0,123897:0:0:0:70:LR_Drum Rpd vFast.wav
384,192,122997,1,0,0:0:0:70:CrashL.wav
42,192,123297,1,8,0:0:0:0:
213,192,123447,1,0,0:0:0:0:
128,192,123597,1,0,0:0:0:70:LR_Drum Rpd vFast.wav
42,192,123897,128,0,124197:0:0:0:70:LR_Drum Rpd x2.wav
469,192,123897,1,0,0:0:0:70:CrashR.wav
213,192,124197,128,8,124497:0:0:0:0:
298,192,124197,1,4,0:0:0:0:
42,192,124497,1,8,0:0:0:0:
469,192,124497,128,0,124797:0:0:0:0:
213,192,124797,128,2,125697:0:0:0:0:
384,192,124797,1,4,0:0:0:0:
128,192,125097,1,8,0:0:0:0:
298,192,125397,1,0,0:0:0:70:LR_Drum Rpd vFast.wav
298,192,125697,1,0,0:0:0:70:LR_Drum Rpd x2.wav
469,192,125697,128,0,126597:0:0:0:0:
128,192,125997,1,8,0:0:0:0:
213,192,126297,1,8,0:0:0:0:
298,192,126597,1,0,0:0:0:70:LR_Drum Rpd vFast.wav
384,192,126597,128,0,127197:0:0:0:0:
128,192,126897,1,8,0:0:0:0:
42,192,127197,1,0,0:0:0:70:LR_Drum Rpd vFast.wav
298,192,127497,1,0,0:0:0:70:LR_Drum Rpd x2.wav
298,192,127797,128,8,128097:0:0:0:0:
469,192,127797,1,0,0:0:0:0:
42,192,128097,1,8,0:0:0:0:
213,192,128097,128,0,128397:0:0:0:0:
298,192,128397,128,4,128697:0:0:0:0:
384,192,128397,1,0,0:0:0:70:LR_Drum Rpd vFast.wav
42,192,128697,128,8,128997:0:0:0:0:
298,192,128997,128,0,129297:0:0:0:70:LR_Drum Rpd vFast.wav
213,192,129297,128,0,129597:0:0:0:70:LR_Drum Rpd x2.wav
469,192,129597,128,8,129897:0:0:0:0:
213,192,129897,128,8,130197:0:0:0:0:
128,192,130197,1,4,0:0:0:0:
298,192,130197,128,0,131097:0:0:0:70:LR_Drum Rpd vFast.wav
42,192,130497,1,8,0:0:0:0:
128,192,130797,1,0,0:0:0:70:LR_Drum Rpd vFast.wav
42,192,131097,1,0,0:0:0:70:LR_Drum Rpd x2.wav
213,192,131097,1,0,0:0:0:70:CrashL.wav
298,192,131397,1,8,0:0:0:0:
469,192,131397,1,0,0:0:0:0:
213,192,131997,128,2,132897:0:0:0:0:
298,192,131997,1,0,0:0:0:70:LR_Chm Echo long.wav
384,192,132297,1,0,0:0:0:0:
469,192,132597,1,0,0:0:0:0:
128,192,132897,1,0,0:0:0:0:
384,192,132897,128,0,133797:0:0:0:0:
42,192,133197,1,0,0:0:0:0:
213,192,133797,1,2,0:0:0:0:
298,192,133797,128,0,134697:0:0:0:0:
128,192,134097,1,0,0:0:0:0:
42,192,134397,1,0,0:0:0:0:
213,192,134697,128,0,135597:0:0:0:0:
384,192,134697,1,0,0:0:0:0:
469,192,134997,1,0,0:0:0:0:
298,192,135297,1,0,0:0:0:0:
128,192,135597,128,2,135897:0:0:0:0:
384,192,135897,128,0,136197:0:0:0:0:
128,192,136197,128,0,136497:0:0:0:0:
469,192,136497,128,0,136797:0:0:0:0:
42,192,136797,128,0,137097:0:0:0:0:
469,192,137097,128,0,137397:0:0:0:0:
213,192,137397,128,2,138297:0:0:0:0:
384,192,137397,1,0,0:0:0:0:
469,192,137697,1,0,0:0:0:70:LR_Drum Rpd x2.wav
384,192,137997,1,0,0:0:0:70:LR_Drum Rpd x2.wav
298,192,138297,1,2,0:0:0:0:
42,192,138597,128,2,139197:0:0:0:0:
213,192,139197,128,0,140097:0:0:0:0:
298,192,139197,1,0,0:0:0:0:
384,192,139497,1,0,0:0:0:0:
469,192,139797,1,0,0:0:0:0:
128,192,140097,1,0,0:0:0:0:
384,192,140097,128,0,140997:0:0:0:0:
42,192,140397,1,0,0:0:0:0:
213,192,140997,1,0,0:0:0:0:
298,192,140997,128,0,141897:0:0:0:0:
128,192,141297,1,0,0:0:0:0:
213,192,141597,1,0,0:0:0:0:
42,192,141897,128,0,142197:0:0:0:0:
384,192,141897,1,0,0:0:0:0:
469,192,142197,1,0,0:0:0:0:
128,192,142497,128,0,142797:0:0:0:0:
213,192,142797,128,0,143697:0:0:0:0:
298,192,142797,1,0,0:0:0:0:
384,192,143097,1,0,0:0:0:0:
469,192,143397,1,0,0:0:0:0:
298,192,143697,128,0,144597:0:0:0:0:
469,192,143697,1,0,0:0:0:0:
128,192,143997,1,0,0:0:0:0:
213,192,144297,1,0,0:0:0:0:
42,192,144597,1,0,0:0:0:0:
469,192,144597,128,0,147297:0:0:0:0:
128,192,144897,1,0,0:0:0:0:
213,192,145197,1,0,0:0:0:0:
298,192,145497,128,0,147297:0:0:0:0:
