osu file format v14

[General]
AudioFilename: audio.mp3
AudioLeadIn: 0
PreviewTime: 58197
Countdown: 0
SampleSet: Soft
StackLeniency: 0.7
Mode: 3
LetterboxInBreaks: 0
SpecialStyle: 0
WidescreenStoryboard: 0

[Editor]
Bookmarks: 14997,29397,58197,72597,86997,103197,131997
DistanceSpacing: 1.2
BeatDivisor: 4
GridSize: 8
TimelineZoom: 1.3

[Metadata]
Title:Promise (feat. Sherie)
TitleUnicode:約束之歌 (약속지가) (feat. Sherie)
Artist:M2U
ArtistUnicode:M2U
Creator:-NoName-
Version:6K Covenant
Source:하이파이브
Tags:yakusoku no uta yagsogjiga o2jam high5 adieu chérie video game folk famoss guden korean ダイバーシティ DIVERSITY. Diversity Universal Music
BeatmapID:2699991
BeatmapSetID:1301740

[Difficulty]
HPDrainRate:8
CircleSize:6
OverallDifficulty:7.6
ApproachRate:5
SliderMultiplier:1.4
SliderTickRate:1

[Events]
//Background and Video events
0,0,"bg.jpg",0,0
//Break Periods
//Storyboard Layer 0 (Background)
//Storyboard Layer 1 (Fail)
//Storyboard Layer 2 (Pass)
//Storyboard Layer 3 (Foreground)
//Storyboard Layer 4 (Overlay)
//Storyboard Sound Samples
Sample,57747,0,"LR_Drum Rpd vFast.wav",70

[TimingPoints]
597,300,6,2,1,70,1,0
58197,-100,6,2,1,70,0,1
70797,-100,6,2,1,70,0,0
72597,-100,6,2,1,70,0,1
86997,-100,6,2,1,70,0,0
103197,-100,6,2,1,70,0,1
115797,-100,6,2,1,70,0,0
117597,-100,6,2,1,70,0,1
131997,-100,6,2,1,70,0,0

[HitObjects]
128,192,597,128,0,1797:0:0:0:0:
298,192,597,128,0,1197:0:0:0:0:
384,192,897,128,0,1497:0:0:0:0:
469,192,1197,128,0,1797:0:0:0:0:
42,192,1497,128,0,1797:0:0:0:0:
298,192,1497,128,0,1797:0:0:0:0:
213,192,1797,128,0,2097:0:0:0:0:
298,192,2247,1,0,0:0:0:0:
213,192,2322,1,0,0:0:0:0:
128,192,2397,128,0,3597:0:0:0:0:
384,192,2397,128,0,2997:0:0:0:0:
469,192,2697,128,0,3297:0:0:0:0:
298,192,2997,128,0,3597:0:0:0:0:
42,192,3297,128,0,3597:0:0:0:0:
213,192,3297,128,0,3597:0:0:0:0:
384,192,3597,128,0,3897:0:0:0:0:
469,192,3597,1,0,0:0:0:0:
213,192,3897,1,0,0:0:0:0:
42,192,4197,128,0,4797:0:0:0:0:
298,192,4197,1,0,0:0:0:0:
469,192,4197,128,0,5097:0:0:0:0:
128,192,4497,128,0,5097:0:0:0:0:
298,192,4797,128,0,5397:0:0:0:0:
42,192,5097,128,0,5997:0:0:0:0:
213,192,5097,128,0,5697:0:0:0:0:
469,192,5397,128,0,5997:0:0:0:0:
128,192,5697,128,0,5997:0:0:0:0:
384,192,5697,128,0,6297:0:0:0:0:
213,192,5997,128,0,6897:0:0:0:0:
298,192,5997,128,0,6597:0:0:0:0:
469,192,6297,128,0,6897:0:0:0:0:
128,192,6597,128,0,7197:0:0:0:0:
42,192,6897,128,0,7797:0:0:0:0:
384,192,6897,1,0,0:0:0:0:
298,192,7197,1,0,0:0:0:0:
469,192,7197,128,0,7797:0:0:0:0:
384,192,7297,1,0,0:0:0:0:
298,192,7397,1,0,0:0:0:0:
213,192,7497,128,0,7797:0:0:0:0:
128,192,7797,128,2,8397:0:0:0:0:
298,192,7797,1,4,0:0:0:0:
384,192,7797,1,0,0:0:0:0:
298,192,8097,128,0,8697:0:0:0:70:LR_Drum Rpd vFast.wav
384,192,8097,1,0,0:0:0:0:
213,192,8247,1,0,0:0:0:0:
42,192,8397,1,0,0:0:0:70:LR_Drum Rpd x2.wav
469,192,8397,128,0,8997:0:0:0:0:
42,192,8697,1,0,0:0:0:70:LR_Drum Rpd x2.wav
128,192,8697,1,0,0:0:0:0:
384,192,8697,128,0,8997:0:0:0:0:
128,192,8997,1,0,0:0:0:70:LR_Drum Rpd vFast.wav
213,192,8997,128,0,9297:0:0:0:0:
42,192,9297,1,0,0:0:0:0:
469,192,9447,1,0,0:0:0:0:
384,192,9522,1,0,0:0:0:0:
213,192,9597,1,0,0:0:0:70:LR_Drum Rpd x2.wav
298,192,9597,128,0,10197:0:0:0:0:
42,192,9897,1,0,0:0:0:70:LR_Drum Rpd vFast.wav
469,192,9897,128,0,10497:0:0:0:0:
128,192,10047,1,0,0:0:0:0:
213,192,10197,128,0,10797:0:0:0:70:LR_Drum Rpd x2.wav
384,192,10197,1,0,0:0:0:0:
42,192,10497,128,0,10797:0:0:0:70:LR_Drum Rpd x2.wav
128,192,10497,1,0,0:0:0:0:
384,192,10497,1,0,0:0:0:0:
298,192,10797,128,0,11097:0:0:0:70:LR_Drum Rpd vFast.wav
469,192,10797,1,0,0:0:0:0:
213,192,11097,1,0,0:0:0:0:
128,192,11397,128,0,11997:0:0:0:70:LR_Drum Rpd x2.wav
384,192,11397,1,0,0:0:0:0:
298,192,11697,128,0,12297:0:0:0:70:LR_Drum Rpd vFast.wav
469,192,11697,1,0,0:0:0:0:
213,192,11847,1,0,0:0:0:0:
42,192,11997,1,0,0:0:0:70:LR_Drum Rpd x2.wav
384,192,11997,128,0,12597:0:0:0:0:
128,192,12297,128,0,12897:0:0:0:70:LR_Drum Rpd x2.wav
469,192,12297,1,0,0:0:0:0:
42,192,12597,1,0,0:0:0:70:LR_Drum Rpd vFast.wav
213,192,12597,128,0,13197:0:0:0:0:
384,192,12897,128,0,13497:0:0:0:70:LR_Drum Rpd vFast.wav
469,192,12897,1,0,0:0:0:0:
128,192,13197,1,0,0:0:0:70:LR_Drum Rpd x2.wav
298,192,13197,128,0,13797:0:0:0:0:
42,192,13347,1,0,0:0:0:70:LR_Drum Rpd vFast.wav
213,192,13497,1,0,0:0:0:70:LR_Drum Rpd vFast.wav
469,192,13497,128,0,14097:0:0:0:0:
128,192,13647,1,0,0:0:0:0:
42,192,13797,1,0,0:0:0:70:LR_Drum Rpd x2.wav
384,192,13797,128,0,14397:0:0:0:0:
42,192,14097,128,0,14697:0:0:0:70:LR_Drum Rpd vFast.wav
213,192,14097,1,0,0:0:0:0:
128,192,14397,128,2,14997:0:0:0:0:
469,192,14397,1,0,0:0:0:70:CrashR.wav
298,192,14547,1,0,0:0:0:0:
213,192,14697,128,0,14997:0:0:0:70:CrashL.wav
469,192,14697,1,0,0:0:0:0:
384,192,14847,1,0,0:0:0:0:
42,192,14997,1,2,0:0:0:0:
298,192,14997,128,4,15747:0:0:0:0:
469,192,14997,1,0,0:0:0:0:
128,192,15297,128,8,15372:0:0:0:0:
213,192,15297,128,0,15372:0:0:0:0:
42,192,15597,1,0,0:0:0:70:LR_Drum Rpd vFast.wav
384,192,15597,1,0,0:0:0:0:
469,192,15597,128,0,15897:0:0:0:0:
42,192,15897,1,0,0:0:0:70:LR_Drum Rpd x2.wav
128,192,15897,1,0,0:0:0:0:
298,192,15897,128,0,16797:0:0:0:0:
213,192,16197,128,8,16272:0:0:0:0:
384,192,16197,128,0,16272:0:0:0:0:
42,192,16497,128,8,16797:0:0:0:0:
128,192,16497,1,0,0:0:0:0:
213,192,16797,128,0,17697:0:0:0:70:LR_Drum Rpd vFast.wav
384,192,16797,1,0,0:0:0:0:
42,192,17097,128,8,17172:0:0:0:0:
298,192,17097,128,0,17172:0:0:0:0:
469,192,17247,1,0,0:0:0:0:
128,192,17397,1,0,0:0:0:70:LR_Drum Rpd vFast.wav
384,192,17397,128,0,17847:0:0:0:0:
42,192,17697,1,0,0:0:0:70:LR_Drum Rpd x2.wav
298,192,17697,128,0,18147:0:0:0:0:
469,192,17697,1,0,0:0:0:0:
213,192,17997,128,8,18447:0:0:0:0:
384,192,17997,1,0,0:0:0:0:
128,192,18297,128,8,18747:0:0:0:0:
298,192,18297,1,0,0:0:0:0:
469,192,18297,1,0,0:0:0:0:
42,192,18597,128,0,19497:0:0:0:70:LR_Drum Rpd vFast.wav
213,192,18597,1,0,0:0:0:0:
384,192,18597,1,0,0:0:0:0:
298,192,18897,128,8,18972:0:0:0:0:
469,192,18897,128,0,18972:0:0:0:0:
213,192,19047,1,0,0:0:0:0:
298,192,19197,128,0,19647:0:0:0:70:LR_Drum Rpd vFast.wav
384,192,19197,1,0,0:0:0:0:
128,192,19497,128,0,19947:0:0:0:70:LR_Drum Rpd x2.wav
384,192,19497,1,0,0:0:0:0:
469,192,19497,1,0,0:0:0:0:
213,192,19647,1,0,0:0:0:0:
298,192,19797,128,8,20247:0:0:0:0:
384,192,19797,128,0,19872:0:0:0:0:
469,192,19797,128,0,19872:0:0:0:0:
42,192,19947,1,0,0:0:0:0:
128,192,20097,1,8,0:0:0:0:
469,192,20097,128,0,20547:0:0:0:0:
213,192,20172,1,0,0:0:0:0:
384,192,20247,1,0,0:0:0:0:
128,192,20397,1,0,0:0:0:70:LR_Drum Rpd vFast.wav
213,192,20397,128,0,21297:0:0:0:0:
298,192,20697,1,8,0:0:0:0:
469,192,20697,1,0,0:0:0:0:
42,192,20847,1,0,0:0:0:0:
128,192,20847,1,0,0:0:0:0:
384,192,20997,1,0,0:0:0:70:LR_Drum Rpd vFast.wav
469,192,20997,1,0,0:0:0:0:
128,192,21147,1,0,0:0:0:0:
42,192,21297,128,0,22197:0:0:0:70:LR_Drum Rpd x2.wav
298,192,21297,1,0,0:0:0:0:
384,192,21297,1,0,0:0:0:0:
469,192,21447,1,0,0:0:0:0:
298,192,21597,1,8,0:0:0:0:
384,192,21597,128,0,22197:0:0:0:0:
128,192,21747,1,0,0:0:0:0:
213,192,21897,128,8,22197:0:0:0:0:
469,192,21897,128,0,22197:0:0:0:0:
128,192,22197,1,2,0:0:0:0:
298,192,22197,128,0,22947:0:0:0:0:
42,192,22497,128,8,22572:0:0:0:0:
469,192,22497,128,0,22572:0:0:0:0:
128,192,22797,1,0,0:0:0:70:LR_Drum Rpd vFast.wav
213,192,22797,1,0,0:0:0:0:
384,192,22797,128,0,23097:0:0:0:0:
213,192,23097,128,0,23172:0:0:0:70:LR_Drum Rpd x2.wav
298,192,23097,128,0,23997:0:0:0:0:
128,192,23172,128,0,23247:0:0:0:0:
42,192,23247,128,0,23322:0:0:0:0:
384,192,23397,128,8,23472:0:0:0:0:
469,192,23397,128,0,23472:0:0:0:0:
213,192,23547,1,0,0:0:0:0:
42,192,23697,1,8,0:0:0:0:
128,192,23697,128,0,23997:0:0:0:0:
469,192,23697,1,0,0:0:0:0:
213,192,23997,128,0,24897:0:0:0:70:LR_Drum Rpd vFast.wav
384,192,23997,1,0,0:0:0:0:
128,192,24297,128,8,24372:0:0:0:0:
469,192,24297,128,0,24372:0:0:0:0:
42,192,24447,1,0,0:0:0:0:
128,192,24597,1,0,0:0:0:70:LR_Drum Rpd vFast.wav
384,192,24597,128,0,25047:0:0:0:0:
42,192,24897,1,0,0:0:0:70:LR_Drum Rpd x2.wav
298,192,24897,128,0,25347:0:0:0:0:
469,192,24897,1,0,0:0:0:0:
128,192,25197,1,8,0:0:0:0:
213,192,25197,128,0,25647:0:0:0:0:
384,192,25197,1,0,0:0:0:0:
42,192,25497,128,0,25947:0:0:0:0:
298,192,25497,1,0,0:0:0:0:
213,192,25797,128,0,26247:0:0:0:70:LR_Drum Rpd vFast.wav
298,192,25797,1,0,0:0:0:0:
469,192,25797,1,0,0:0:0:0:
42,192,26097,128,8,26547:0:0:0:0:
128,192,26097,1,0,0:0:0:0:
298,192,26247,1,0,0:0:0:0:
213,192,26397,128,0,26847:0:0:0:70:LR_Drum Rpd vFast.wav
469,192,26397,1,0,0:0:0:0:
42,192,26697,1,0,0:0:0:70:LR_Drum Rpd x2.wav
128,192,26697,1,0,0:0:0:0:
298,192,26697,128,0,27147:0:0:0:0:
213,192,26997,1,8,0:0:0:0:
469,192,26997,128,0,27447:0:0:0:0:
42,192,27147,1,0,0:0:0:0:
213,192,27297,1,8,0:0:0:0:
298,192,27297,128,0,27597:0:0:0:0:
42,192,27597,128,0,29247:0:0:0:70:LR_Drum Rpd vFast.wav
128,192,27597,1,0,0:0:0:0:
469,192,27597,1,0,0:0:0:0:
213,192,27747,1,0,0:0:0:70:LR_Drum Rpd x2.wav
128,192,27897,1,8,0:0:0:0:
469,192,27947,1,0,0:0:0:0:
384,192,27997,1,0,0:0:0:0:
298,192,28047,1,0,0:0:0:70:LR_Drum Rpd x2.wav
213,192,28097,1,0,0:0:0:0:
128,192,28147,1,0,0:0:0:0:
384,192,28197,1,0,0:0:0:70:LR_Drum Rpd vFast.wav
469,192,28197,1,0,0:0:0:0:
213,192,28347,1,0,0:0:0:70:LR_Drum Rpd vFast.wav
128,192,28497,1,0,0:0:0:70:LR_Drum Rpd x2.wav
298,192,28497,128,0,29247:0:0:0:70:CrashR.wav
469,192,28497,1,0,0:0:0:0:
213,192,28797,128,2,29247:0:0:0:0:
384,192,28797,1,0,0:0:0:0:
469,192,28797,128,0,29247:0:0:0:0:
42,192,29397,128,2,29697:0:0:0:0:
298,192,29397,1,0,0:0:0:70:LR_Chm Echo long.wav
384,192,29397,1,0,0:0:0:0:
469,192,29397,1,0,0:0:0:0:
128,192,29697,128,0,30297:0:0:0:0:
213,192,29697,1,0,0:0:0:0:
469,192,29697,1,0,0:0:0:0:
384,192,29847,1,0,0:0:0:0:
213,192,29997,1,0,0:0:0:70:LR_Drum Rpd x2.wav
298,192,29997,1,0,0:0:0:0:
384,192,30147,1,0,0:0:0:0:
42,192,30297,128,0,30597:0:0:0:70:LR_Drum Rpd vFast.wav
298,192,30297,1,0,0:0:0:0:
469,192,30297,1,0,0:0:0:0:
128,192,30597,128,0,30897:0:0:0:0:
213,192,30897,1,0,0:0:0:0:
469,192,30897,128,0,31197:0:0:0:0:
42,192,31197,1,2,0:0:0:0:
128,192,31197,1,0,0:0:0:0:
384,192,31197,128,0,31797:0:0:0:0:
128,192,31497,1,0,0:0:0:0:
213,192,31497,1,0,0:0:0:0:
298,192,31647,1,0,0:0:0:0:
42,192,31797,128,0,32022:0:0:0:70:LR_Drum Rpd x2.wav
213,192,31797,1,0,0:0:0:0:
469,192,31797,1,0,0:0:0:0:
298,192,31947,1,0,0:0:0:0:
42,192,32097,128,0,32697:0:0:0:70:LR_Drum Rpd vFast.wav
384,192,32097,1,0,0:0:0:0:
469,192,32097,1,0,0:0:0:0:
128,192,32397,1,0,0:0:0:70:LR_J Hit Edge F.wav
298,192,32397,1,0,0:0:0:0:
213,192,32547,1,0,0:0:0:0:
469,192,32697,1,0,0:0:0:0:
128,192,32847,1,0,0:0:0:0:
42,192,32997,1,2,0:0:0:0:
213,192,32997,128,0,33297:0:0:0:0:
298,192,32997,1,0,0:0:0:0:
128,192,33297,128,0,33597:0:0:0:0:
469,192,33297,1,0,0:0:0:0:
298,192,33447,1,0,0:0:0:0:
42,192,33597,1,0,0:0:0:70:LR_Drum Rpd x2.wav
384,192,33597,128,0,33897:0:0:0:0:
213,192,33747,1,0,0:0:0:0:
128,192,33897,1,0,0:0:0:70:LR_Drum Rpd vFast.wav
298,192,33897,128,0,34497:0:0:0:0:
469,192,33897,1,0,0:0:0:0:
213,192,34197,1,0,0:0:0:0:
384,192,34347,1,0,0:0:0:0:
42,192,34497,1,0,0:0:0:0:
128,192,34497,128,0,34797:0:0:0:0:
213,192,34797,1,2,0:0:0:0:
298,192,34797,128,0,35997:0:0:0:0:
384,192,34797,1,0,0:0:0:0:
42,192,35097,1,0,0:0:0:0:
384,192,35097,1,0,0:0:0:0:
128,192,35247,1,0,0:0:0:0:
213,192,35397,128,0,35997:0:0:0:70:LR_Drum Rpd x2.wav
469,192,35397,1,0,0:0:0:0:
384,192,35547,1,0,0:0:0:0:
42,192,35697,1,0,0:0:0:70:LR_Drum Rpd vFast.wav
128,192,35697,128,0,36297:0:0:0:0:
469,192,35847,1,0,0:0:0:0:
42,192,35997,1,0,0:0:0:70:TomTom1.wav
384,192,35997,128,0,36597:0:0:0:0:
298,192,36297,1,0,0:0:0:0:
469,192,36297,128,0,37197:0:0:0:0:
42,192,36597,128,2,36897:0:0:0:0:
213,192,36597,1,0,0:0:0:0:
128,192,36897,128,0,37497:0:0:0:0:
298,192,36897,1,0,0:0:0:0:
384,192,36897,128,0,37497:0:0:0:0:
213,192,37047,1,0,0:0:0:0:
42,192,37197,1,0,0:0:0:70:LR_Drum Rpd x2.wav
298,192,37197,1,0,0:0:0:0:
213,192,37347,1,0,0:0:0:0:
42,192,37497,128,0,37797:0:0:0:70:LR_Drum Rpd vFast.wav
298,192,37497,1,0,0:0:0:0:
469,192,37497,1,0,0:0:0:0:
128,192,37797,128,0,38097:0:0:0:0:
384,192,37797,1,0,0:0:0:0:
213,192,38097,1,0,0:0:0:0:
469,192,38097,128,0,38397:0:0:0:0:
42,192,38397,1,2,0:0:0:0:
298,192,38397,1,0,0:0:0:0:
384,192,38397,128,0,38997:0:0:0:0:
128,192,38697,1,0,0:0:0:0:
213,192,38697,1,0,0:0:0:0:
298,192,38847,1,0,0:0:0:0:
42,192,38997,128,0,39297:0:0:0:70:LR_Drum Rpd x2.wav
128,192,38997,1,0,0:0:0:0:
469,192,38997,1,0,0:0:0:0:
298,192,39147,1,0,0:0:0:0:
213,192,39297,1,0,0:0:0:70:LR_Drum Rpd vFast.wav
384,192,39297,1,0,0:0:0:0:
128,192,39597,128,0,39897:0:0:0:70:LR_J Hit Edge F.wav
298,192,39597,1,0,0:0:0:0:
42,192,39897,1,0,0:0:0:0:
213,192,39897,128,0,40197:0:0:0:0:
384,192,40197,128,2,40497:0:0:0:0:
469,192,40197,1,0,0:0:0:0:
42,192,40497,1,0,0:0:0:70:LR_Drum Rpd x2.wav
128,192,40497,1,0,0:0:0:0:
298,192,40497,128,0,40797:0:0:0:0:
469,192,40647,1,0,0:0:0:0:
42,192,40797,1,0,0:0:0:70:LR_Drum Rpd x2.wav
213,192,40797,128,0,41097:0:0:0:0:
384,192,40797,1,0,0:0:0:0:
128,192,40947,1,0,0:0:0:0:
298,192,41097,128,0,41397:0:0:0:70:LR_Drum Rpd vFast.wav
469,192,41097,1,0,0:0:0:0:
128,192,41397,128,0,41697:0:0:0:70:LR_Drum Rpd x2.wav
213,192,41397,1,0,0:0:0:0:
42,192,41697,1,0,0:0:0:70:LR_Drum Rpd vFast.wav
298,192,41697,128,0,41997:0:0:0:0:
128,192,41997,1,2,0:0:0:0:
384,192,41997,128,0,43197:0:0:0:0:
469,192,41997,1,0,0:0:0:0:
42,192,42147,1,0,0:0:0:0:
298,192,42297,1,0,0:0:0:70:LR_Drum Rpd x2.wav
469,192,42297,1,0,0:0:0:0:
128,192,42447,1,0,0:0:0:0:
42,192,42597,1,0,0:0:0:70:LR_Drum Rpd x2.wav
213,192,42597,1,0,0:0:0:0:
298,192,42747,1,0,0:0:0:0:
128,192,42897,1,0,0:0:0:70:LR_Drum Rpd vFast.wav
213,192,42897,1,0,0:0:0:0:
469,192,42897,1,0,0:0:0:0:
42,192,43197,1,0,0:0:0:70:LR_Drum Rpd x2.wav
128,192,43197,1,0,0:0:0:70:TomTom1.wav
213,192,43197,1,0,0:0:0:0:
298,192,43347,1,0,0:0:0:0:
213,192,43497,1,0,0:0:0:0:
298,192,43647,1,0,0:0:0:0:
42,192,43797,1,2,0:0:0:0:
128,192,43797,1,0,0:0:0:70:CrashL.wav
469,192,43797,128,0,44247:0:0:0:0:
298,192,44097,1,0,0:0:0:0:
128,192,44397,1,0,0:0:0:0:
469,192,44397,128,0,44697:0:0:0:0:
384,192,44547,1,0,0:0:0:0:
213,192,44697,128,0,45597:0:0:0:0:
298,192,44697,1,0,0:0:0:0:
128,192,44847,1,0,0:0:0:0:
42,192,44997,1,0,0:0:0:0:
469,192,44997,1,0,0:0:0:0:
128,192,45297,128,0,45597:0:0:0:0:
384,192,45297,1,0,0:0:0:0:
298,192,45447,1,0,0:0:0:0:
42,192,45597,128,0,46497:0:0:0:0:
384,192,45597,1,0,0:0:0:0:
469,192,45597,1,0,0:0:0:0:
298,192,45897,1,0,0:0:0:0:
213,192,46047,1,0,0:0:0:0:
384,192,46197,1,0,0:0:0:0:
469,192,46197,128,0,46497:0:0:0:0:
298,192,46347,1,0,0:0:0:0:
128,192,46422,1,0,0:0:0:0:
213,192,46497,1,0,0:0:0:0:
298,192,46497,128,0,47397:0:0:0:0:
384,192,46497,1,0,0:0:0:0:
128,192,46647,1,0,0:0:0:0:
42,192,46797,1,0,0:0:0:0:
469,192,46797,1,0,0:0:0:0:
42,192,47097,1,0,0:0:0:0:
213,192,47097,1,0,0:0:0:0:
384,192,47097,128,0,47397:0:0:0:0:
469,192,47247,1,0,0:0:0:0:
128,192,47397,128,2,48297:0:0:0:0:
213,192,47397,128,0,48297:0:0:0:0:
384,192,47697,128,0,47997:0:0:0:0:
469,192,47697,128,0,48297:0:0:0:0:
42,192,47997,1,0,0:0:0:0:
384,192,48147,1,0,0:0:0:0:
42,192,48297,128,0,49197:0:0:0:0:
298,192,48297,128,0,48897:0:0:0:0:
213,192,48597,128,0,48897:0:0:0:0:
469,192,48597,128,0,49197:0:0:0:0:
384,192,48897,1,0,0:0:0:0:
128,192,49047,1,0,0:0:0:0:
213,192,49197,128,8,49647:0:0:0:0:
298,192,49197,128,0,49497:0:0:0:0:
384,192,49197,128,0,49647:0:0:0:0:
42,192,49647,128,8,50097:0:0:0:0:
128,192,49647,128,0,49947:0:0:0:70:CrashL.wav
298,192,49647,128,0,50097:0:0:0:0:
128,192,50097,128,8,50547:0:0:0:0:
213,192,50097,128,0,50397:0:0:0:70:CrashR.wav
384,192,50097,128,0,50547:0:0:0:0:
469,192,50097,1,0,0:0:0:0:
42,192,50547,1,8,0:0:0:0:
213,192,50547,128,0,50997:0:0:0:70:CrashL.wav
298,192,50547,128,0,50847:0:0:0:0:
469,192,50547,128,0,50997:0:0:0:0:
42,192,50997,1,2,0:0:0:0:
128,192,50997,1,0,0:0:0:70:CrashR.wav
298,192,50997,128,0,51897:0:0:0:0:
384,192,50997,1,0,0:0:0:0:
42,192,51297,1,8,0:0:0:0:
469,192,51297,1,0,0:0:0:0:
128,192,51447,1,0,0:0:0:0:
42,192,51597,128,0,51897:0:0:0:0:
213,192,51597,1,0,0:0:0:0:
384,192,51597,1,0,0:0:0:0:
128,192,51897,1,4,0:0:0:0:
213,192,51897,1,2,0:0:0:0:
469,192,51897,128,0,52797:0:0:0:0:
42,192,52197,128,8,52797:0:0:0:0:
128,192,52197,128,0,52647:0:0:0:0:
384,192,52197,1,0,0:0:0:0:
213,192,52497,128,0,52797:0:0:0:0:
298,192,52497,1,0,0:0:0:0:
384,192,52647,1,0,0:0:0:0:
128,192,52797,128,2,52947:0:0:0:0:
298,192,52797,128,4,53097:0:0:0:0:
384,192,52797,1,0,0:0:0:0:
469,192,52947,128,0,53097:0:0:0:0:
128,192,53097,128,8,53247:0:0:0:0:
213,192,53097,128,0,53397:0:0:0:0:
384,192,53247,128,0,53397:0:0:0:0:
42,192,53397,128,8,53697:0:0:0:0:
469,192,53397,128,0,53547:0:0:0:0:
384,192,53547,128,0,53697:0:0:0:0:
128,192,53697,128,2,53847:0:0:0:0:
213,192,53697,1,0,0:0:0:0:
298,192,53697,128,0,53997:0:0:0:0:
469,192,53847,128,0,53997:0:0:0:0:
213,192,53997,128,8,54147:0:0:0:0:
384,192,53997,128,0,54297:0:0:0:0:
42,192,54147,128,0,54297:0:0:0:0:
298,192,54297,128,8,54447:0:0:0:0:
469,192,54297,1,0,0:0:0:0:
128,192,54447,128,0,54597:0:0:0:0:
42,192,54597,128,2,55497:0:0:0:0:
213,192,54597,1,0,0:0:0:70:CrashL.wav
298,192,54597,1,0,0:0:0:0:
213,192,54897,1,8,0:0:0:0:
384,192,54897,1,0,0:0:0:0:
128,192,55197,1,0,0:0:0:70:LR_Drum Rpd vFast.wav
298,192,55197,1,0,0:0:0:0:
469,192,55197,128,0,55497:0:0:0:0:
128,192,55497,1,2,0:0:0:0:
213,192,55497,1,0,0:0:0:70:CrashR.wav
384,192,55497,128,0,56397:0:0:0:0:
42,192,55797,1,8,0:0:0:0:
298,192,55797,1,0,0:0:0:0:
128,192,56097,128,0,56397:0:0:0:70:LR_Drum Rpd vFast.wav
213,192,56097,1,0,0:0:0:0:
469,192,56097,1,0,0:0:0:0:
42,192,56397,1,2,0:0:0:0:
298,192,56397,1,4,0:0:0:0:
469,192,56397,128,0,57897:0:0:0:0:
384,192,56547,1,0,0:0:0:0:
42,192,56697,1,0,0:0:0:70:LR_Drum Rpd vFast.wav
128,192,56697,1,0,0:0:0:0:
298,192,56697,128,0,56997:0:0:0:0:
213,192,56847,1,8,0:0:0:0:
128,192,56997,1,0,0:0:0:70:LR_Drum Rpd x2.wav
384,192,56997,128,0,57297:0:0:0:0:
42,192,57297,128,2,57897:0:0:0:0:
213,192,57297,1,4,0:0:0:0:
298,192,57297,1,0,0:0:0:0:
128,192,57447,1,0,0:0:0:0:
128,192,57597,1,0,0:0:0:70:LR_Drum Rpd vFast.wav
213,192,57597,128,0,57897:0:0:0:0:
298,192,57597,1,0,0:0:0:0:
384,192,57747,1,8,0:0:0:0:
128,192,57897,1,0,0:0:0:70:LR_Drum Rpd x2.wav
298,192,57897,1,0,0:0:0:0:
384,192,57897,128,0,58047:0:0:0:0:
42,192,58047,1,0,0:0:0:70:LR_Drum Rpd x2.wav
213,192,58047,1,0,0:0:0:0:
469,192,58047,1,0,0:0:0:0:
42,192,58197,128,2,58947:0:0:0:0:
128,192,58197,128,4,58947:0:0:0:0:
213,192,58197,1,0,0:0:0:0:
298,192,58197,1,0,0:0:0:0:
384,192,58197,1,0,0:0:0:0:
469,192,58197,1,0,0:0:0:0:
213,192,58497,128,8,58647:0:0:0:0:
384,192,58497,128,0,58647:0:0:0:0:
298,192,58797,1,0,0:0:0:70:LR_Drum Rpd vFast.wav
384,192,58797,128,0,59247:0:0:0:0:
469,192,58797,128,0,59247:0:0:0:0:
42,192,59097,128,0,59847:0:0:0:70:LR_Drum Rpd x2.wav
128,192,59097,128,0,59847:0:0:0:0:
298,192,59097,1,0,0:0:0:0:
213,192,59397,128,8,59547:0:0:0:0:
298,192,59397,128,0,59547:0:0:0:0:
298,192,59697,128,8,60147:0:0:0:0:
384,192,59697,128,0,60147:0:0:0:0:
469,192,59697,1,0,0:0:0:0:
42,192,59997,1,0,0:0:0:70:LR_Drum Rpd vFast.wav
128,192,59997,128,0,60447:0:0:0:0:
213,192,59997,128,0,60597:0:0:0:0:
42,192,60297,128,8,60447:0:0:0:0:
469,192,60297,128,0,60447:0:0:0:0:
298,192,60447,1,0,0:0:0:0:
42,192,60597,1,0,0:0:0:70:LR_Drum Rpd vFast.wav
384,192,60597,128,0,60747:0:0:0:0:
469,192,60597,128,0,61047:0:0:0:0:
213,192,60747,1,0,0:0:0:0:
128,192,60897,1,0,0:0:0:70:LR_Drum Rpd x2.wav
298,192,60897,128,0,61047:0:0:0:0:
384,192,60897,128,0,61347:0:0:0:0:
213,192,61197,128,8,61347:0:0:0:0:
298,192,61197,128,0,61647:0:0:0:0:
469,192,61197,1,0,0:0:0:0:
42,192,61347,1,0,0:0:0:0:
128,192,61497,128,8,61647:0:0:0:0:
213,192,61497,128,0,61947:0:0:0:0:
384,192,61497,1,0,0:0:0:0:
42,192,61797,128,0,62547:0:0:0:70:LR_Drum Rpd vFast.wav
128,192,61797,128,0,62547:0:0:0:70:CrashL.wav
298,192,61797,1,0,0:0:0:0:
469,192,61797,1,0,0:0:0:0:
213,192,62097,1,8,0:0:0:0:
298,192,62097,128,0,62247:0:0:0:0:
384,192,62397,128,0,62847:0:0:0:70:LR_Drum Rpd vFast.wav
469,192,62397,128,0,62847:0:0:0:0:
42,192,62697,128,0,62997:0:0:0:70:LR_Drum Rpd x2.wav
213,192,62697,128,0,62997:0:0:0:70:CrashR.wav
298,192,62697,1,0,0:0:0:0:
128,192,62997,128,8,63297:0:0:0:0:
298,192,62997,128,0,63297:0:0:0:0:
469,192,62997,128,0,63147:0:0:0:0:
42,192,63147,128,0,63297:0:0:0:0:
213,192,63297,128,8,63597:0:0:0:0:
384,192,63297,128,0,63597:0:0:0:0:
469,192,63297,128,0,63447:0:0:0:0:
128,192,63447,128,0,63597:0:0:0:0:
42,192,63597,1,0,0:0:0:70:LR_Drum Rpd vFast.wav
298,192,63597,128,0,63897:0:0:0:70:CrashL.wav
469,192,63597,128,0,63897:0:0:0:0:
213,192,63747,1,0,0:0:0:0:
42,192,63897,1,8,0:0:0:0:
128,192,63897,1,0,0:0:0:0:
384,192,63897,1,0,0:0:0:0:
213,192,64047,1,0,0:0:0:0:
298,192,64047,1,0,0:0:0:0:
128,192,64197,1,0,0:0:0:70:LR_Drum Rpd vFast.wav
469,192,64197,1,0,0:0:0:0:
42,192,64347,1,0,0:0:0:0:
384,192,64347,1,0,0:0:0:0:
128,192,64497,128,0,64797:0:0:0:70:LR_Drum Rpd x2.wav
298,192,64497,128,0,64797:0:0:0:70:CrashR.wav
469,192,64497,128,0,64647:0:0:0:0:
42,192,64797,128,8,64947:0:0:0:0:
213,192,64797,128,4,65097:0:0:0:0:
384,192,64797,128,0,65097:0:0:0:0:
128,192,65097,128,8,65247:0:0:0:0:
298,192,65097,128,0,65247:0:0:0:0:
469,192,65097,128,0,65397:0:0:0:0:
384,192,65247,128,0,65397:0:0:0:0:
42,192,65397,128,2,66147:0:0:0:0:
128,192,65397,128,4,66147:0:0:0:0:
213,192,65397,1,0,0:0:0:0:
298,192,65397,1,0,0:0:0:0:
298,192,65697,1,8,0:0:0:0:
469,192,65697,1,0,0:0:0:0:
213,192,65847,1,0,0:0:0:0:
298,192,65997,1,0,0:0:0:70:LR_Drum Rpd vFast.wav
384,192,65997,128,0,66447:0:0:0:0:
469,192,65997,128,0,66447:0:0:0:0:
42,192,66297,128,0,67047:0:0:0:70:LR_Drum Rpd x2.wav
128,192,66297,128,0,67047:0:0:0:0:
213,192,66297,1,0,0:0:0:0:
298,192,66597,1,8,0:0:0:0:
384,192,66597,1,0,0:0:0:0:
469,192,66747,1,0,0:0:0:0:
213,192,66897,128,8,67047:0:0:0:0:
298,192,66897,128,0,67347:0:0:0:0:
384,192,66897,128,0,67347:0:0:0:0:
42,192,67197,1,0,0:0:0:70:LR_Drum Rpd vFast.wav
128,192,67197,128,0,67947:0:0:0:0:
213,192,67197,128,0,67947:0:0:0:0:
384,192,67497,1,8,0:0:0:0:
469,192,67497,1,0,0:0:0:0:
42,192,67647,1,0,0:0:0:0:
298,192,67797,1,0,0:0:0:70:LR_Drum Rpd vFast.wav
384,192,67797,128,0,67947:0:0:0:0:
469,192,67797,128,0,68247:0:0:0:0:
42,192,68097,1,0,0:0:0:70:LR_Drum Rpd x2.wav
298,192,68097,128,0,68247:0:0:0:0:
384,192,68097,128,0,68547:0:0:0:0:
128,192,68397,1,8,0:0:0:0:
213,192,68397,128,0,68847:0:0:0:0:
298,192,68397,128,0,68847:0:0:0:0:
469,192,68547,1,0,0:0:0:0:
42,192,68697,128,8,68997:0:0:0:0:
128,192,68697,128,0,68997:0:0:0:0:
384,192,68697,1,0,0:0:0:0:
213,192,68997,1,0,0:0:0:70:LR_Drum Rpd vFast.wav
298,192,68997,128,0,69297:0:0:0:70:CrashL.wav
384,192,68997,1,0,0:0:0:0:
469,192,68997,128,0,69297:0:0:0:0:
42,192,69297,128,8,69597:0:0:0:0:
128,192,69297,1,0,0:0:0:0:
213,192,69297,128,0,69597:0:0:0:0:
384,192,69447,1,0,0:0:0:0:
128,192,69597,1,0,0:0:0:70:LR_Drum Rpd vFast.wav
298,192,69597,128,0,69897:0:0:0:0:
469,192,69597,128,0,69897:0:0:0:0:
128,192,69897,128,0,70197:0:0:0:70:LR_Drum Rpd x2.wav
213,192,69897,1,0,0:0:0:0:
384,192,69897,128,0,70197:0:0:0:0:
42,192,70197,128,8,70497:0:0:0:0:
298,192,70197,1,0,0:0:0:0:
469,192,70197,128,0,70497:0:0:0:0:
213,192,70347,1,0,0:0:0:0:
128,192,70497,128,8,70797:0:0:0:0:
298,192,70497,1,0,0:0:0:0:
384,192,70497,128,0,70797:0:0:0:0:
42,192,70797,128,4,71397:0:0:0:0:
213,192,70797,1,0,0:0:0:70:LR_Drum Rpd vFast.wav
298,192,70797,1,0,0:0:0:0:
469,192,70797,1,0,0:0:0:0:
213,192,71097,1,8,0:0:0:0:
384,192,71097,1,0,0:0:0:0:
298,192,71247,1,0,0:0:0:0:
469,192,71247,1,0,0:0:0:0:
128,192,71397,128,0,71697:0:0:0:70:LR_Drum Rpd vFast.wav
213,192,71397,1,0,0:0:0:0:
384,192,71397,1,0,0:0:0:0:
42,192,71697,128,0,72597:0:0:0:70:LR_Drum Rpd x2.wav
213,192,71697,128,0,72297:0:0:0:70:CrashL.wav
384,192,71697,1,0,0:0:0:0:
469,192,71697,1,0,0:0:0:0:
128,192,71997,128,8,72597:0:0:0:0:
298,192,71997,1,0,0:0:0:0:
469,192,71997,1,0,0:0:0:0:
384,192,72147,1,0,0:0:0:0:
298,192,72297,128,8,72447:0:0:0:0:
469,192,72297,1,0,0:0:0:0:
213,192,72597,1,2,0:0:0:0:
298,192,72597,1,4,0:0:0:0:
384,192,72597,128,0,73347:0:0:0:0:
469,192,72597,128,0,73347:0:0:0:0:
128,192,72897,1,8,0:0:0:0:
298,192,72897,1,0,0:0:0:0:
42,192,73197,128,0,73647:0:0:0:70:LR_Drum Rpd vFast.wav
128,192,73197,128,0,73647:0:0:0:0:
213,192,73197,1,0,0:0:0:0:
213,192,73497,1,0,0:0:0:70:LR_Drum Rpd x2.wav
384,192,73497,128,0,74247:0:0:0:0:
469,192,73497,128,0,74247:0:0:0:0:
42,192,73797,1,8,0:0:0:0:
298,192,73797,1,0,0:0:0:0:
42,192,74097,1,8,0:0:0:0:
128,192,74097,128,0,74547:0:0:0:0:
213,192,74097,128,0,74547:0:0:0:0:
298,192,74397,128,0,75147:0:0:0:70:LR_Drum Rpd vFast.wav
384,192,74397,128,0,75147:0:0:0:0:
469,192,74397,1,0,0:0:0:0:
42,192,74697,1,8,0:0:0:0:
213,192,74847,1,0,0:0:0:0:
42,192,74997,128,0,75447:0:0:0:70:LR_Drum Rpd vFast.wav
128,192,74997,128,0,75147:0:0:0:0:
469,192,74997,1,0,0:0:0:0:
128,192,75297,128,0,75747:0:0:0:70:LR_Drum Rpd x2.wav
213,192,75297,128,0,75447:0:0:0:0:
384,192,75297,1,0,0:0:0:0:
42,192,75597,1,8,0:0:0:0:
213,192,75597,128,0,76047:0:0:0:0:
298,192,75597,128,0,75747:0:0:0:0:
128,192,75897,1,8,0:0:0:0:
298,192,75897,128,0,76347:0:0:0:0:
384,192,75897,128,0,76047:0:0:0:0:
42,192,76197,1,0,0:0:0:70:LR_Drum Rpd vFast.wav
213,192,76197,1,0,0:0:0:70:CrashL.wav
384,192,76197,128,0,76947:0:0:0:0:
469,192,76197,128,0,76947:0:0:0:0:
298,192,76497,1,8,0:0:0:0:
213,192,76647,1,0,0:0:0:0:
42,192,76797,128,0,77247:0:0:0:70:LR_Drum Rpd vFast.wav
128,192,76797,128,0,77247:0:0:0:0:
298,192,76797,1,0,0:0:0:0:
213,192,77097,1,0,0:0:0:70:LR_Drum Rpd x2.wav
298,192,77097,128,0,77397:0:0:0:0:
469,192,77097,128,0,77397:0:0:0:0:
42,192,77397,1,8,0:0:0:0:
213,192,77397,128,0,77697:0:0:0:0:
384,192,77397,128,0,77697:0:0:0:0:
128,192,77697,128,8,77997:0:0:0:0:
298,192,77697,128,0,77997:0:0:0:0:
469,192,77697,1,0,0:0:0:0:
42,192,77997,128,0,78297:0:0:0:70:LR_Drum Rpd vFast.wav
213,192,77997,128,0,78297:0:0:0:70:CrashL.wav
384,192,77997,1,0,0:0:0:0:
469,192,77997,1,0,0:0:0:0:
128,192,78297,1,8,0:0:0:0:
298,192,78297,1,0,0:0:0:0:
213,192,78447,1,0,0:0:0:0:
384,192,78447,1,0,0:0:0:0:
298,192,78597,1,0,0:0:0:70:LR_Drum Rpd vFast.wav
469,192,78597,1,0,0:0:0:0:
42,192,78747,1,0,0:0:0:0:
128,192,78747,1,0,0:0:0:0:
213,192,78897,128,0,79197:0:0:0:70:LR_Drum Rpd x2.wav
384,192,78897,128,0,79197:0:0:0:70:CrashR.wav
469,192,78897,128,0,79047:0:0:0:0:
42,192,79197,128,8,79347:0:0:0:0:
128,192,79197,128,4,79497:0:0:0:0:
298,192,79197,128,0,79497:0:0:0:0:
469,192,79347,128,0,79497:0:0:0:0:
42,192,79497,128,8,79797:0:0:0:0:
213,192,79497,128,0,79797:0:0:0:0:
384,192,79497,128,0,79647:0:0:0:0:
128,192,79797,1,2,0:0:0:0:
298,192,79797,1,4,0:0:0:0:
384,192,79797,128,0,80547:0:0:0:0:
469,192,79797,128,0,80547:0:0:0:0:
42,192,80097,1,8,0:0:0:0:
213,192,80097,1,0,0:0:0:0:
298,192,80247,1,0,0:0:0:0:
42,192,80397,128,0,80847:0:0:0:70:LR_Drum Rpd vFast.wav
128,192,80397,128,0,80847:0:0:0:0:
213,192,80397,1,0,0:0:0:0:
298,192,80697,1,0,0:0:0:70:LR_Drum Rpd x2.wav
384,192,80697,128,0,81447:0:0:0:0:
469,192,80697,128,0,81447:0:0:0:0:
128,192,80997,1,8,0:0:0:0:
213,192,80997,128,0,81147:0:0:0:0:
298,192,81147,128,0,81297:0:0:0:0:
42,192,81297,1,8,0:0:0:0:
128,192,81297,128,0,81747:0:0:0:0:
213,192,81297,128,0,81747:0:0:0:0:
298,192,81597,128,0,82197:0:0:0:70:LR_Drum Rpd vFast.wav
384,192,81597,1,0,0:0:0:0:
469,192,81597,128,0,82197:0:0:0:0:
42,192,81897,1,8,0:0:0:0:
128,192,81897,1,0,0:0:0:0:
384,192,82047,1,0,0:0:0:0:
42,192,82197,128,0,82497:0:0:0:70:LR_Drum Rpd vFast.wav
128,192,82197,128,0,82497:0:0:0:0:
213,192,82197,1,0,0:0:0:0:
213,192,82497,128,0,83247:0:0:0:70:LR_Drum Rpd x2.wav
384,192,82497,1,0,0:0:0:0:
469,192,82497,128,0,83247:0:0:0:0:
298,192,82647,1,0,0:0:0:0:
42,192,82797,1,8,0:0:0:0:
128,192,82797,128,0,83247:0:0:0:0:
384,192,82797,128,0,83247:0:0:0:0:
42,192,83097,128,8,83247:0:0:0:0:
298,192,83097,128,0,83247:0:0:0:0:
128,192,83397,128,0,83697:0:0:0:70:LR_Drum Rpd vFast.wav
298,192,83397,1,0,0:0:0:70:CrashL.wav
384,192,83397,128,0,83697:0:0:0:0:
469,192,83397,1,0,0:0:0:0:
42,192,83697,128,8,83997:0:0:0:0:
213,192,83697,1,0,0:0:0:0:
298,192,83697,128,0,83997:0:0:0:0:
469,192,83847,1,0,0:0:0:0:
128,192,83997,128,0,84297:0:0:0:70:LR_Drum Rpd vFast.wav
213,192,83997,1,0,0:0:0:0:
384,192,83997,128,0,84297:0:0:0:0:
42,192,84297,1,0,0:0:0:70:LR_Drum Rpd x2.wav
213,192,84297,128,0,84597:0:0:0:0:
469,192,84297,128,0,84597:0:0:0:0:
42,192,84597,128,8,84897:0:0:0:0:
298,192,84597,128,0,84897:0:0:0:0:
384,192,84597,1,0,0:0:0:0:
128,192,84747,1,0,0:0:0:0:
213,192,84897,128,8,85197:0:0:0:0:
384,192,84897,1,0,0:0:0:0:
469,192,84897,128,0,85197:0:0:0:0:
42,192,85197,128,0,86697:0:0:0:70:LR_Drum Rpd vFast.wav
128,192,85197,1,0,0:0:0:70:CrashR.wav
298,192,85197,128,0,86697:0:0:0:0:
384,192,85197,1,0,0:0:0:0:
384,192,85497,1,8,0:0:0:0:
469,192,85497,1,0,0:0:0:0:
213,192,85547,1,0,0:0:0:0:
128,192,85597,1,0,0:0:0:0:
469,192,85647,1,0,0:0:0:0:
384,192,85697,1,0,0:0:0:0:
213,192,85747,1,0,0:0:0:0:
128,192,85797,1,0,0:0:0:70:LR_Drum Rpd vFast.wav
469,192,85947,1,0,0:0:0:0:
213,192,86097,1,4,0:0:0:0:
384,192,86097,1,0,0:0:0:70:LR_Drum Rpd x2.wav
128,192,86397,1,8,0:0:0:0:
213,192,86397,1,0,0:0:0:0:
384,192,86397,1,0,0:0:0:0:
469,192,86397,1,0,0:0:0:0:
384,192,86697,1,0,0:0:0:0:
128,192,86997,128,2,88197:0:0:0:0:
213,192,86997,128,0,87897:0:0:0:70:CrashL.wav
298,192,86997,128,0,87597:0:0:0:0:
384,192,87297,128,0,87897:0:0:0:0:
469,192,87597,128,0,88197:0:0:0:0:
42,192,87897,128,0,88197:0:0:0:0:
298,192,87897,128,0,88197:0:0:0:0:
213,192,88197,128,0,88497:0:0:0:0:
298,192,88497,1,0,0:0:0:0:
42,192,88647,1,0,0:0:0:0:
128,192,88797,128,2,89997:0:0:0:0:
213,192,88797,128,0,89397:0:0:0:0:
384,192,88797,128,0,89397:0:0:0:0:
469,192,89097,128,0,89697:0:0:0:0:
298,192,89397,128,0,89997:0:0:0:0:
42,192,89697,128,0,89997:0:0:0:70:LR_Drum Rpd x2.wav
213,192,89697,128,0,89997:0:0:0:0:
384,192,89997,128,0,90297:0:0:0:0:
298,192,90297,1,0,0:0:0:0:
42,192,90597,128,2,91197:0:0:0:0:
213,192,90597,1,0,0:0:0:0:
469,192,90597,128,0,91497:0:0:0:0:
128,192,90897,128,0,91497:0:0:0:70:LR_Drum Rpd x2.wav
384,192,90897,128,0,91497:0:0:0:0:
213,192,91197,128,0,91497:0:0:0:0:
298,192,91197,128,0,91347:0:0:0:0:
42,192,91497,128,2,92097:0:0:0:0:
298,192,91497,128,0,92097:0:0:0:0:
128,192,91797,128,0,92697:0:0:0:70:LR_Drum Rpd x2.wav
384,192,91797,128,0,92697:0:0:0:0:
213,192,92097,128,0,92397:0:0:0:0:
469,192,92097,128,0,92397:0:0:0:0:
42,192,92397,128,2,92997:0:0:0:0:
298,192,92397,128,0,92997:0:0:0:0:
213,192,92697,128,0,93297:0:0:0:70:LR_Drum Rpd x2.wav
469,192,92697,128,0,93297:0:0:0:0:
128,192,92997,128,0,93297:0:0:0:70:LR_Drum Rpd vFast.wav
384,192,92997,128,0,93297:0:0:0:0:
42,192,93297,128,2,94197:0:0:0:0:
298,192,93297,1,0,0:0:0:0:
213,192,93597,128,0,94197:0:0:0:70:LR_Drum Rpd x2.wav
298,192,93597,1,0,0:0:0:0:
469,192,93672,1,0,0:0:0:0:
128,192,93747,1,0,0:0:0:0:
298,192,93897,1,0,0:0:0:70:LR_Drum Rpd vFast.wav
384,192,93897,128,0,94197:0:0:0:0:
128,192,94047,1,0,0:0:0:0:
298,192,94197,1,2,0:0:0:0:
469,192,94197,1,0,0:0:0:70:CrashR.wav
128,192,94347,1,0,0:0:0:0:
213,192,94347,1,0,0:0:0:0:
42,192,94497,1,0,0:0:0:70:LR_Drum Rpd vFast.wav
384,192,94497,1,0,0:0:0:0:
469,192,94497,1,0,0:0:0:0:
128,192,94647,1,0,0:0:0:0:
298,192,94647,1,0,0:0:0:0:
213,192,94797,1,0,0:0:0:70:LR_Drum Rpd x2.wav
384,192,94797,1,0,0:0:0:0:
42,192,94947,1,0,0:0:0:0:
469,192,94947,1,0,0:0:0:0:
384,192,95022,1,0,0:0:0:0:
128,192,95097,1,4,0:0:0:0:
213,192,95097,1,0,0:0:0:70:LR_Drum Rpd x2.wav
298,192,95097,1,0,0:0:0:0:
42,192,95397,1,0,0:0:0:70:LR_Drum Rpd vFast.wav
298,192,95397,1,0,0:0:0:0:
469,192,95397,1,0,0:0:0:0:
213,192,95697,1,0,0:0:0:70:LR_Drum Rpd x2.wav
384,192,95697,1,0,0:0:0:0:
298,192,95847,1,0,0:0:0:0:
42,192,95997,128,0,96597:0:0:0:70:LR_Drum Rpd x2.wav
128,192,95997,1,0,0:0:0:0:
213,192,95997,1,0,0:0:0:0:
469,192,95997,1,0,0:0:0:0:
384,192,96147,1,0,0:0:0:0:
128,192,96297,128,0,96897:0:0:0:70:LR_Drum Rpd vFast.wav
298,192,96297,1,0,0:0:0:0:
469,192,96297,1,0,0:0:0:0:
384,192,96447,1,0,0:0:0:0:
213,192,96597,128,0,97197:0:0:0:70:LR_Drum Rpd x2.wav
298,192,96597,1,0,0:0:0:0:
42,192,96747,1,0,0:0:0:0:
384,192,96897,128,0,97497:0:0:0:70:LR_Drum Rpd x2.wav
469,192,96897,1,0,0:0:0:0:
128,192,97047,1,0,0:0:0:0:
42,192,97197,1,0,0:0:0:70:LR_Drum Rpd vFast.wav
298,192,97197,1,0,0:0:0:0:
469,192,97197,128,0,97797:0:0:0:0:
213,192,97347,1,0,0:0:0:0:
42,192,97422,1,0,0:0:0:0:
128,192,97497,1,0,0:0:0:70:LR_Drum Rpd x2.wav
298,192,97497,128,0,98097:0:0:0:0:
384,192,97647,1,0,0:0:0:0:
42,192,97797,128,4,98397:0:0:0:0:
213,192,97797,1,0,0:0:0:70:LR_Drum Rpd x2.wav
128,192,98097,128,0,98697:0:0:0:70:LR_Drum Rpd vFast.wav
469,192,98097,1,0,0:0:0:0:
298,192,98247,1,0,0:0:0:0:
213,192,98397,1,0,0:0:0:70:LR_Drum Rpd x2.wav
469,192,98397,128,0,98997:0:0:0:0:
42,192,98547,1,0,0:0:0:70:LR_Drum Rpd vFast.wav
213,192,98697,1,0,0:0:0:70:LR_Drum Rpd x2.wav
384,192,98697,128,0,99297:0:0:0:0:
42,192,98897,1,0,0:0:0:0:
128,192,98997,128,0,99597:0:0:0:70:LR_Drum Rpd vFast.wav
298,192,98997,1,0,0:0:0:0:
213,192,99297,128,0,99897:0:0:0:70:LR_Drum Rpd x2.wav
298,192,99297,1,0,0:0:0:0:
42,192,99597,1,0,0:0:0:70:LR_Drum Rpd x2.wav
469,192,99597,128,0,101247:0:0:0:0:
298,192,99747,1,0,0:0:0:70:LR_Drum Rpd vFast.wav
128,192,99897,1,0,0:0:0:0:
384,192,99897,128,0,100197:0:0:0:0:
42,192,100047,1,0,0:0:0:70:LR_Drum Rpd vFast.wav
298,192,100047,1,0,0:0:0:0:
128,192,100197,1,0,0:0:0:70:LR_Drum Rpd x2.wav
213,192,100197,128,0,100497:0:0:0:0:
384,192,100347,1,0,0:0:0:70:LR_Drum Rpd vFast.wav
42,192,100497,128,0,101247:0:0:0:70:LR_Drum Rpd x2.wav
128,192,100497,1,0,0:0:0:0:
298,192,100497,1,0,0:0:0:0:
384,192,100647,1,0,0:0:0:0:
128,192,100797,1,0,0:0:0:70:LR_Drum Rpd vFast.wav
298,192,100797,1,0,0:0:0:70:CrashR.wav
213,192,100947,1,0,0:0:0:0:
128,192,101097,1,0,0:0:0:70:LR_Drum Rpd x2.wav
384,192,101097,1,0,0:0:0:0:
298,192,101247,1,0,0:0:0:0:
384,192,101322,1,0,0:0:0:0:
42,192,101397,1,2,0:0:0:0:
213,192,101397,1,0,0:0:0:0:
469,192,101397,1,0,0:0:0:0:
128,192,101697,1,4,0:0:0:0:
213,192,101697,128,0,102297:0:0:0:70:LR_Drum Rpd vFast.wav
469,192,101697,1,0,0:0:0:0:
298,192,101847,1,0,0:0:0:0:
42,192,101997,1,4,0:0:0:0:
384,192,101997,128,2,102297:0:0:0:0:
469,192,101997,1,0,0:0:0:0:
128,192,102147,1,0,0:0:0:0:
42,192,102297,128,0,102897:0:0:0:70:LR_Drum Rpd x2.wav
298,192,102297,1,0,0:0:0:0:
469,192,102297,1,0,0:0:0:0:
128,192,102597,1,0,0:0:0:70:LR_Drum Rpd vFast.wav
213,192,102597,1,0,0:0:0:0:
298,192,102597,128,0,102897:0:0:0:0:
384,192,102597,1,0,0:0:0:0:
469,192,102747,1,0,0:0:0:70:LR_Drum Rpd vFast.wav
128,192,102897,1,0,0:0:0:70:LR_Drum Rpd x2.wav
384,192,102897,1,0,0:0:0:0:
469,192,102897,128,0,103047:0:0:0:0:
42,192,103047,1,0,0:0:0:70:LR_Drum Rpd x2.wav
213,192,103047,1,0,0:0:0:0:
298,192,103047,1,0,0:0:0:0:
42,192,103197,128,4,104097:0:0:0:0:
128,192,103197,1,2,0:0:0:0:
213,192,103197,1,0,0:0:0:0:
298,192,103197,1,0,0:0:0:0:
384,192,103197,1,0,0:0:0:0:
469,192,103197,1,0,0:0:0:0:
298,192,103497,1,8,0:0:0:0:
384,192,103497,1,0,0:0:0:0:
213,192,103797,1,0,0:0:0:0:
128,192,104097,1,0,0:0:0:0:
469,192,104097,128,0,104997:0:0:0:0:
213,192,104397,1,8,0:0:0:0:
384,192,104697,1,8,0:0:0:0:
42,192,104997,1,0,0:0:0:0:
128,192,104997,1,0,0:0:0:0:
298,192,104997,128,0,105897:0:0:0:0:
384,192,105297,1,8,0:0:0:0:
469,192,105597,1,0,0:0:0:0:
128,192,105897,1,0,0:0:0:0:
213,192,105897,128,0,106347:0:0:0:0:
384,192,105897,1,0,0:0:0:0:
298,192,106197,1,8,0:0:0:0:
469,192,106197,1,0,0:0:0:0:
42,192,106497,1,8,0:0:0:0:
128,192,106497,1,0,0:0:0:0:
213,192,106797,1,0,0:0:0:70:CrashL.wav
298,192,106797,128,0,107247:0:0:0:0:
384,192,106797,1,0,0:0:0:0:
469,192,106797,1,0,0:0:0:0:
42,192,107097,128,8,107547:0:0:0:0:
298,192,107397,128,0,107847:0:0:0:0:
469,192,107397,1,0,0:0:0:0:
42,192,107697,1,0,0:0:0:0:
384,192,107697,128,0,108147:0:0:0:0:
128,192,107997,128,8,108597:0:0:0:0:
298,192,107997,1,0,0:0:0:0:
42,192,108297,1,8,0:0:0:0:
384,192,108297,128,0,108747:0:0:0:0:
42,192,108597,1,0,0:0:0:70:CrashR.wav
213,192,108597,128,0,108897:0:0:0:0:
298,192,108597,1,0,0:0:0:0:
469,192,108597,128,0,109947:0:0:0:0:
42,192,108897,128,8,109047:0:0:0:0:
384,192,108897,1,0,0:0:0:0:
213,192,109047,128,0,109197:0:0:0:0:
298,192,109047,1,0,0:0:0:0:
128,192,109197,128,0,109347:0:0:0:0:
384,192,109197,1,0,0:0:0:0:
42,192,109497,128,0,110247:0:0:0:70:LR_Drum Rpd x2.wav
298,192,109497,128,0,110247:0:0:0:0:
128,192,109797,128,0,110247:0:0:0:70:LR_Drum Rpd vFast.wav
384,192,109797,128,0,110247:0:0:0:0:
213,192,110097,128,0,110247:0:0:0:70:LR_Drum Rpd x2.wav
469,192,110097,128,0,110247:0:0:0:0:
42,192,110397,128,4,111297:0:0:0:0:
213,192,110397,128,2,111297:0:0:0:0:
384,192,110397,1,0,0:0:0:0:
469,192,110397,1,0,0:0:0:0:
298,192,110697,1,8,0:0:0:0:
128,192,110997,1,8,0:0:0:0:
469,192,110997,1,0,0:0:0:0:
128,192,111297,1,8,0:0:0:0:
298,192,111297,128,0,112197:0:0:0:0:
384,192,111297,1,0,0:0:0:0:
469,192,111297,128,0,112197:0:0:0:0:
213,192,111597,1,8,0:0:0:0:
42,192,111897,1,8,0:0:0:0:
42,192,112197,128,8,112647:0:0:0:0:
128,192,112197,128,0,112647:0:0:0:0:
213,192,112197,1,0,0:0:0:0:
298,192,112497,1,8,0:0:0:0:
213,192,112647,1,0,0:0:0:0:
469,192,112797,1,8,0:0:0:0:
42,192,113097,1,8,0:0:0:0:
213,192,113097,1,0,0:0:0:0:
384,192,113097,128,0,113247:0:0:0:0:
469,192,113097,128,0,113247:0:0:0:0:
128,192,113397,1,8,0:0:0:0:
298,192,113397,1,0,0:0:0:0:
384,192,113397,128,0,113697:0:0:0:0:
469,192,113397,128,0,113697:0:0:0:0:
213,192,113547,1,0,0:0:0:0:
42,192,113697,128,8,113997:0:0:0:0:
128,192,113697,128,0,113997:0:0:0:0:
298,192,113697,1,0,0:0:0:0:
213,192,113997,1,8,0:0:0:0:
298,192,113997,128,0,114447:0:0:0:70:CrashL.wav
384,192,113997,128,0,114447:0:0:0:0:
469,192,113997,1,0,0:0:0:0:
128,192,114297,128,8,114747:0:0:0:0:
213,192,114297,128,0,114747:0:0:0:0:
469,192,114297,1,0,0:0:0:0:
42,192,114447,1,0,0:0:0:0:
298,192,114597,128,8,115047:0:0:0:0:
384,192,114597,128,0,115047:0:0:0:0:
469,192,114597,1,0,0:0:0:0:
42,192,114897,128,8,115347:0:0:0:0:
128,192,114897,1,0,0:0:0:0:
213,192,114897,128,0,115347:0:0:0:0:
298,192,115197,128,8,115497:0:0:0:0:
384,192,115197,1,0,0:0:0:0:
469,192,115197,128,0,115497:0:0:0:0:
128,192,115347,1,0,0:0:0:0:
42,192,115497,128,8,115797:0:0:0:0:
213,192,115497,128,0,115797:0:0:0:0:
384,192,115497,1,0,0:0:0:0:
128,192,115797,128,8,117447:0:0:0:0:
384,192,115797,1,0,0:0:0:70:CrashR.wav
469,192,115797,1,0,0:0:0:0:
298,192,115947,1,0,0:0:0:0:
42,192,116097,1,8,0:0:0:0:
469,192,116097,1,0,0:0:0:0:
298,192,116247,1,0,0:0:0:0:
42,192,116397,1,8,0:0:0:0:
213,192,116397,128,0,117447:0:0:0:0:
384,192,116397,1,0,0:0:0:0:
298,192,116697,128,8,117447:0:0:0:0:
384,192,116697,1,0,0:0:0:70:CrashL.wav
469,192,116697,1,0,0:0:0:0:
42,192,116997,1,0,0:0:0:70:LR_Drum Rpd vFast.wav
384,192,116997,1,0,0:0:0:0:
469,192,117147,1,0,0:0:0:0:
42,192,117297,1,0,0:0:0:70:LR_Drum Rpd x2.wav
384,192,117297,128,0,117447:0:0:0:0:
469,192,117447,1,0,0:0:0:0:
42,192,117597,128,2,118497:0:0:0:0:
213,192,117597,128,4,118497:0:0:0:0:
298,192,117597,1,0,0:0:0:0:
384,192,117597,1,0,0:0:0:0:
128,192,117897,1,8,0:0:0:0:
298,192,117897,1,0,0:0:0:0:
384,192,118197,1,0,0:0:0:70:LR_Drum Rpd vFast.wav
469,192,118197,1,0,0:0:0:0:
128,192,118497,128,0,118797:0:0:0:70:LR_Drum Rpd x2.wav
298,192,118497,128,0,119397:0:0:0:0:
469,192,118497,128,0,119397:0:0:0:0:
42,192,118797,128,8,118947:0:0:0:0:
384,192,118797,1,0,0:0:0:0:
213,192,118947,128,0,119097:0:0:0:0:
128,192,119097,1,8,0:0:0:0:
384,192,119097,128,0,119397:0:0:0:0:
42,192,119397,128,0,120297:0:0:0:70:LR_Drum Rpd vFast.wav
128,192,119397,128,0,120297:0:0:0:0:
213,192,119397,1,0,0:0:0:0:
213,192,119697,1,8,0:0:0:0:
469,192,119697,1,0,0:0:0:0:
384,192,119847,1,0,0:0:0:0:
298,192,119997,1,0,0:0:0:70:LR_Drum Rpd vFast.wav
469,192,119997,1,0,0:0:0:0:
213,192,120147,1,0,0:0:0:0:
298,192,120297,1,0,0:0:0:70:LR_Drum Rpd x2.wav
384,192,120297,128,0,121047:0:0:0:0:
469,192,120297,128,0,121047:0:0:0:0:
128,192,120597,128,8,121047:0:0:0:0:
213,192,120597,1,0,0:0:0:0:
298,192,120597,128,0,121047:0:0:0:0:
42,192,120897,128,8,121047:0:0:0:0:
213,192,120897,128,0,121047:0:0:0:0:
213,192,121197,128,0,121647:0:0:0:70:LR_Drum Rpd vFast.wav
298,192,121197,128,0,121647:0:0:0:70:CrashL.wav
384,192,121197,1,0,0:0:0:0:
469,192,121197,1,0,0:0:0:0:
42,192,121497,128,8,121947:0:0:0:0:
128,192,121497,128,0,121947:0:0:0:0:
469,192,121497,1,0,0:0:0:0:
213,192,121797,128,0,122247:0:0:0:70:LR_Drum Rpd vFast.wav
298,192,121797,128,0,122247:0:0:0:0:
384,192,121797,1,0,0:0:0:0:
42,192,122097,1,0,0:0:0:70:LR_Drum Rpd x2.wav
384,192,122097,128,0,122547:0:0:0:0:
469,192,122097,128,0,122547:0:0:0:0:
128,192,122397,1,8,0:0:0:0:
213,192,122397,128,0,122847:0:0:0:0:
298,192,122397,128,0,122847:0:0:0:0:
42,192,122697,1,8,0:0:0:0:
384,192,122697,128,0,122997:0:0:0:0:
469,192,122697,128,0,122997:0:0:0:0:
42,192,122997,128,0,124197:0:0:0:70:LR_Drum Rpd vFast.wav
128,192,122997,1,0,0:0:0:70:CrashL.wav
213,192,122997,1,0,0:0:0:0:
298,192,122997,128,0,123297:0:0:0:0:
213,192,123297,1,8,0:0:0:0:
384,192,123297,128,0,123447:0:0:0:0:
128,192,123447,1,0,0:0:0:0:
469,192,123447,128,0,123597:0:0:0:0:
213,192,123597,1,0,0:0:0:70:LR_Drum Rpd vFast.wav
298,192,123597,128,0,123747:0:0:0:0:
128,192,123897,128,0,124497:0:0:0:70:LR_Drum Rpd x2.wav
298,192,123897,1,0,0:0:0:70:CrashR.wav
469,192,124047,1,0,0:0:0:0:
213,192,124197,128,8,124797:0:0:0:0:
298,192,124197,128,4,124797:0:0:0:0:
469,192,124347,1,0,0:0:0:0:
42,192,124497,1,8,0:0:0:0:
384,192,124497,128,0,124647:0:0:0:0:
42,192,124797,128,2,125697:0:0:0:0:
128,192,124797,1,4,0:0:0:0:
384,192,124797,1,0,0:0:0:0:
469,192,124797,128,0,125697:0:0:0:0:
128,192,125097,1,8,0:0:0:0:
384,192,125097,1,0,0:0:0:0:
213,192,125247,1,0,0:0:0:0:
298,192,125397,1,0,0:0:0:70:LR_Drum Rpd vFast.wav
384,192,125397,1,0,0:0:0:0:
128,192,125697,128,0,125997:0:0:0:70:LR_Drum Rpd x2.wav
213,192,125697,128,0,126597:0:0:0:0:
298,192,125697,128,0,126597:0:0:0:0:
42,192,125997,128,8,126147:0:0:0:0:
384,192,125997,1,0,0:0:0:0:
128,192,126147,128,0,126297:0:0:0:0:
384,192,126297,128,8,126597:0:0:0:0:
469,192,126297,1,0,0:0:0:0:
42,192,126597,128,0,127197:0:0:0:70:LR_Drum Rpd vFast.wav
128,192,126597,1,0,0:0:0:0:
469,192,126597,128,0,127197:0:0:0:0:
298,192,126897,1,8,0:0:0:0:
384,192,126897,1,0,0:0:0:0:
128,192,127047,1,0,0:0:0:0:
213,192,127197,1,0,0:0:0:70:LR_Drum Rpd vFast.wav
384,192,127197,1,0,0:0:0:0:
128,192,127347,1,0,0:0:0:0:
42,192,127497,128,0,127647:0:0:0:70:LR_Drum Rpd x2.wav
213,192,127497,128,0,127647:0:0:0:0:
384,192,127497,128,0,127797:0:0:0:0:
128,192,127797,128,8,128097:0:0:0:0:
298,192,127797,128,0,127947:0:0:0:0:
469,192,127797,128,0,127947:0:0:0:0:
213,192,127947,1,0,0:0:0:0:
42,192,128097,128,8,128247:0:0:0:0:
298,192,128097,1,0,0:0:0:0:
384,192,128097,128,0,128397:0:0:0:0:
128,192,128397,1,4,0:0:0:0:
213,192,128397,128,0,128847:0:0:0:70:LR_Drum Rpd vFast.wav
298,192,128397,1,0,0:0:0:0:
469,192,128397,1,0,0:0:0:0:
42,192,128697,128,8,129147:0:0:0:0:
128,192,128697,128,0,128847:0:0:0:0:
469,192,128697,1,0,0:0:0:0:
384,192,128847,128,0,128997:0:0:0:0:
213,192,128997,128,0,129447:0:0:0:70:LR_Drum Rpd vFast.wav
298,192,128997,1,0,0:0:0:0:
469,192,128997,128,0,129147:0:0:0:0:
42,192,129297,1,0,0:0:0:70:LR_Drum Rpd x2.wav
298,192,129297,128,0,129747:0:0:0:0:
384,192,129297,1,0,0:0:0:0:
213,192,129597,128,8,129747:0:0:0:0:
469,192,129597,128,0,130047:0:0:0:0:
384,192,129747,1,0,0:0:0:0:
42,192,129897,1,8,0:0:0:0:
128,192,129897,128,0,130047:0:0:0:0:
298,192,129897,128,0,130197:0:0:0:0:
42,192,130197,128,4,131097:0:0:0:0:
213,192,130197,1,0,0:0:0:70:LR_Drum Rpd vFast.wav
384,192,130197,1,0,0:0:0:0:
469,192,130197,1,0,0:0:0:0:
128,192,130497,1,8,0:0:0:0:
469,192,130497,1,0,0:0:0:0:
213,192,130647,1,0,0:0:0:0:
384,192,130647,1,0,0:0:0:0:
128,192,130797,1,0,0:0:0:70:LR_Drum Rpd vFast.wav
298,192,130797,1,0,0:0:0:0:
469,192,130797,1,0,0:0:0:0:
128,192,131097,1,0,0:0:0:70:LR_Drum Rpd x2.wav
213,192,131097,1,0,0:0:0:70:CrashL.wav
298,192,131097,1,0,0:0:0:0:
384,192,131097,1,0,0:0:0:0:
42,192,131397,1,8,0:0:0:0:
128,192,131397,1,0,0:0:0:0:
384,192,131397,1,0,0:0:0:0:
469,192,131397,1,0,0:0:0:0:
42,192,131997,128,2,132897:0:0:0:0:
213,192,131997,1,0,0:0:0:70:LR_Chm Echo long.wav
469,192,131997,1,0,0:0:0:0:
298,192,132297,1,0,0:0:0:0:
384,192,132597,1,0,0:0:0:0:
213,192,132897,1,0,0:0:0:0:
469,192,132897,128,0,133797:0:0:0:0:
128,192,133197,1,0,0:0:0:0:
42,192,133797,1,2,0:0:0:0:
128,192,133797,1,0,0:0:0:0:
298,192,133797,128,0,134397:0:0:0:0:
469,192,134097,1,0,0:0:0:0:
128,192,134397,128,0,134697:0:0:0:0:
384,192,134397,1,0,0:0:0:0:
42,192,134697,128,0,135297:0:0:0:0:
213,192,134697,1,0,0:0:0:0:
298,192,134997,1,0,0:0:0:0:
128,192,135297,1,0,0:0:0:0:
213,192,135597,128,2,136047:0:0:0:0:
469,192,135597,1,0,0:0:0:0:
42,192,135897,128,0,136347:0:0:0:0:
298,192,135897,1,0,0:0:0:0:
213,192,136197,128,0,136647:0:0:0:0:
469,192,136197,1,0,0:0:0:0:
42,192,136497,1,0,0:0:0:0:
298,192,136497,128,0,136947:0:0:0:0:
213,192,136797,1,0,0:0:0:0:
469,192,136797,128,0,137247:0:0:0:0:
42,192,137097,1,0,0:0:0:0:
298,192,137097,128,0,137397:0:0:0:0:
128,192,137247,1,0,0:0:0:0:
42,192,137397,128,2,138297:0:0:0:0:
469,192,137397,1,0,0:0:0:0:
384,192,137697,1,0,0:0:0:70:LR_Drum Rpd x2.wav
298,192,137997,1,0,0:0:0:70:LR_Drum Rpd x2.wav
128,192,138297,1,2,0:0:0:0:
213,192,138297,1,0,0:0:0:0:
298,192,138597,128,2,139197:0:0:0:0:
384,192,138597,128,0,139197:0:0:0:0:
42,192,139197,128,0,140097:0:0:0:0:
213,192,139497,1,0,0:0:0:0:
384,192,139797,1,0,0:0:0:0:
298,192,140097,1,0,0:0:0:0:
469,192,140097,128,0,140997:0:0:0:0:
128,192,140397,1,0,0:0:0:0:
213,192,140997,1,0,0:0:0:0:
298,192,140997,128,0,141897:0:0:0:0:
384,192,141297,1,0,0:0:0:0:
469,192,141597,1,0,0:0:0:0:
42,192,141897,128,0,142197:0:0:0:0:
128,192,141897,1,0,0:0:0:0:
384,192,142197,1,0,0:0:0:0:
42,192,142497,1,0,0:0:0:0:
213,192,142497,128,0,142797:0:0:0:0:
128,192,142797,1,0,0:0:0:0:
298,192,142797,128,0,143697:0:0:0:0:
213,192,143097,1,0,0:0:0:0:
384,192,143097,1,0,0:0:0:0:
469,192,143397,1,0,0:0:0:0:
42,192,143697,1,0,0:0:0:0:
384,192,143697,128,0,144597:0:0:0:0:
469,192,143697,1,0,0:0:0:0:
128,192,143997,1,0,0:0:0:0:
298,192,144297,1,0,0:0:0:0:
42,192,144597,1,0,0:0:0:0:
128,192,144597,128,0,145197:0:0:0:0:
469,192,144597,128,0,147297:0:0:0:0:
213,192,144897,128,0,145497:0:0:0:0:
384,192,144897,1,0,0:0:0:0:
42,192,145197,1,0,0:0:0:0:
298,192,145197,128,0,145797:0:0:0:0:
42,192,145497,128,0,147297:0:0:0:0:
128,192,145497,128,0,147297:0:0:0:0:
384,192,145497,128,0,147297:0:0:0:0:
