osu file format v14

[General]
AudioFilename: audio.mp3
AudioLeadIn: 0
PreviewTime: 58197
Countdown: 0
SampleSet: Soft
StackLeniency: 0.7
Mode: 3
LetterboxInBreaks: 0
SpecialStyle: 0
WidescreenStoryboard: 1

[Editor]
Bookmarks: 14997,29397,58197,72597,86997,103197,131997
DistanceSpacing: 1.2
BeatDivisor: 4
GridSize: 8
TimelineZoom: 0.9999998

[Metadata]
Title:Promise (feat. Sherie)
TitleUnicode:約束之歌 (약속지가) (feat. Sherie)
Artist:M2U
ArtistUnicode:M2U
Creator:-NoName-
Version:4K Normal
Source:하이파이브
Tags:yakusoku no uta yagsogjiga o2jam high5 adieu chérie video game folk famoss guden korean ダイバーシティ DIVERSITY. Diversity Universal Music
BeatmapID:2703878
BeatmapSetID:1301740

[Difficulty]
HPDrainRate:7.5
CircleSize:4
OverallDifficulty:7.2
ApproachRate:5
SliderMultiplier:1.4
SliderTickRate:1

[Events]
//Background and Video events
0,0,"bg.jpg",0,0
//Break Periods
//Storyboard Layer 0 (Background)
//Storyboard Layer 1 (Fail)
//Storyboard Layer 2 (Pass)
//Storyboard Layer 3 (Foreground)
//Storyboard Layer 4 (Overlay)
//Storyboard Sound Samples
Sample,14397,0,"CrashR.wav",70
Sample,43197,0,"TomTom1.wav",70
Sample,57747,0,"LR_Drum Rpd vFast.wav",70
Sample,94197,0,"CrashR.wav",70
Sample,95097,0,"LR_Drum Rpd x2.wav",70
Sample,100797,0,"CrashR.wav",70

[TimingPoints]
597,300,6,2,1,70,1,0
58197,-100,6,2,1,70,0,1
70797,-100,6,2,1,70,0,0
72597,-100,6,2,1,70,0,1
86997,-100,6,2,1,70,0,0
103197,-100,6,2,1,70,0,1
115797,-100,6,2,1,70,0,0
117597,-100,6,2,1,70,0,1
131997,-100,6,2,1,70,0,0

[HitObjects]
64,192,597,128,0,897:0:0:0:0:
192,192,897,128,0,1197:0:0:0:0:
448,192,1197,128,0,1497:0:0:0:0:
320,192,1497,128,0,1797:0:0:0:0:
64,192,1797,128,0,2097:0:0:0:0:
320,192,2397,128,0,2697:0:0:0:0:
448,192,2697,128,0,2997:0:0:0:0:
192,192,2997,128,0,3297:0:0:0:0:
64,192,3297,128,0,3597:0:0:0:0:
320,192,3597,128,0,3897:0:0:0:0:
64,192,4197,128,0,4497:0:0:0:0:
192,192,4497,128,0,4797:0:0:0:0:
448,192,4797,128,0,5097:0:0:0:0:
192,192,5097,128,0,5397:0:0:0:0:
64,192,5397,128,0,5697:0:0:0:0:
320,192,5697,128,0,5997:0:0:0:0:
192,192,5997,128,0,6297:0:0:0:0:
448,192,6297,128,0,6597:0:0:0:0:
192,192,6597,128,0,6897:0:0:0:0:
64,192,6897,128,0,7797:0:0:0:0:
448,192,7197,1,0,0:0:0:0:
320,192,7497,1,0,0:0:0:0:
192,192,7797,128,2,8097:0:0:0:0:
448,192,7797,1,4,0:0:0:0:
320,192,8097,128,0,8397:0:0:0:70:LR_Drum Rpd vFast.wav
448,192,8397,128,0,8697:0:0:0:70:LR_Drum Rpd x2.wav
320,192,8697,128,0,8997:0:0:0:70:LR_Drum Rpd x2.wav
64,192,8997,128,0,9297:0:0:0:70:LR_Drum Rpd vFast.wav
192,192,9597,1,0,0:0:0:70:LR_Drum Rpd x2.wav
320,192,9597,128,0,9897:0:0:0:0:
448,192,9897,128,0,10197:0:0:0:70:LR_Drum Rpd vFast.wav
192,192,10197,128,0,10497:0:0:0:70:LR_Drum Rpd x2.wav
64,192,10497,128,0,10797:0:0:0:70:LR_Drum Rpd x2.wav
320,192,10497,1,0,0:0:0:0:
448,192,10797,128,0,11097:0:0:0:70:LR_Drum Rpd vFast.wav
64,192,11397,128,0,11697:0:0:0:70:LR_Drum Rpd x2.wav
320,192,11397,1,0,0:0:0:0:
192,192,11697,128,0,11997:0:0:0:70:LR_Drum Rpd vFast.wav
448,192,11997,128,0,12297:0:0:0:70:LR_Drum Rpd x2.wav
64,192,12297,128,0,12597:0:0:0:70:LR_Drum Rpd x2.wav
192,192,12297,1,0,0:0:0:0:
320,192,12597,128,0,12897:0:0:0:70:LR_Drum Rpd vFast.wav
448,192,12897,128,0,13197:0:0:0:70:LR_Drum Rpd vFast.wav
192,192,13197,128,0,13497:0:0:0:70:LR_Drum Rpd x2.wav
320,192,13197,1,0,0:0:0:0:
448,192,13497,128,0,13797:0:0:0:70:LR_Drum Rpd vFast.wav
192,192,13797,128,0,14097:0:0:0:70:LR_Drum Rpd x2.wav
64,192,14097,1,0,0:0:0:70:LR_Drum Rpd vFast.wav
448,192,14397,1,2,0:0:0:0:
320,192,14547,1,0,0:0:0:0:
192,192,14697,1,0,0:0:0:70:CrashL.wav
64,192,14847,1,0,0:0:0:0:
320,192,14997,128,2,15597:0:0:0:0:
448,192,14997,1,4,0:0:0:0:
192,192,15297,1,8,0:0:0:0:
64,192,15597,1,0,0:0:0:70:LR_Drum Rpd vFast.wav
448,192,15597,128,0,15897:0:0:0:0:
64,192,15897,1,0,0:0:0:70:LR_Drum Rpd x2.wav
320,192,15897,128,0,16497:0:0:0:0:
192,192,16197,1,8,0:0:0:0:
64,192,16497,128,8,16797:0:0:0:0:
192,192,16797,128,0,17397:0:0:0:70:LR_Drum Rpd vFast.wav
320,192,17097,1,8,0:0:0:0:
448,192,17397,128,0,17697:0:0:0:70:LR_Drum Rpd vFast.wav
64,192,17697,1,0,0:0:0:70:LR_Drum Rpd x2.wav
320,192,17697,128,0,17997:0:0:0:0:
192,192,17997,128,8,18297:0:0:0:0:
64,192,18297,128,8,18597:0:0:0:0:
320,192,18597,1,0,0:0:0:70:LR_Drum Rpd vFast.wav
448,192,18597,128,0,19197:0:0:0:0:
192,192,18897,1,8,0:0:0:0:
64,192,19197,1,0,0:0:0:70:LR_Drum Rpd vFast.wav
320,192,19197,128,0,19497:0:0:0:0:
64,192,19497,128,0,19797:0:0:0:70:LR_Drum Rpd x2.wav
448,192,19497,1,0,0:0:0:0:
192,192,19797,128,8,20097:0:0:0:0:
320,192,20097,128,8,20397:0:0:0:0:
64,192,20397,1,0,0:0:0:70:LR_Drum Rpd vFast.wav
448,192,20397,128,0,21297:0:0:0:0:
192,192,20697,1,8,0:0:0:0:
320,192,20847,1,0,0:0:0:0:
192,192,20997,1,0,0:0:0:70:LR_Drum Rpd vFast.wav
64,192,21297,1,0,0:0:0:70:LR_Drum Rpd x2.wav
192,192,21447,1,0,0:0:0:0:
448,192,21597,1,8,0:0:0:0:
320,192,21747,1,0,0:0:0:0:
64,192,21897,1,8,0:0:0:0:
320,192,22197,128,2,22797:0:0:0:0:
448,192,22197,1,0,0:0:0:0:
192,192,22497,1,8,0:0:0:0:
64,192,22797,1,0,0:0:0:70:LR_Drum Rpd vFast.wav
448,192,22797,128,0,23097:0:0:0:0:
64,192,23097,1,0,0:0:0:70:LR_Drum Rpd x2.wav
320,192,23097,128,0,23697:0:0:0:0:
192,192,23397,1,8,0:0:0:0:
64,192,23697,128,8,23997:0:0:0:0:
192,192,23997,128,0,24597:0:0:0:70:LR_Drum Rpd vFast.wav
320,192,24297,1,8,0:0:0:0:
448,192,24597,128,0,24897:0:0:0:70:LR_Drum Rpd vFast.wav
64,192,24897,1,0,0:0:0:70:LR_Drum Rpd x2.wav
320,192,24897,128,0,25197:0:0:0:0:
192,192,25197,128,8,25497:0:0:0:0:
448,192,25197,1,0,0:0:0:0:
64,192,25497,128,0,25797:0:0:0:0:
320,192,25797,128,0,26097:0:0:0:70:LR_Drum Rpd vFast.wav
448,192,25797,1,0,0:0:0:0:
64,192,26097,128,8,26397:0:0:0:0:
320,192,26397,128,0,26697:0:0:0:70:LR_Drum Rpd vFast.wav
64,192,26697,1,0,0:0:0:70:LR_Drum Rpd x2.wav
192,192,26697,128,0,26997:0:0:0:0:
448,192,26997,128,8,27297:0:0:0:0:
192,192,27297,128,8,27597:0:0:0:0:
64,192,27597,128,0,28497:0:0:0:70:LR_Drum Rpd vFast.wav
320,192,27597,1,0,0:0:0:0:
448,192,27747,1,0,0:0:0:70:LR_Drum Rpd x2.wav
320,192,27897,1,8,0:0:0:0:
192,192,28197,1,0,0:0:0:70:LR_Drum Rpd vFast.wav
320,192,28497,1,0,0:0:0:70:LR_Drum Rpd x2.wav
448,192,28497,1,0,0:0:0:70:CrashR.wav
64,192,28797,1,2,0:0:0:0:
192,192,28797,1,0,0:0:0:0:
64,192,29397,128,2,29697:0:0:0:0:
320,192,29397,1,0,0:0:0:70:LR_Chm Echo long.wav
192,192,29697,128,0,30297:0:0:0:0:
448,192,29697,1,0,0:0:0:0:
320,192,29997,1,0,0:0:0:70:LR_Drum Rpd x2.wav
64,192,30297,128,0,30597:0:0:0:70:LR_Drum Rpd vFast.wav
448,192,30297,1,0,0:0:0:0:
192,192,30597,128,0,30897:0:0:0:0:
448,192,30897,128,0,31197:0:0:0:0:
64,192,31197,1,2,0:0:0:0:
320,192,31197,128,0,31797:0:0:0:0:
192,192,31497,1,0,0:0:0:0:
64,192,31797,128,0,31947:0:0:0:70:LR_Drum Rpd x2.wav
448,192,31797,1,0,0:0:0:0:
64,192,32097,128,0,32997:0:0:0:70:LR_Drum Rpd vFast.wav
320,192,32097,1,0,0:0:0:0:
192,192,32997,1,2,0:0:0:0:
320,192,32997,128,0,33147:0:0:0:0:
64,192,33297,1,0,0:0:0:0:
320,192,33297,128,0,33597:0:0:0:0:
192,192,33597,1,0,0:0:0:70:LR_Drum Rpd x2.wav
448,192,33597,128,0,33897:0:0:0:0:
192,192,33897,128,0,34497:0:0:0:70:LR_Drum Rpd vFast.wav
320,192,33897,1,0,0:0:0:0:
64,192,34497,128,0,34797:0:0:0:0:
192,192,34797,128,2,35997:0:0:0:0:
320,192,34797,1,0,0:0:0:0:
64,192,35097,1,0,0:0:0:0:
448,192,35397,1,0,0:0:0:70:LR_Drum Rpd x2.wav
320,192,35697,1,0,0:0:0:70:LR_Drum Rpd vFast.wav
64,192,35997,1,0,0:0:0:70:TomTom1.wav
448,192,36297,1,0,0:0:0:0:
64,192,36597,128,2,36897:0:0:0:0:
320,192,36597,1,0,0:0:0:0:
192,192,36897,128,0,37497:0:0:0:0:
448,192,36897,1,0,0:0:0:0:
320,192,37197,1,0,0:0:0:70:LR_Drum Rpd x2.wav
64,192,37497,128,0,37797:0:0:0:70:LR_Drum Rpd vFast.wav
448,192,37497,1,0,0:0:0:0:
192,192,37797,128,0,38097:0:0:0:0:
448,192,38097,128,0,38397:0:0:0:0:
64,192,38397,1,2,0:0:0:0:
320,192,38397,128,0,38997:0:0:0:0:
192,192,38697,1,0,0:0:0:0:
64,192,38997,128,0,39297:0:0:0:70:LR_Drum Rpd x2.wav
448,192,38997,1,0,0:0:0:0:
320,192,39297,1,0,0:0:0:70:LR_Drum Rpd vFast.wav
192,192,39597,128,0,39897:0:0:0:70:LR_J Hit Edge F.wav
320,192,39897,128,0,40197:0:0:0:0:
64,192,40197,1,2,0:0:0:0:
448,192,40197,128,0,40497:0:0:0:0:
320,192,40497,128,0,40797:0:0:0:70:LR_Drum Rpd x2.wav
192,192,40797,128,0,41097:0:0:0:70:LR_Drum Rpd x2.wav
64,192,41097,128,0,41397:0:0:0:70:LR_Drum Rpd vFast.wav
448,192,41097,1,0,0:0:0:0:
320,192,41397,128,0,41697:0:0:0:70:LR_Drum Rpd x2.wav
64,192,41697,128,0,41997:0:0:0:70:LR_Drum Rpd vFast.wav
192,192,41997,1,2,0:0:0:0:
448,192,41997,128,0,43197:0:0:0:0:
64,192,42297,1,0,0:0:0:70:LR_Drum Rpd x2.wav
192,192,42597,1,0,0:0:0:70:LR_Drum Rpd x2.wav
320,192,42897,1,0,0:0:0:70:LR_Drum Rpd vFast.wav
64,192,43197,1,0,0:0:0:70:LR_Drum Rpd x2.wav
192,192,43797,1,2,0:0:0:0:
448,192,43797,128,0,44247:0:0:0:70:CrashL.wav
448,192,44397,128,0,44697:0:0:0:0:
64,192,44697,1,0,0:0:0:0:
320,192,44697,128,0,45297:0:0:0:0:
192,192,45297,128,0,45597:0:0:0:0:
64,192,45597,128,0,46197:0:0:0:0:
448,192,45597,1,0,0:0:0:0:
320,192,46197,128,0,46497:0:0:0:0:
64,192,46497,1,0,0:0:0:0:
192,192,46497,128,0,47097:0:0:0:0:
448,192,47097,128,0,47397:0:0:0:0:
64,192,47397,128,2,48297:0:0:0:0:
192,192,47397,1,0,0:0:0:0:
320,192,47697,1,0,0:0:0:0:
448,192,47997,1,0,0:0:0:0:
192,192,48297,1,0,0:0:0:0:
448,192,48297,128,0,49197:0:0:0:0:
320,192,48597,1,0,0:0:0:0:
64,192,48897,1,0,0:0:0:0:
192,192,49197,1,8,0:0:0:0:
320,192,49197,128,0,49647:0:0:0:0:
64,192,49647,1,8,0:0:0:0:
192,192,49647,128,0,50097:0:0:0:70:CrashL.wav
64,192,50097,128,8,50547:0:0:0:0:
320,192,50097,1,0,0:0:0:70:CrashR.wav
192,192,50547,128,8,50997:0:0:0:0:
448,192,50547,1,0,0:0:0:70:CrashL.wav
320,192,50997,128,2,51597:0:0:0:0:
448,192,50997,1,0,0:0:0:70:CrashR.wav
64,192,51297,1,8,0:0:0:0:
192,192,51597,128,0,51897:0:0:0:0:
320,192,51897,1,4,0:0:0:0:
448,192,51897,128,2,52497:0:0:0:0:
192,192,52197,1,8,0:0:0:0:
320,192,52497,128,0,52797:0:0:0:0:
64,192,52797,1,2,0:0:0:0:
448,192,52797,1,4,0:0:0:0:
192,192,52947,1,0,0:0:0:0:
448,192,53097,1,8,0:0:0:0:
320,192,53247,1,0,0:0:0:0:
64,192,53397,1,8,0:0:0:0:
320,192,53697,1,2,0:0:0:0:
64,192,53847,1,0,0:0:0:0:
448,192,53997,1,8,0:0:0:0:
192,192,54147,1,0,0:0:0:0:
320,192,54297,1,8,0:0:0:0:
448,192,54447,1,0,0:0:0:0:
64,192,54597,128,2,55197:0:0:0:0:
192,192,54597,1,0,0:0:0:70:CrashL.wav
320,192,54897,1,8,0:0:0:0:
448,192,55197,128,0,55497:0:0:0:70:LR_Drum Rpd vFast.wav
64,192,55497,1,2,0:0:0:0:
320,192,55497,128,0,56097:0:0:0:70:CrashR.wav
192,192,55797,1,8,0:0:0:0:
64,192,56097,128,0,56397:0:0:0:70:LR_Drum Rpd vFast.wav
192,192,56397,1,2,0:0:0:0:
448,192,56397,128,4,58197:0:0:0:0:
320,192,56697,1,0,0:0:0:70:LR_Drum Rpd vFast.wav
64,192,56997,1,0,0:0:0:70:LR_Drum Rpd x2.wav
192,192,57297,1,6,0:0:0:0:
64,192,57447,1,0,0:0:0:0:
192,192,57597,1,0,0:0:0:70:LR_Drum Rpd vFast.wav
320,192,57747,1,8,0:0:0:0:
64,192,57897,1,0,0:0:0:70:LR_Drum Rpd x2.wav
192,192,58047,1,0,0:0:0:70:LR_Drum Rpd x2.wav
64,192,58197,1,2,0:0:0:0:
320,192,58197,128,4,58797:0:0:0:0:
192,192,58497,1,8,0:0:0:0:
64,192,58797,1,0,0:0:0:70:LR_Drum Rpd vFast.wav
448,192,58797,128,0,59097:0:0:0:0:
64,192,59097,1,0,0:0:0:70:LR_Drum Rpd x2.wav
320,192,59097,128,0,59697:0:0:0:0:
192,192,59397,1,8,0:0:0:0:
64,192,59697,128,8,59997:0:0:0:0:
192,192,59997,128,0,60597:0:0:0:70:LR_Drum Rpd vFast.wav
448,192,59997,1,0,0:0:0:0:
320,192,60297,1,8,0:0:0:0:
448,192,60597,128,0,60897:0:0:0:70:LR_Drum Rpd vFast.wav
64,192,60897,1,0,0:0:0:70:LR_Drum Rpd x2.wav
320,192,60897,128,0,61197:0:0:0:0:
192,192,61197,128,8,61497:0:0:0:0:
448,192,61197,1,0,0:0:0:0:
64,192,61497,128,8,61797:0:0:0:0:
320,192,61497,1,0,0:0:0:0:
192,192,61797,1,0,0:0:0:70:LR_Drum Rpd vFast.wav
448,192,61797,128,0,62397:0:0:0:70:CrashL.wav
64,192,62097,1,8,0:0:0:0:
192,192,62397,128,0,62697:0:0:0:70:LR_Drum Rpd vFast.wav
320,192,62397,1,0,0:0:0:0:
64,192,62697,128,0,62997:0:0:0:70:LR_Drum Rpd x2.wav
448,192,62697,1,0,0:0:0:70:CrashR.wav
192,192,62997,128,8,63297:0:0:0:0:
320,192,63297,128,8,63597:0:0:0:0:
192,192,63597,1,0,0:0:0:70:LR_Drum Rpd vFast.wav
448,192,63597,128,0,64497:0:0:0:70:CrashL.wav
64,192,63897,1,8,0:0:0:0:
192,192,64047,1,0,0:0:0:0:
320,192,64197,1,0,0:0:0:70:LR_Drum Rpd vFast.wav
64,192,64347,1,0,0:0:0:0:
192,192,64497,1,0,0:0:0:70:LR_Drum Rpd x2.wav
320,192,64497,1,0,0:0:0:70:CrashR.wav
192,192,64797,1,8,0:0:0:0:
448,192,64797,1,4,0:0:0:0:
64,192,65097,1,8,0:0:0:0:
320,192,65097,1,0,0:0:0:0:
320,192,65397,128,2,65997:0:0:0:0:
448,192,65397,1,4,0:0:0:0:
192,192,65697,1,8,0:0:0:0:
64,192,65997,1,0,0:0:0:70:LR_Drum Rpd vFast.wav
448,192,65997,128,0,66297:0:0:0:0:
64,192,66297,1,0,0:0:0:70:LR_Drum Rpd x2.wav
320,192,66297,128,0,66897:0:0:0:0:
192,192,66597,1,8,0:0:0:0:
64,192,66897,128,8,67197:0:0:0:0:
192,192,67197,128,0,67797:0:0:0:70:LR_Drum Rpd vFast.wav
448,192,67197,1,0,0:0:0:0:
320,192,67497,1,8,0:0:0:0:
448,192,67797,128,0,68097:0:0:0:70:LR_Drum Rpd vFast.wav
64,192,68097,1,0,0:0:0:70:LR_Drum Rpd x2.wav
320,192,68097,128,0,68397:0:0:0:0:
192,192,68397,128,8,68697:0:0:0:0:
448,192,68397,1,0,0:0:0:0:
64,192,68697,128,8,68997:0:0:0:0:
320,192,68697,1,0,0:0:0:0:
320,192,68997,128,0,69297:0:0:0:70:LR_Drum Rpd vFast.wav
448,192,68997,1,0,0:0:0:70:CrashL.wav
64,192,69297,128,8,69597:0:0:0:0:
320,192,69597,128,0,69897:0:0:0:70:LR_Drum Rpd vFast.wav
64,192,69897,1,0,0:0:0:70:LR_Drum Rpd x2.wav
192,192,69897,128,0,70197:0:0:0:0:
448,192,70197,128,8,70497:0:0:0:0:
192,192,70497,128,8,70797:0:0:0:0:
64,192,70797,128,4,71397:0:0:0:0:
320,192,70797,1,0,0:0:0:70:LR_Drum Rpd vFast.wav
448,192,71097,1,8,0:0:0:0:
192,192,71397,128,0,71697:0:0:0:70:LR_Drum Rpd vFast.wav
320,192,71397,1,0,0:0:0:0:
64,192,71697,1,0,0:0:0:70:LR_Drum Rpd x2.wav
448,192,71697,128,0,72297:0:0:0:70:CrashL.wav
192,192,71997,1,8,0:0:0:0:
64,192,72297,1,8,0:0:0:0:
320,192,72297,128,0,72597:0:0:0:0:
192,192,72597,128,2,73197:0:0:0:0:
448,192,72597,1,4,0:0:0:0:
320,192,72897,1,8,0:0:0:0:
64,192,73197,1,0,0:0:0:70:LR_Drum Rpd vFast.wav
448,192,73197,128,0,73497:0:0:0:0:
64,192,73497,1,0,0:0:0:70:LR_Drum Rpd x2.wav
192,192,73497,128,0,74097:0:0:0:0:
448,192,73797,1,8,0:0:0:0:
64,192,74097,128,8,74397:0:0:0:0:
320,192,74397,128,0,74997:0:0:0:70:LR_Drum Rpd vFast.wav
448,192,74397,1,0,0:0:0:0:
192,192,74697,1,8,0:0:0:0:
448,192,74997,128,0,75297:0:0:0:70:LR_Drum Rpd vFast.wav
64,192,75297,1,0,0:0:0:70:LR_Drum Rpd x2.wav
320,192,75297,128,0,75597:0:0:0:0:
192,192,75597,128,8,75897:0:0:0:0:
448,192,75597,1,0,0:0:0:0:
64,192,75897,128,8,76197:0:0:0:0:
320,192,75897,1,0,0:0:0:0:
192,192,76197,1,0,0:0:0:70:LR_Drum Rpd vFast.wav
448,192,76197,128,0,76797:0:0:0:70:CrashL.wav
64,192,76497,1,8,0:0:0:0:
192,192,76797,128,0,77097:0:0:0:70:LR_Drum Rpd vFast.wav
320,192,76797,1,0,0:0:0:0:
64,192,77097,128,0,77397:0:0:0:70:LR_Drum Rpd x2.wav
448,192,77097,1,0,0:0:0:0:
192,192,77397,128,8,77697:0:0:0:0:
320,192,77697,128,8,77997:0:0:0:0:
192,192,77997,1,0,0:0:0:70:LR_Drum Rpd vFast.wav
448,192,77997,128,0,78597:0:0:0:70:CrashL.wav
320,192,78297,1,8,0:0:0:0:
64,192,78447,1,0,0:0:0:0:
192,192,78597,1,0,0:0:0:70:LR_Drum Rpd vFast.wav
320,192,78747,1,0,0:0:0:0:
64,192,78897,128,0,79197:0:0:0:70:LR_Drum Rpd x2.wav
448,192,78897,1,0,0:0:0:70:CrashR.wav
192,192,79197,128,8,79497:0:0:0:0:
320,192,79197,1,4,0:0:0:0:
64,192,79497,1,8,0:0:0:0:
448,192,79497,128,0,79797:0:0:0:0:
64,192,79797,1,2,0:0:0:0:
192,192,79797,128,4,80397:0:0:0:0:
320,192,80097,1,8,0:0:0:0:
64,192,80397,1,0,0:0:0:70:LR_Drum Rpd vFast.wav
448,192,80397,128,0,80697:0:0:0:0:
64,192,80697,1,0,0:0:0:70:LR_Drum Rpd x2.wav
192,192,80697,128,0,81297:0:0:0:0:
448,192,80997,1,8,0:0:0:0:
64,192,81297,128,8,81597:0:0:0:0:
320,192,81597,128,0,82197:0:0:0:70:LR_Drum Rpd vFast.wav
448,192,81597,1,0,0:0:0:0:
64,192,81897,1,8,0:0:0:0:
192,192,82197,1,0,0:0:0:70:LR_Drum Rpd vFast.wav
448,192,82197,128,0,82497:0:0:0:0:
64,192,82497,1,0,0:0:0:70:LR_Drum Rpd x2.wav
320,192,82497,128,0,82797:0:0:0:0:
192,192,82797,128,8,83097:0:0:0:0:
448,192,82797,1,0,0:0:0:0:
64,192,83097,128,8,83397:0:0:0:0:
320,192,83097,1,0,0:0:0:0:
320,192,83397,1,0,0:0:0:70:LR_Drum Rpd vFast.wav
448,192,83397,128,0,83697:0:0:0:70:CrashL.wav
64,192,83697,128,8,83997:0:0:0:0:
192,192,83697,1,0,0:0:0:0:
320,192,83997,1,0,0:0:0:70:LR_Drum Rpd vFast.wav
448,192,83997,128,0,84297:0:0:0:0:
64,192,84297,1,0,0:0:0:70:LR_Drum Rpd x2.wav
192,192,84297,128,0,84597:0:0:0:0:
320,192,84597,128,8,84897:0:0:0:0:
448,192,84597,1,0,0:0:0:0:
64,192,84897,1,8,0:0:0:0:
192,192,84897,128,0,85197:0:0:0:0:
64,192,85197,128,0,86097:0:0:0:70:LR_Drum Rpd vFast.wav
320,192,85197,1,0,0:0:0:70:CrashR.wav
448,192,85497,1,8,0:0:0:0:
320,192,85647,1,0,0:0:0:0:
192,192,85797,1,0,0:0:0:70:LR_Drum Rpd vFast.wav
192,192,86097,1,4,0:0:0:0:
320,192,86097,1,0,0:0:0:70:LR_Drum Rpd x2.wav
64,192,86397,1,8,0:0:0:0:
448,192,86397,1,0,0:0:0:0:
320,192,86697,1,0,0:0:0:0:
64,192,86997,128,2,87297:0:0:0:0:
192,192,86997,128,0,87897:0:0:0:70:CrashL.wav
320,192,87297,128,0,87597:0:0:0:0:
448,192,87597,128,0,87897:0:0:0:0:
64,192,87897,128,0,88197:0:0:0:0:
320,192,87897,128,0,88197:0:0:0:0:
192,192,88197,128,0,88497:0:0:0:0:
448,192,88497,1,0,0:0:0:0:
320,192,88647,1,0,0:0:0:0:
64,192,88797,128,2,89097:0:0:0:0:
192,192,88797,128,0,89697:0:0:0:0:
448,192,89097,128,0,89397:0:0:0:0:
320,192,89397,128,0,89697:0:0:0:0:
64,192,89697,128,0,89997:0:0:0:70:LR_Drum Rpd x2.wav
448,192,89697,128,0,89997:0:0:0:0:
192,192,89997,128,0,90297:0:0:0:0:
320,192,90297,1,0,0:0:0:0:
448,192,90447,1,0,0:0:0:0:
64,192,90597,128,2,91497:0:0:0:0:
320,192,90597,128,0,90897:0:0:0:0:
192,192,90897,128,0,91197:0:0:0:70:LR_Drum Rpd x2.wav
320,192,91197,1,0,0:0:0:0:
192,192,91497,128,2,92097:0:0:0:0:
320,192,91497,128,0,91797:0:0:0:0:
448,192,91797,1,0,0:0:0:70:LR_Drum Rpd x2.wav
64,192,92097,128,0,92397:0:0:0:0:
320,192,92097,128,0,92397:0:0:0:0:
192,192,92397,128,2,92697:0:0:0:0:
448,192,92397,128,0,93297:0:0:0:0:
320,192,92697,128,0,92997:0:0:0:70:LR_Drum Rpd x2.wav
192,192,92997,128,0,93297:0:0:0:70:LR_Drum Rpd vFast.wav
64,192,93297,128,2,94197:0:0:0:0:
320,192,93297,1,0,0:0:0:0:
320,192,93597,1,0,0:0:0:70:LR_Drum Rpd x2.wav
448,192,93747,1,0,0:0:0:0:
192,192,93897,1,0,0:0:0:70:LR_Drum Rpd vFast.wav
448,192,94047,1,0,0:0:0:0:
320,192,94197,1,2,0:0:0:0:
64,192,94497,1,0,0:0:0:70:LR_Drum Rpd vFast.wav
192,192,94497,1,0,0:0:0:0:
320,192,94647,1,0,0:0:0:0:
448,192,94797,1,0,0:0:0:70:LR_Drum Rpd x2.wav
192,192,94947,1,0,0:0:0:0:
64,192,95097,1,4,0:0:0:0:
192,192,95397,1,0,0:0:0:70:LR_Drum Rpd vFast.wav
320,192,95397,1,0,0:0:0:0:
448,192,95697,1,0,0:0:0:70:LR_Drum Rpd x2.wav
192,192,95997,1,0,0:0:0:70:LR_Drum Rpd x2.wav
448,192,95997,1,0,0:0:0:0:
64,192,96147,1,0,0:0:0:0:
320,192,96297,1,0,0:0:0:70:LR_Drum Rpd vFast.wav
192,192,96447,1,0,0:0:0:0:
448,192,96597,1,0,0:0:0:70:LR_Drum Rpd x2.wav
192,192,96897,1,0,0:0:0:70:LR_Drum Rpd x2.wav
448,192,97047,1,0,0:0:0:0:
320,192,97197,1,0,0:0:0:70:LR_Drum Rpd vFast.wav
192,192,97347,1,0,0:0:0:0:
64,192,97497,1,0,0:0:0:70:LR_Drum Rpd x2.wav
448,192,97647,1,0,0:0:0:0:
192,192,97797,128,4,98097:0:0:0:0:
320,192,97797,1,0,0:0:0:70:LR_Drum Rpd x2.wav
64,192,98097,128,0,98397:0:0:0:70:LR_Drum Rpd vFast.wav
320,192,98247,1,0,0:0:0:0:
448,192,98397,128,0,98697:0:0:0:70:LR_Drum Rpd x2.wav
192,192,98547,1,0,0:0:0:70:LR_Drum Rpd vFast.wav
320,192,98697,128,0,98997:0:0:0:70:LR_Drum Rpd x2.wav
64,192,98997,128,0,99297:0:0:0:70:LR_Drum Rpd vFast.wav
192,192,99297,128,0,99597:0:0:0:70:LR_Drum Rpd x2.wav
64,192,99597,1,0,0:0:0:70:LR_Drum Rpd x2.wav
448,192,99597,128,0,100497:0:0:0:0:
320,192,99747,1,0,0:0:0:70:LR_Drum Rpd vFast.wav
192,192,99897,1,0,0:0:0:0:
320,192,100047,1,0,0:0:0:70:LR_Drum Rpd vFast.wav
64,192,100197,1,0,0:0:0:70:LR_Drum Rpd x2.wav
64,192,100497,128,0,101397:0:0:0:70:LR_Drum Rpd x2.wav
192,192,100497,1,0,0:0:0:0:
320,192,100647,1,0,0:0:0:0:
448,192,100797,1,0,0:0:0:70:LR_Drum Rpd vFast.wav
192,192,100947,1,0,0:0:0:0:
320,192,101097,1,0,0:0:0:70:LR_Drum Rpd x2.wav
192,192,101397,1,2,0:0:0:0:
448,192,101397,1,0,0:0:0:0:
320,192,101697,1,4,0:0:0:0:
448,192,101697,1,0,0:0:0:70:LR_Drum Rpd vFast.wav
64,192,101847,1,0,0:0:0:0:
192,192,101997,1,4,0:0:0:0:
320,192,101997,1,2,0:0:0:0:
64,192,102147,1,0,0:0:0:0:
192,192,102297,1,0,0:0:0:70:LR_Drum Rpd x2.wav
448,192,102297,1,0,0:0:0:0:
64,192,102597,1,0,0:0:0:70:LR_Drum Rpd vFast.wav
320,192,102597,1,0,0:0:0:0:
448,192,102747,1,0,0:0:0:70:LR_Drum Rpd vFast.wav
64,192,102897,1,0,0:0:0:70:LR_Drum Rpd x2.wav
192,192,102897,1,0,0:0:0:0:
448,192,103047,1,0,0:0:0:70:LR_Drum Rpd x2.wav
64,192,103197,128,4,104097:0:0:0:0:
320,192,103197,1,2,0:0:0:0:
320,192,103497,1,8,0:0:0:0:
192,192,103797,1,0,0:0:0:0:
448,192,104097,128,0,104997:0:0:0:0:
64,192,104397,1,8,0:0:0:0:
192,192,104697,1,8,0:0:0:0:
320,192,104997,128,0,105897:0:0:0:0:
64,192,105297,1,8,0:0:0:0:
192,192,105597,1,0,0:0:0:0:
64,192,105897,128,0,106497:0:0:0:0:
448,192,106197,1,8,0:0:0:0:
320,192,106497,1,8,0:0:0:0:
192,192,106797,128,0,107097:0:0:0:70:CrashL.wav
448,192,106797,1,0,0:0:0:0:
64,192,107097,128,8,107397:0:0:0:0:
192,192,107397,128,0,107697:0:0:0:0:
64,192,107697,1,0,0:0:0:0:
448,192,107697,128,0,107997:0:0:0:0:
320,192,107997,128,8,108297:0:0:0:0:
448,192,108297,128,8,108597:0:0:0:0:
64,192,108597,128,0,109497:0:0:0:70:CrashR.wav
320,192,108597,1,0,0:0:0:0:
192,192,108897,1,8,0:0:0:0:
448,192,109047,1,0,0:0:0:0:
320,192,109197,1,0,0:0:0:0:
192,192,109497,128,0,109797:0:0:0:70:LR_Drum Rpd x2.wav
448,192,109497,1,0,0:0:0:0:
64,192,109797,1,0,0:0:0:70:LR_Drum Rpd vFast.wav
320,192,109797,128,0,110097:0:0:0:0:
192,192,110097,1,0,0:0:0:70:LR_Drum Rpd x2.wav
448,192,110097,128,0,110397:0:0:0:0:
64,192,110397,128,4,111297:0:0:0:0:
320,192,110397,1,2,0:0:0:0:
192,192,110697,1,8,0:0:0:0:
320,192,110997,1,8,0:0:0:0:
320,192,111297,1,8,0:0:0:0:
448,192,111297,128,0,112197:0:0:0:0:
64,192,111597,1,8,0:0:0:0:
192,192,111897,1,8,0:0:0:0:
64,192,112197,1,8,0:0:0:0:
320,192,112197,128,0,112797:0:0:0:0:
192,192,112497,1,8,0:0:0:0:
64,192,112647,1,0,0:0:0:0:
448,192,112797,1,8,0:0:0:0:
192,192,113097,1,8,0:0:0:0:
448,192,113097,1,0,0:0:0:0:
64,192,113397,1,8,0:0:0:0:
320,192,113397,1,0,0:0:0:0:
192,192,113547,1,0,0:0:0:0:
320,192,113697,1,8,0:0:0:0:
448,192,113697,1,0,0:0:0:0:
64,192,113997,128,8,114297:0:0:0:0:
192,192,113997,1,0,0:0:0:70:CrashL.wav
320,192,114297,1,8,0:0:0:0:
448,192,114297,128,0,114597:0:0:0:0:
64,192,114597,128,8,114897:0:0:0:0:
192,192,114597,1,0,0:0:0:0:
192,192,114897,128,8,115197:0:0:0:0:
448,192,114897,1,0,0:0:0:0:
64,192,115197,1,8,0:0:0:0:
320,192,115197,128,0,115497:0:0:0:0:
192,192,115497,128,8,115797:0:0:0:0:
448,192,115497,1,0,0:0:0:0:
64,192,115797,1,8,0:0:0:0:
448,192,115797,1,0,0:0:0:70:CrashR.wav
320,192,115947,1,0,0:0:0:0:
192,192,116097,1,8,0:0:0:0:
448,192,116247,1,0,0:0:0:0:
64,192,116397,1,8,0:0:0:0:
192,192,116697,1,8,0:0:0:0:
448,192,116697,1,0,0:0:0:70:CrashL.wav
64,192,116847,1,0,0:0:0:0:
320,192,116997,1,0,0:0:0:70:LR_Drum Rpd vFast.wav
192,192,117147,1,0,0:0:0:0:
448,192,117297,1,0,0:0:0:70:LR_Drum Rpd x2.wav
320,192,117447,1,0,0:0:0:0:
64,192,117597,128,2,118497:0:0:0:0:
192,192,117597,1,4,0:0:0:0:
448,192,117897,1,8,0:0:0:0:
320,192,118197,1,0,0:0:0:70:LR_Drum Rpd vFast.wav
320,192,118497,1,0,0:0:0:70:LR_Drum Rpd x2.wav
448,192,118497,128,0,119397:0:0:0:0:
64,192,118797,1,8,0:0:0:0:
192,192,119097,1,8,0:0:0:0:
64,192,119397,1,0,0:0:0:70:LR_Drum Rpd vFast.wav
320,192,119397,128,0,120297:0:0:0:0:
64,192,119697,1,8,0:0:0:0:
192,192,119847,1,0,0:0:0:0:
448,192,119997,1,0,0:0:0:70:LR_Drum Rpd vFast.wav
64,192,120297,1,0,0:0:0:70:LR_Drum Rpd x2.wav
192,192,120297,128,0,120597:0:0:0:0:
320,192,120597,1,8,0:0:0:0:
448,192,120597,1,0,0:0:0:0:
192,192,120897,1,8,0:0:0:0:
64,192,121197,128,0,121497:0:0:0:70:LR_Drum Rpd vFast.wav
448,192,121197,1,0,0:0:0:70:CrashL.wav
192,192,121497,1,8,0:0:0:0:
320,192,121497,128,0,121797:0:0:0:0:
64,192,121797,128,0,122097:0:0:0:70:LR_Drum Rpd vFast.wav
448,192,121797,1,0,0:0:0:0:
320,192,122097,1,0,0:0:0:70:LR_Drum Rpd x2.wav
448,192,122097,128,0,122397:0:0:0:0:
64,192,122397,1,8,0:0:0:0:
192,192,122397,128,0,122697:0:0:0:0:
320,192,122697,1,8,0:0:0:0:
448,192,122697,128,0,122997:0:0:0:0:
64,192,122997,128,0,123897:0:0:0:70:LR_Drum Rpd vFast.wav
320,192,122997,1,0,0:0:0:70:CrashL.wav
192,192,123297,1,8,0:0:0:0:
448,192,123447,1,0,0:0:0:0:
320,192,123597,1,0,0:0:0:70:LR_Drum Rpd vFast.wav
192,192,123897,128,0,124197:0:0:0:70:LR_Drum Rpd x2.wav
448,192,123897,1,0,0:0:0:70:CrashR.wav
64,192,124197,1,8,0:0:0:0:
320,192,124197,128,4,124497:0:0:0:0:
192,192,124497,1,8,0:0:0:0:
448,192,124497,128,0,124797:0:0:0:0:
64,192,124797,128,2,125697:0:0:0:0:
320,192,124797,1,4,0:0:0:0:
192,192,125097,1,8,0:0:0:0:
320,192,125397,1,0,0:0:0:70:LR_Drum Rpd vFast.wav
320,192,125697,1,0,0:0:0:70:LR_Drum Rpd x2.wav
448,192,125697,128,0,126597:0:0:0:0:
64,192,125997,1,8,0:0:0:0:
192,192,126297,1,8,0:0:0:0:
64,192,126597,1,0,0:0:0:70:LR_Drum Rpd vFast.wav
320,192,126597,128,0,127197:0:0:0:0:
192,192,126897,1,8,0:0:0:0:
64,192,127047,1,0,0:0:0:0:
448,192,127197,1,0,0:0:0:70:LR_Drum Rpd vFast.wav
64,192,127497,1,0,0:0:0:70:LR_Drum Rpd x2.wav
320,192,127497,1,0,0:0:0:0:
64,192,127797,1,8,0:0:0:0:
192,192,127797,1,0,0:0:0:0:
320,192,127947,1,0,0:0:0:0:
192,192,128097,1,8,0:0:0:0:
448,192,128097,1,0,0:0:0:0:
64,192,128397,128,4,128697:0:0:0:0:
320,192,128397,1,0,0:0:0:70:LR_Drum Rpd vFast.wav
192,192,128697,128,8,128997:0:0:0:0:
448,192,128697,1,0,0:0:0:0:
320,192,128847,1,0,0:0:0:0:
64,192,128997,128,0,129297:0:0:0:70:LR_Drum Rpd vFast.wav
448,192,128997,1,0,0:0:0:0:
192,192,129297,1,0,0:0:0:70:LR_Drum Rpd x2.wav
448,192,129297,128,0,129597:0:0:0:0:
64,192,129597,1,8,0:0:0:0:
320,192,129597,128,0,129897:0:0:0:0:
192,192,129747,1,0,0:0:0:0:
64,192,129897,1,8,0:0:0:0:
448,192,129897,128,0,130197:0:0:0:0:
64,192,130197,128,4,131097:0:0:0:0:
320,192,130197,1,0,0:0:0:70:LR_Drum Rpd vFast.wav
192,192,130497,1,8,0:0:0:0:
320,192,130647,1,0,0:0:0:0:
448,192,130797,1,0,0:0:0:70:LR_Drum Rpd vFast.wav
192,192,131097,1,0,0:0:0:70:LR_Drum Rpd x2.wav
320,192,131097,1,0,0:0:0:70:CrashL.wav
64,192,131397,1,8,0:0:0:0:
448,192,131397,1,0,0:0:0:0:
64,192,131997,128,2,132897:0:0:0:0:
448,192,131997,1,0,0:0:0:70:LR_Chm Echo long.wav
192,192,132297,1,0,0:0:0:0:
320,192,132597,1,0,0:0:0:0:
192,192,132897,1,0,0:0:0:0:
448,192,132897,128,0,133797:0:0:0:0:
64,192,133197,1,0,0:0:0:0:
192,192,133797,1,2,0:0:0:0:
320,192,133797,128,0,134397:0:0:0:0:
64,192,134097,1,0,0:0:0:0:
192,192,134397,128,0,134697:0:0:0:0:
448,192,134397,1,0,0:0:0:0:
64,192,134697,128,0,135297:0:0:0:0:
320,192,134697,1,0,0:0:0:0:
448,192,134997,1,0,0:0:0:0:
192,192,135297,1,0,0:0:0:0:
64,192,135597,1,2,0:0:0:0:
320,192,135597,128,0,135897:0:0:0:0:
64,192,135897,128,0,136197:0:0:0:0:
320,192,136197,128,0,136497:0:0:0:0:
192,192,136497,128,0,136797:0:0:0:0:
448,192,136497,1,0,0:0:0:0:
448,192,136797,128,0,137097:0:0:0:0:
192,192,137097,128,0,137397:0:0:0:0:
64,192,137397,128,2,138297:0:0:0:0:
448,192,137697,1,0,0:0:0:70:LR_Drum Rpd x2.wav
320,192,137997,1,0,0:0:0:70:LR_Drum Rpd x2.wav
192,192,138297,1,2,0:0:0:0:
320,192,138597,128,2,139197:0:0:0:0:
448,192,138597,128,0,139197:0:0:0:0:
64,192,139197,128,0,140097:0:0:0:0:
192,192,139497,1,0,0:0:0:0:
320,192,139797,1,0,0:0:0:0:
192,192,140097,1,0,0:0:0:0:
448,192,140097,128,0,140997:0:0:0:0:
64,192,140397,1,0,0:0:0:0:
192,192,140997,1,0,0:0:0:0:
320,192,140997,128,0,141897:0:0:0:0:
64,192,141297,1,0,0:0:0:0:
448,192,141597,1,0,0:0:0:0:
64,192,141897,128,0,142197:0:0:0:0:
192,192,141897,1,0,0:0:0:0:
448,192,142197,1,0,0:0:0:0:
64,192,142497,1,0,0:0:0:0:
192,192,142497,128,0,142797:0:0:0:0:
320,192,142797,128,0,143697:0:0:0:0:
448,192,142797,1,0,0:0:0:0:
64,192,143097,1,0,0:0:0:0:
192,192,143397,1,0,0:0:0:0:
192,192,143697,1,0,0:0:0:0:
448,192,143697,128,0,144597:0:0:0:0:
64,192,143997,1,0,0:0:0:0:
320,192,144297,1,0,0:0:0:0:
64,192,144597,128,0,147297:0:0:0:0:
320,192,144597,128,0,144897:0:0:0:0:
448,192,144897,128,0,145197:0:0:0:0:
320,192,145197,128,0,145497:0:0:0:0:
192,192,145497,128,0,147297:0:0:0:0:
