osu file format v14

[General]
AudioFilename: audio.mp3
AudioLeadIn: 0
PreviewTime: 25640
Countdown: 1
SampleSet: Normal
StackLeniency: 0.7
Mode: 1
LetterboxInBreaks: 0
WidescreenStoryboard: 0

[Editor]
DistanceSpacing: 0.8
BeatDivisor: 6
GridSize: 32
TimelineZoom: 2.999999

[Metadata]
Title:PandorA
TitleUnicode:PandorA
Artist:M2U
ArtistUnicode:M2U
Creator:Skull Kid
Version:Blossom
Source:하이파이브
Tags:High5 symphonic dubstep
BeatmapID:1954723
BeatmapSetID:935627

[Difficulty]
HPDrainRate:5
CircleSize:4
OverallDifficulty:6.5
ApproachRate:9
SliderMultiplier:1.4
SliderTickRate:1

[Events]
//Background and Video events
0,0,"BG.jpg",0,99
//Break Periods
//Storyboard Layer 0 (Background)
//Storyboard Layer 1 (Fail)
//Storyboard Layer 2 (Pass)
//Storyboard Layer 3 (Foreground)
//Storyboard Sound Samples

[TimingPoints]
1640,375,4,1,0,70,1,0
1640,-90.9090909090909,4,1,0,70,0,0
12796,-89.2857142857143,4,1,0,70,0,0
12890,-87.719298245614,4,1,0,70,0,0
12983,-86.2068965517241,4,1,0,70,0,0
13077,-84.7457627118644,4,1,0,70,0,0
13171,-83.3333333333333,4,1,0,70,0,0
13265,-81.9672131147541,4,1,0,70,0,0
13452,-100,4,1,0,50,0,0
22546,-83.3333333333333,4,1,0,70,0,0
22827,-90.9090909090909,4,1,0,70,0,0
22921,-91.743119266055,4,1,0,70,0,0
23015,-92.5925925925926,4,1,0,70,0,0
23202,-93.4579439252336,4,1,0,70,0,0
23296,-94.3396226415094,4,1,0,70,0,0
23390,-95.2380952380952,4,1,0,70,0,0
23483,-96.1538461538461,4,1,0,70,0,0
23577,-97.0873786407767,4,1,0,70,0,0
23671,-98.0392156862745,4,1,0,70,0,0
23765,-99.009900990099,4,1,0,70,0,0
23858,-100,4,1,0,70,0,0
23952,-101.010101010101,4,1,0,70,0,0
24046,-102.040816326531,4,1,0,70,0,0
24140,-83.3333333333333,4,1,0,70,0,0
24421,-90.9090909090909,4,1,0,70,0,0
24515,-92.5925925925926,4,1,0,70,0,0
24702,-94.3396226415094,4,1,0,70,0,0
24890,-96.1538461538461,4,1,0,70,0,0
25077,-98.0392156862745,4,1,0,70,0,0
25171,-100,4,1,0,70,0,0
25265,-102.040816326531,4,1,0,70,0,0
25452,-104.166666666667,4,1,0,70,0,0
25640,-90.9090909090909,4,1,0,60,0,0
25921,-91.743119266055,4,1,0,60,0,0
26015,-92.5925925925926,4,1,0,60,0,0
26108,-93.4579439252336,4,1,0,60,0,0
26202,-94.3396226415094,4,1,0,60,0,0
26296,-95.2380952380952,4,1,0,60,0,0
26390,-96.1538461538461,4,1,0,60,0,0
26452,-97.0873786407767,4,1,0,60,0,0
26515,-98.0392156862745,4,1,0,60,0,0
26577,-99.009900990099,4,1,0,60,0,0
26765,-100,4,1,0,60,0,0
26952,-101.010101010101,4,1,0,60,0,0
27140,-100,4,1,0,60,0,0
27327,-99.009900990099,4,1,0,60,0,0
27515,-98.0392156862745,4,1,0,60,0,0
27702,-97.0873786407767,4,1,0,60,0,0
27765,-96.4692263168049,4,1,0,60,0,0
27827,-95.8588957055215,4,1,0,60,0,0
27890,-95.2380952380952,4,1,0,60,0,0
28077,-94.3396226415094,4,1,0,60,0,0
28265,-93.4579439252336,4,1,0,60,0,0
28452,-92.1658986175115,4,1,0,60,0,0
28640,-90.9090909090909,4,1,0,60,0,0
29015,-91.743119266055,4,1,0,60,0,0
29296,-92.5925925925926,4,1,0,60,0,0
29390,-93.4579439252336,4,1,0,60,0,0
29577,-94.7867298578199,4,1,0,60,0,0
29765,-96.1538461538461,4,1,0,60,0,0
29858,-97.0873786407767,4,1,0,60,0,0
29952,-98.0392156862745,4,1,0,60,0,0
30046,-99.009900990099,4,1,0,60,0,0
30140,-100,4,1,0,60,0,0
30327,-99.009900990099,4,1,0,60,0,0
30421,-98.0392156862745,4,1,0,60,0,0
30515,-97.0873786407767,4,1,0,60,0,0
30608,-96.1538461538461,4,1,0,60,0,0
30702,-95.2380952380952,4,1,0,60,0,0
30796,-94.3396226415094,4,1,0,60,0,0
30843,-93.8967136150235,4,1,0,60,0,0
30890,-93.4579439252336,4,1,0,60,0,0
30983,-93.0232558139535,4,1,0,60,0,0
31077,-92.5925925925926,4,1,0,60,0,0
31171,-92.1658986175115,4,1,0,60,0,0
31265,-91.743119266055,4,1,0,60,0,0
31452,-91.324200913242,4,1,0,60,0,0
31640,-90.9090909090909,4,1,0,60,0,0
31921,-91.743119266055,4,1,0,60,0,0
32015,-92.5925925925926,4,1,0,60,0,0
32108,-93.4579439252336,4,1,0,60,0,0
32202,-94.3396226415094,4,1,0,60,0,0
32296,-95.2380952380952,4,1,0,60,0,0
32390,-96.1538461538461,4,1,0,60,0,0
32452,-97.0873786407767,4,1,0,60,0,0
32515,-98.0392156862745,4,1,0,60,0,0
32577,-99.009900990099,4,1,0,60,0,0
32765,-100,4,1,0,60,0,0
32952,-101.010101010101,4,1,0,60,0,0
33140,-100,4,1,0,60,0,0
33327,-99.009900990099,4,1,0,60,0,0
33515,-98.0392156862745,4,1,0,60,0,0
33702,-97.0873786407767,4,1,0,60,0,0
33765,-96.4692263168049,4,1,0,60,0,0
33827,-95.8588957055215,4,1,0,60,0,0
33890,-95.2380952380952,4,1,0,60,0,0
34077,-94.3396226415094,4,1,0,60,0,0
34265,-93.4579439252336,4,1,0,60,0,0
34452,-92.1658986175115,4,1,0,60,0,0
34640,-90.9090909090909,4,1,0,60,0,0
34827,-91.743119266055,4,1,0,60,0,0
35015,-92.5925925925926,4,1,0,60,0,0
35202,-93.4579439252336,4,1,0,60,0,0
35296,-94.3396226415094,4,1,0,60,0,0
35390,-95.2380952380952,4,1,0,60,0,0
35577,-96.1538461538461,4,1,0,60,0,0
35765,-97.0873786407767,4,1,0,60,0,0
35858,-98.0392156862745,4,1,0,70,0,0
35952,-99.009900990099,4,1,0,70,0,0
36046,-100,4,1,0,70,0,0
36140,-83.3333333333333,4,1,0,70,0,0
36327,-90.9090909090909,4,1,0,70,0,0
36702,-83.3333333333333,4,1,0,70,0,0
36889,-90.9090909090909,4,1,0,70,0,0
37265,-83.3333333333333,4,1,0,70,0,0
37452,-90.9090909090909,4,1,0,70,0,0
37827,-83.3333333333333,4,1,0,70,0,0
38014,-90.9090909090909,4,1,0,70,0,0
38202,-90.0900900900901,4,1,0,70,0,0
38296,-89.2857142857143,4,1,0,70,0,0
38390,-88.4955752212389,4,1,0,70,0,0
38483,-87.719298245614,4,1,0,70,0,0
38577,-86.9565217391304,4,1,0,70,0,0
38671,-86.2068965517241,4,1,0,70,0,0
38765,-85.4700854700855,4,1,0,70,0,0
38952,-84.3881856540084,4,1,0,70,0,0
39140,-83.3333333333333,4,1,0,70,0,0
39327,-100,4,1,0,50,0,0
44390,-99.009900990099,4,1,0,50,0,0
44483,-98.5221674876847,4,1,0,50,0,0
44577,-98.0392156862745,4,1,0,50,0,0
44671,-97.5609756097561,4,1,0,50,0,0
44765,-97.0873786407767,4,1,0,50,0,0
44858,-96.6183574879227,4,1,0,50,0,0
44952,-96.1538461538461,4,1,0,50,0,0
45046,-95.6937799043062,4,1,0,50,0,0
45093,-95.2380952380952,4,1,0,55,0,0
48046,-95.2380952380952,4,1,0,60,0,0
49546,-83.3333333333333,4,1,0,70,0,0
49921,-90.9090909090909,4,1,0,70,0,0
50202,-83.3333333333333,4,1,0,70,0,0
50577,-90.9090909090909,4,1,0,70,0,0
52640,-83.3333333333333,4,1,0,70,0,0
52921,-90.9090909090909,4,1,0,70,0,0
55077,-50,4,1,0,100,0,0
55640,-58.8235294117647,4,1,0,80,0,1
55702,-60.6060606060606,4,1,0,80,0,1
55765,-62.5,4,1,0,80,0,1
55827,-64.5161290322581,4,1,0,80,0,1
55921,-66.6666666666667,4,1,0,80,0,1
56015,-68.9655172413793,4,1,0,80,0,1
56077,-71.4285714285714,4,1,0,80,0,1
56140,-74.0740740740741,4,1,0,80,0,1
56202,-76.9230769230769,4,1,0,80,0,1
56390,-75.7575757575758,4,1,0,80,0,1
56483,-74.6268656716418,4,1,0,80,0,1
56577,-73.5294117647059,4,1,0,80,0,1
56624,-76.3358778625954,4,1,0,80,0,1
56765,-72.463768115942,4,1,0,80,0,1
56811,-75.187969924812,4,1,0,80,0,1
56952,-71.4285714285714,4,1,0,80,0,1
56999,-74.0740740740741,4,1,0,80,0,1
57140,-70.4225352112676,4,1,0,80,0,1
57186,-72.992700729927,4,1,0,80,0,1
57327,-69.4444444444444,4,1,0,80,0,1
57374,-71.9424460431655,4,1,0,80,0,1
57515,-68.4931506849315,4,1,0,80,0,1
57608,-67.5675675675676,4,1,0,80,0,1
57702,-66.6666666666667,4,1,0,80,0,1
57749,-68.9655172413793,4,1,0,80,0,1
57890,-65.7894736842105,4,1,0,80,0,1
57936,-68.0272108843537,4,1,0,80,0,1
58077,-68.9655172413793,4,1,0,80,0,1
58171,-69.9300699300699,4,1,0,80,0,1
58265,-70.9219858156028,4,1,0,80,0,1
58358,-71.9424460431655,4,1,0,80,0,1
58452,-72.992700729927,4,1,0,80,0,1
58546,-74.0740740740741,4,1,0,80,0,1
58640,-58.8235294117647,4,1,0,80,0,1
58702,-60.6060606060606,4,1,0,80,0,1
58765,-62.5,4,1,0,80,0,1
58827,-64.5161290322581,4,1,0,80,0,1
58921,-66.6666666666667,4,1,0,80,0,1
59015,-68.9655172413793,4,1,0,80,0,1
59077,-71.4285714285714,4,1,0,80,0,1
59140,-74.0740740740741,4,1,0,80,0,1
59202,-76.9230769230769,4,1,0,80,0,1
59390,-75.7575757575758,4,1,0,80,0,1
59483,-74.6268656716418,4,1,0,80,0,1
59577,-73.5294117647059,4,1,0,80,0,1
59624,-76.3358778625954,4,1,0,80,0,1
59765,-72.463768115942,4,1,0,80,0,1
59811,-75.187969924812,4,1,0,80,0,1
59952,-71.4285714285714,4,1,0,80,0,1
60046,-70.4225352112676,4,1,0,80,0,1
60140,-69.4444444444444,4,1,0,80,0,1
60233,-68.4931506849315,4,1,0,80,0,1
60327,-67.5675675675676,4,1,0,80,0,1
60421,-66.6666666666667,4,1,0,80,0,1
60515,-65.7894736842105,4,1,0,80,0,1
60608,-64.9350649350649,4,1,0,80,0,1
60702,-64.1025641025641,4,1,0,80,0,1
60796,-63.2911392405063,4,1,0,80,0,1
60890,-62.5,4,1,0,80,0,1
60983,-64.5161290322581,4,1,0,80,0,1
61077,-66.6666666666667,4,1,0,80,0,1
61171,-68.9655172413793,4,1,0,80,0,1
61265,-71.4285714285714,4,1,0,80,0,1
61452,-74.0740740740741,4,1,0,80,0,1
61640,-58.8235294117647,4,1,0,80,0,1
61702,-60.6060606060606,4,1,0,80,0,1
61765,-62.5,4,1,0,80,0,1
61827,-64.5161290322581,4,1,0,80,0,1
61921,-66.6666666666667,4,1,0,80,0,1
62015,-68.9655172413793,4,1,0,80,0,1
62061,-71.4285714285714,4,1,0,80,0,1
62202,-74.0740740740741,4,1,0,80,0,1
62249,-76.9230769230769,4,1,0,80,0,1
62390,-75.7575757575758,4,1,0,80,0,1
62483,-74.6268656716418,4,1,0,80,0,1
62577,-73.5294117647059,4,1,0,80,0,1
62624,-76.3358778625954,4,1,0,80,0,1
62765,-75.7575757575758,4,1,0,80,0,1
62858,-76.9230769230769,4,1,0,80,0,1
62952,-78.125,4,1,0,80,0,1
63046,-79.3650793650794,4,1,0,80,0,1
63140,-71.4285714285714,4,1,0,80,0,1
63186,-74.0740740740741,4,1,0,80,0,1
63327,-75.7575757575758,4,1,0,80,0,1
63420,-76.9230769230769,4,1,0,80,0,1
63514,-78.125,4,1,0,80,0,1
63608,-79.3650793650794,4,1,0,80,0,1
63702,-71.4285714285714,4,1,0,80,0,1
63748,-74.0740740740741,4,1,0,80,0,1
63890,-75.7575757575758,4,1,0,80,0,1
63983,-76.9230769230769,4,1,0,80,0,1
64077,-78.125,4,1,0,80,0,1
64171,-79.3650793650794,4,1,0,80,0,1
64265,-80.6451612903226,4,1,0,80,0,1
64358,-81.9672131147541,4,1,0,80,0,1
64452,-83.3333333333333,4,1,0,80,0,1
64546,-84.7457627118644,4,1,0,80,0,1
64640,-58.8235294117647,4,1,0,80,0,1
64702,-60.6060606060606,4,1,0,80,0,1
64765,-62.5,4,1,0,80,0,1
64827,-64.5161290322581,4,1,0,80,0,1
64921,-65.5737704918033,4,1,0,80,0,1
65015,-66.6666666666667,4,1,0,80,0,1
65108,-67.7966101694915,4,1,0,80,0,1
65202,-68.9655172413793,4,1,0,80,0,1
65265,-71.4285714285714,4,1,0,80,0,1
65327,-74.0740740740741,4,1,0,80,0,1
65390,-76.9230769230769,4,1,0,80,0,1
65577,-75.7575757575758,4,1,0,80,0,1
65671,-74.6268656716418,4,1,0,80,0,1
65765,-73.5294117647059,4,1,0,80,0,1
65811,-76.3358778625954,4,1,0,80,0,1
65952,-72.463768115942,4,1,0,80,0,1
65999,-75.187969924812,4,1,0,80,0,1
66140,-71.4285714285714,4,1,0,80,0,1
66327,-70.4225352112676,4,1,0,80,0,1
66515,-69.4444444444444,4,1,0,80,0,1
66608,-68.4931506849315,4,1,0,80,0,1
66702,-67.5675675675676,4,1,0,80,0,1
66796,-66.6666666666667,4,1,0,80,0,1
66890,-65.7894736842105,4,1,0,80,0,1
66983,-68.0272108843537,4,1,0,80,0,1
67077,-70.4225352112676,4,1,0,80,0,1
67171,-72.992700729927,4,1,0,80,0,1
67265,-75.7575757575758,4,1,0,80,0,1
67452,-78.7401574803149,4,1,0,80,0,1
67640,-58.8235294117647,4,1,0,80,0,1
67702,-60.6060606060606,4,1,0,80,0,1
67765,-62.5,4,1,0,80,0,1
67827,-64.5161290322581,4,1,0,80,0,1
67921,-66.6666666666667,4,1,0,80,0,1
68015,-68.9655172413793,4,1,0,80,0,1
68077,-71.4285714285714,4,1,0,80,0,1
68140,-74.0740740740741,4,1,0,80,0,1
68202,-76.9230769230769,4,1,0,80,0,1
68390,-75.7575757575758,4,1,0,80,0,1
68483,-74.6268656716418,4,1,0,80,0,1
68577,-73.5294117647059,4,1,0,80,0,1
68624,-76.3358778625954,4,1,0,80,0,1
68765,-72.463768115942,4,1,0,80,0,1
68811,-75.187969924812,4,1,0,80,0,1
68952,-71.4285714285714,4,1,0,80,0,1
68999,-74.0740740740741,4,1,0,80,0,1
69140,-70.4225352112676,4,1,0,80,0,1
69186,-72.992700729927,4,1,0,80,0,1
69327,-69.4444444444444,4,1,0,80,0,1
69374,-71.9424460431655,4,1,0,80,0,1
69515,-68.4931506849315,4,1,0,80,0,1
69608,-67.5675675675676,4,1,0,80,0,1
69702,-66.6666666666667,4,1,0,80,0,1
69749,-68.9655172413793,4,1,0,80,0,1
69890,-65.7894736842105,4,1,0,80,0,1
69936,-68.0272108843537,4,1,0,80,0,1
70077,-68.9655172413793,4,1,0,80,0,1
70171,-69.9300699300699,4,1,0,80,0,1
70265,-70.9219858156028,4,1,0,80,0,1
70358,-71.9424460431655,4,1,0,80,0,1
70452,-72.992700729927,4,1,0,80,0,1
70546,-74.0740740740741,4,1,0,80,0,1
70640,-58.8235294117647,4,1,0,80,0,1
70702,-60.6060606060606,4,1,0,80,0,1
70765,-62.5,4,1,0,80,0,1
70827,-64.5161290322581,4,1,0,80,0,1
70921,-66.6666666666667,4,1,0,80,0,1
71015,-68.9655172413793,4,1,0,80,0,1
71077,-71.4285714285714,4,1,0,80,0,1
71140,-74.0740740740741,4,1,0,80,0,1
71202,-76.9230769230769,4,1,0,80,0,1
71390,-75.7575757575758,4,1,0,80,0,1
71483,-74.6268656716418,4,1,0,80,0,1
71577,-73.5294117647059,4,1,0,80,0,1
71624,-76.3358778625954,4,1,0,80,0,1
71765,-72.463768115942,4,1,0,80,0,1
71811,-75.187969924812,4,1,0,80,0,1
71952,-71.4285714285714,4,1,0,80,0,1
72046,-70.4225352112676,4,1,0,80,0,1
72140,-69.4444444444444,4,1,0,80,0,1
72233,-68.4931506849315,4,1,0,80,0,1
72327,-67.5675675675676,4,1,0,80,0,1
72421,-66.6666666666667,4,1,0,80,0,1
72515,-65.7894736842105,4,1,0,80,0,1
72608,-64.9350649350649,4,1,0,80,0,1
72702,-64.1025641025641,4,1,0,80,0,1
72796,-63.2911392405063,4,1,0,80,0,1
72890,-62.5,4,1,0,80,0,1
72983,-64.5161290322581,4,1,0,80,0,1
73077,-66.6666666666667,4,1,0,80,0,1
73171,-68.9655172413793,4,1,0,80,0,1
73265,-71.4285714285714,4,1,0,80,0,1
73452,-74.0740740740741,4,1,0,80,0,1
73640,-58.8235294117647,4,1,0,80,0,1
73702,-60.6060606060606,4,1,0,80,0,1
73765,-62.5,4,1,0,80,0,1
73827,-64.5161290322581,4,1,0,80,0,1
73921,-66.6666666666667,4,1,0,80,0,1
74015,-68.9655172413793,4,1,0,80,0,1
74061,-71.4285714285714,4,1,0,80,0,1
74202,-74.0740740740741,4,1,0,80,0,1
74249,-76.9230769230769,4,1,0,80,0,1
74390,-75.7575757575758,4,1,0,80,0,1
74483,-74.6268656716418,4,1,0,80,0,1
74577,-73.5294117647059,4,1,0,80,0,1
74624,-76.3358778625954,4,1,0,80,0,1
74765,-75.7575757575758,4,1,0,80,0,1
74858,-76.9230769230769,4,1,0,80,0,1
74952,-78.125,4,1,0,80,0,1
75046,-79.3650793650794,4,1,0,80,0,1
75140,-71.4285714285714,4,1,0,80,0,1
75186,-74.0740740740741,4,1,0,80,0,1
75327,-75.7575757575758,4,1,0,80,0,1
75420,-76.9230769230769,4,1,0,80,0,1
75514,-78.125,4,1,0,80,0,1
75608,-79.3650793650794,4,1,0,80,0,1
75702,-71.4285714285714,4,1,0,80,0,1
75748,-74.0740740740741,4,1,0,80,0,1
75890,-75.7575757575758,4,1,0,80,0,1
75983,-76.9230769230769,4,1,0,80,0,1
76077,-78.125,4,1,0,80,0,1
76171,-79.3650793650794,4,1,0,80,0,1
76265,-80.6451612903226,4,1,0,80,0,1
76358,-81.9672131147541,4,1,0,80,0,1
76452,-83.3333333333333,4,1,0,80,0,1
76546,-84.7457627118644,4,1,0,80,0,1
76640,-58.8235294117647,4,1,0,80,0,1
76702,-60.6060606060606,4,1,0,80,0,1
76765,-62.5,4,1,0,80,0,1
76827,-64.5161290322581,4,1,0,80,0,1
76921,-65.5737704918033,4,1,0,80,0,1
77015,-66.6666666666667,4,1,0,80,0,1
77108,-67.7966101694915,4,1,0,80,0,1
77202,-68.9655172413793,4,1,0,80,0,1
77265,-71.4285714285714,4,1,0,80,0,1
77327,-74.0740740740741,4,1,0,80,0,1
77390,-76.9230769230769,4,1,0,80,0,1
77577,-75.7575757575758,4,1,0,80,0,1
77671,-74.6268656716418,4,1,0,80,0,1
77765,-73.5294117647059,4,1,0,80,0,1
77811,-76.3358778625954,4,1,0,80,0,1
77952,-72.463768115942,4,1,0,80,0,1
77999,-75.187969924812,4,1,0,80,0,1
78140,-71.4285714285714,4,1,0,80,0,1
78327,-70.4225352112676,4,1,0,80,0,1
78515,-69.4444444444444,4,1,0,80,0,1
78608,-68.4931506849315,4,1,0,80,0,1
78702,-67.5675675675676,4,1,0,80,0,1
78890,-66.6666666666667,4,1,0,80,0,1
78983,-67.5675675675676,4,1,0,80,0,1
79077,-68.4931506849315,4,1,0,80,0,1
79171,-70.4225352112676,4,1,0,80,0,1
79265,-62.5,4,1,0,80,0,0
79546,-100,4,1,0,50,0,0
88546,-83.3333333333333,4,1,0,70,0,0
88827,-90.9090909090909,4,1,0,70,0,0
88921,-91.743119266055,4,1,0,70,0,0
89015,-92.5925925925926,4,1,0,70,0,0
89202,-93.4579439252336,4,1,0,70,0,0
89296,-94.3396226415094,4,1,0,70,0,0
89390,-95.2380952380952,4,1,0,70,0,0
89483,-96.1538461538461,4,1,0,70,0,0
89577,-97.0873786407767,4,1,0,70,0,0
89671,-98.0392156862745,4,1,0,70,0,0
89765,-99.009900990099,4,1,0,70,0,0
89858,-100,4,1,0,70,0,0
89952,-101.010101010101,4,1,0,70,0,0
90046,-102.040816326531,4,1,0,70,0,0
90140,-83.3333333333333,4,1,0,70,0,0
90421,-90.9090909090909,4,1,0,70,0,0
90515,-92.5925925925926,4,1,0,70,0,0
90702,-94.3396226415094,4,1,0,70,0,0
90890,-96.1538461538461,4,1,0,70,0,0
91077,-98.0392156862745,4,1,0,70,0,0
91171,-100,4,1,0,70,0,0
91265,-102.040816326531,4,1,0,70,0,0
91452,-104.166666666667,4,1,0,70,0,0
91640,-90.9090909090909,4,1,0,60,0,0
91921,-91.743119266055,4,1,0,60,0,0
92015,-92.5925925925926,4,1,0,60,0,0
92108,-93.4579439252336,4,1,0,60,0,0
92202,-94.3396226415094,4,1,0,60,0,0
92296,-95.2380952380952,4,1,0,60,0,0
92390,-96.1538461538461,4,1,0,60,0,0
92452,-97.0873786407767,4,1,0,60,0,0
92515,-98.0392156862745,4,1,0,60,0,0
92577,-99.009900990099,4,1,0,60,0,0
92765,-100,4,1,0,60,0,0
92952,-101.010101010101,4,1,0,60,0,0
93140,-100,4,1,0,60,0,0
93327,-99.009900990099,4,1,0,60,0,0
93515,-98.0392156862745,4,1,0,60,0,0
93702,-97.0873786407767,4,1,0,60,0,0
93765,-96.4692263168049,4,1,0,60,0,0
93827,-95.8588957055215,4,1,0,60,0,0
93890,-95.2380952380952,4,1,0,60,0,0
94077,-94.3396226415094,4,1,0,60,0,0
94265,-93.4579439252336,4,1,0,60,0,0
94452,-92.1658986175115,4,1,0,60,0,0
94640,-90.9090909090909,4,1,0,60,0,0
95015,-91.743119266055,4,1,0,60,0,0
95296,-92.5925925925926,4,1,0,60,0,0
95390,-93.4579439252336,4,1,0,60,0,0
95577,-94.7867298578199,4,1,0,60,0,0
95765,-96.1538461538461,4,1,0,60,0,0
95858,-97.0873786407767,4,1,0,60,0,0
95952,-98.0392156862745,4,1,0,60,0,0
96046,-99.009900990099,4,1,0,60,0,0
96140,-100,4,1,0,60,0,0
96327,-99.009900990099,4,1,0,60,0,0
96421,-98.0392156862745,4,1,0,60,0,0
96515,-97.0873786407767,4,1,0,60,0,0
96608,-96.1538461538461,4,1,0,60,0,0
96702,-95.2380952380952,4,1,0,60,0,0
96796,-94.3396226415094,4,1,0,60,0,0
96843,-93.8967136150235,4,1,0,60,0,0
96890,-93.4579439252336,4,1,0,60,0,0
96983,-93.0232558139535,4,1,0,60,0,0
97077,-92.5925925925926,4,1,0,60,0,0
97171,-92.1658986175115,4,1,0,60,0,0
97265,-91.743119266055,4,1,0,60,0,0
97452,-91.324200913242,4,1,0,60,0,0
97640,-90.9090909090909,4,1,0,60,0,0
97921,-91.743119266055,4,1,0,60,0,0
98015,-92.5925925925926,4,1,0,60,0,0
98108,-93.4579439252336,4,1,0,60,0,0
98202,-94.3396226415094,4,1,0,60,0,0
98296,-95.2380952380952,4,1,0,60,0,0
98390,-96.1538461538461,4,1,0,60,0,0
98452,-97.0873786407767,4,1,0,60,0,0
98515,-98.0392156862745,4,1,0,60,0,0
98577,-99.009900990099,4,1,0,60,0,0
98765,-100,4,1,0,60,0,0
98952,-101.010101010101,4,1,0,60,0,0
99140,-100,4,1,0,60,0,0
99327,-99.009900990099,4,1,0,60,0,0
99515,-98.0392156862745,4,1,0,60,0,0
99702,-97.0873786407767,4,1,0,60,0,0
99765,-96.4692263168049,4,1,0,60,0,0
99827,-95.8588957055215,4,1,0,60,0,0
99890,-95.2380952380952,4,1,0,60,0,0
100077,-94.3396226415094,4,1,0,60,0,0
100265,-93.4579439252336,4,1,0,60,0,0
100452,-92.1658986175115,4,1,0,60,0,0
100640,-90.9090909090909,4,1,0,60,0,0
100827,-91.743119266055,4,1,0,60,0,0
101015,-92.5925925925926,4,1,0,60,0,0
101202,-93.4579439252336,4,1,0,60,0,0
101296,-94.3396226415094,4,1,0,60,0,0
101390,-95.2380952380952,4,1,0,60,0,0
101577,-96.1538461538461,4,1,0,60,0,0
101765,-97.0873786407767,4,1,0,60,0,0
101858,-98.0392156862745,4,1,0,70,0,0
101952,-99.009900990099,4,1,0,70,0,0
102046,-100,4,1,0,70,0,0
102140,-83.3333333333333,4,1,0,70,0,0
102327,-90.9090909090909,4,1,0,70,0,0
102702,-83.3333333333333,4,1,0,70,0,0
102889,-90.9090909090909,4,1,0,70,0,0
103265,-83.3333333333333,4,1,0,70,0,0
103452,-90.9090909090909,4,1,0,70,0,0
103827,-83.3333333333333,4,1,0,70,0,0
104014,-90.9090909090909,4,1,0,70,0,0
104202,-90.0900900900901,4,1,0,70,0,0
104296,-89.2857142857143,4,1,0,70,0,0
104390,-88.4955752212389,4,1,0,70,0,0
104483,-87.719298245614,4,1,0,70,0,0
104577,-86.9565217391304,4,1,0,70,0,0
104671,-86.2068965517241,4,1,0,70,0,0
104765,-85.4700854700855,4,1,0,70,0,0
104952,-84.3881856540084,4,1,0,70,0,0
105140,-83.3333333333333,4,1,0,70,0,0
105327,-100,4,1,0,50,0,0
110390,-99.009900990099,4,1,0,50,0,0
110483,-98.5221674876847,4,1,0,50,0,0
110577,-98.0392156862745,4,1,0,50,0,0
110671,-97.5609756097561,4,1,0,50,0,0
110765,-97.0873786407767,4,1,0,50,0,0
110858,-96.6183574879227,4,1,0,50,0,0
110952,-96.1538461538461,4,1,0,50,0,0
111046,-95.6937799043062,4,1,0,50,0,0
111093,-95.2380952380952,4,1,0,55,0,0
114046,-95.2380952380952,4,1,0,60,0,0
115452,-93.0232558139535,4,1,0,60,0,0
115546,-90.9090909090909,4,1,0,70,0,0
121640,-100,4,1,0,70,0,0

[HitObjects]
256,192,1640,5,4,0:0:0:0:
256,192,1827,1,0,0:0:0:0:
256,192,2015,1,8,0:0:0:0:
256,192,2202,1,0,0:0:0:0:
256,192,2577,1,8,0:0:0:0:
256,192,2765,1,0,0:0:0:0:
256,192,2858,1,0,0:0:0:0:
256,192,2952,1,8,0:0:0:0:
256,192,3046,1,8,0:0:0:0:
256,192,3140,1,0,0:0:0:0:
256,192,3327,1,0,0:0:0:0:
256,192,3515,1,8,0:0:0:0:
256,192,3702,1,0,0:0:0:0:
256,192,3796,1,8,0:0:0:0:
256,192,3890,1,0,0:0:0:0:
256,192,3983,1,0,0:0:0:0:
256,192,4077,1,8,0:0:0:0:
256,192,4171,1,8,0:0:0:0:
256,192,4265,1,0,0:0:0:0:
256,192,4452,1,8,0:0:0:0:
256,192,4640,1,4,0:0:0:0:
256,192,4827,1,8,0:0:0:0:
256,192,4921,1,8,0:0:0:0:
256,192,5015,1,0,0:0:0:0:
256,192,5108,1,0,0:0:0:0:
256,192,5202,1,8,0:0:0:0:
256,192,5390,1,0,0:0:0:0:
256,192,5577,1,8,0:0:0:0:
256,192,5671,1,0,0:0:0:0:
256,192,5765,1,8,0:0:0:0:
256,192,5952,1,0,0:0:0:0:
256,192,6046,1,0,0:0:0:0:
256,192,6140,1,8,0:0:0:0:
256,192,6233,1,0,0:0:0:0:
256,192,6327,1,8,0:0:0:0:
256,192,6421,1,8,0:0:0:0:
256,192,6515,1,0,0:0:0:0:
256,192,6702,1,8,0:0:0:0:
256,192,6796,1,8,0:0:0:0:
256,192,6890,1,0,0:0:0:0:
256,192,6983,1,8,0:0:0:0:
256,192,7077,1,0,0:0:0:0:
256,192,7171,1,0,0:0:0:0:
256,192,7265,1,8,0:0:0:0:
256,192,7452,1,8,0:0:0:0:
256,192,7640,1,4,0:0:0:0:
256,192,7827,1,8,0:0:0:0:
256,192,7921,1,8,0:0:0:0:
256,192,8015,1,0,0:0:0:0:
256,192,8108,1,0,0:0:0:0:
256,192,8202,1,8,0:0:0:0:
256,192,8390,1,0,0:0:0:0:
256,192,8483,1,8,0:0:0:0:
256,192,8577,1,8,0:0:0:0:
256,192,8765,1,0,0:0:0:0:
256,192,8858,1,8,0:0:0:0:
256,192,8952,1,0,0:0:0:0:
256,192,9046,1,0,0:0:0:0:
256,192,9140,1,8,0:0:0:0:
256,192,9233,1,8,0:0:0:0:
256,192,9327,1,0,0:0:0:0:
256,192,9421,1,8,0:0:0:0:
256,192,9515,1,0,0:0:0:0:
256,192,9608,1,0,0:0:0:0:
256,192,9702,1,8,0:0:0:0:
256,192,9796,1,0,0:0:0:0:
256,192,9890,1,8,0:0:0:0:
256,192,9983,1,8,0:0:0:0:
256,192,10077,1,0,0:0:0:0:
256,192,10171,1,0,0:0:0:0:
256,192,10265,1,8,0:0:0:0:
256,192,10452,1,8,0:0:0:0:
256,192,10640,1,0,0:0:0:0:
256,192,10827,1,8,0:0:0:0:
256,192,10921,1,0,0:0:0:0:
256,192,11015,1,8,0:0:0:0:
256,192,11108,1,8,0:0:0:0:
256,192,11202,1,0,0:0:0:0:
256,192,11296,1,8,0:0:0:0:
256,192,11390,1,0,0:0:0:0:
256,192,11483,1,8,0:0:0:0:
256,192,11577,1,8,0:0:0:0:
256,192,11671,1,0,0:0:0:0:
256,192,11765,1,0,0:0:0:0:
256,192,11858,1,8,0:0:0:0:
256,192,11952,1,0,0:0:0:0:
256,192,12046,1,0,0:0:0:0:
256,192,12140,1,8,0:0:0:0:
256,192,12233,1,0,0:0:0:0:
256,192,12327,1,8,0:0:0:0:
256,192,12421,1,8,0:0:0:0:
256,192,12515,1,0,0:0:0:0:
256,192,12702,1,8,0:0:0:0:
256,192,12796,1,8,0:0:0:0:
256,192,12890,1,0,0:0:0:0:
256,192,12983,1,8,0:0:0:0:
256,192,13077,1,0,0:0:0:0:
256,192,13171,1,0,0:0:0:0:
256,192,13265,1,8,0:0:0:0:
256,192,13640,1,8,0:0:0:0:
256,192,14015,1,0,0:0:0:0:
256,192,14202,1,8,0:0:0:0:
256,192,14296,1,0,0:0:0:0:
256,192,14390,1,8,0:0:0:0:
256,192,14483,1,8,0:0:0:0:
256,192,14577,1,0,0:0:0:0:
256,192,14671,1,8,0:0:0:0:
256,192,14765,1,0,0:0:0:0:
256,192,14858,1,0,0:0:0:0:
256,192,14952,1,8,0:0:0:0:
256,192,15046,1,8,0:0:0:0:
256,192,15140,1,0,0:0:0:0:
256,192,15327,1,8,0:0:0:0:
256,192,15421,1,8,0:0:0:0:
256,192,15515,1,0,0:0:0:0:
256,192,15608,1,0,0:0:0:0:
256,192,15702,1,8,0:0:0:0:
256,192,15796,1,0,0:0:0:0:
256,192,15890,1,8,0:0:0:0:
256,192,15983,1,8,0:0:0:0:
256,192,16077,1,0,0:0:0:0:
256,192,16171,1,8,0:0:0:0:
256,192,16265,1,0,0:0:0:0:
256,192,16358,1,0,0:0:0:0:
256,192,16452,1,8,0:0:0:0:
256,192,16546,1,8,0:0:0:0:
256,192,16640,1,0,0:0:0:0:
256,192,16827,1,8,0:0:0:0:
256,192,16921,1,0,0:0:0:0:
256,192,17015,1,8,0:0:0:0:
256,192,17108,1,8,0:0:0:0:
256,192,17202,1,0,0:0:0:0:
256,192,17296,1,8,0:0:0:0:
256,192,17390,1,0,0:0:0:0:
256,192,17483,1,8,0:0:0:0:
256,192,17577,1,8,0:0:0:0:
256,192,17671,1,8,0:0:0:0:
256,192,17765,1,0,0:0:0:0:
256,192,17858,1,0,0:0:0:0:
256,192,17952,1,8,0:0:0:0:
256,192,18046,1,8,0:0:0:0:
256,192,18140,1,0,0:0:0:0:
256,192,18327,1,0,0:0:0:0:
256,192,18515,1,8,0:0:0:0:
256,192,18702,1,0,0:0:0:0:
256,192,18796,1,8,0:0:0:0:
256,192,18890,1,0,0:0:0:0:
256,192,18983,1,8,0:0:0:0:
256,192,19077,1,8,0:0:0:0:
256,192,19171,1,8,0:0:0:0:
256,192,19265,1,0,0:0:0:0:
256,192,19358,1,0,0:0:0:0:
256,192,19452,1,8,0:0:0:0:
256,192,19546,1,8,0:0:0:0:
256,192,19640,1,0,0:0:0:0:
256,192,20015,1,8,0:0:0:0:
256,192,20202,1,0,0:0:0:0:
256,192,20296,1,0,0:0:0:0:
256,192,20390,1,8,0:0:0:0:
256,192,20483,1,8,0:0:0:0:
256,192,20577,1,0,0:0:0:0:
256,192,20671,1,8,0:0:0:0:
256,192,20765,1,0,0:0:0:0:
256,192,20858,1,0,0:0:0:0:
256,192,20952,1,8,0:0:0:0:
256,192,21046,1,8,0:0:0:0:
256,192,21140,1,0,0:0:0:0:
256,192,21327,1,8,0:0:0:0:
256,192,21421,1,0,0:0:0:0:
256,192,21515,1,8,0:0:0:0:
256,192,21608,1,8,0:0:0:0:
256,192,21702,1,0,0:0:0:0:
256,192,21796,1,8,0:0:0:0:
256,192,21890,1,0,0:0:0:0:
256,192,21983,1,0,0:0:0:0:
256,192,22077,1,8,0:0:0:0:
256,192,22171,1,8,0:0:0:0:
256,192,22265,1,8,0:0:0:0:
256,192,22358,1,8,0:0:0:0:
256,192,22452,1,0,0:0:0:0:
256,192,22640,1,12,0:0:0:0:
256,192,22827,1,0,0:0:0:0:
256,192,22921,1,8,0:0:0:0:
256,192,23015,1,0,0:0:0:0:
256,192,23202,1,8,0:0:0:0:
256,192,23296,1,8,0:0:0:0:
256,192,23390,1,0,0:0:0:0:
256,192,23483,1,8,0:0:0:0:
256,192,23577,1,0,0:0:0:0:
256,192,23671,1,0,0:0:0:0:
256,192,23765,1,8,0:0:0:0:
256,192,23858,1,8,0:0:0:0:
256,192,23952,1,8,0:0:0:0:
256,192,24046,1,8,0:0:0:0:
256,192,24140,1,4,0:0:0:0:
256,192,24421,1,8,0:0:0:0:
256,192,24515,1,0,0:0:0:0:
256,192,24702,1,8,0:0:0:0:
256,192,24890,1,0,0:0:0:0:
256,192,25077,1,8,0:0:0:0:
256,192,25171,1,8,0:0:0:0:
256,192,25265,1,0,0:0:0:0:
256,192,25452,1,8,0:0:0:0:
256,192,25640,1,4,0:0:0:0:
256,192,25921,1,8,0:0:0:0:
256,192,26015,1,0,0:0:0:0:
256,192,26108,1,0,0:0:0:0:
256,192,26202,1,8,0:0:0:0:
256,192,26296,1,0,0:0:0:0:
256,192,26390,1,8,0:0:0:0:
256,192,26452,1,8,0:0:0:0:
256,192,26515,1,0,0:0:0:0:
256,192,26577,1,0,0:0:0:0:
256,192,26765,1,8,0:0:0:0:
256,192,26952,1,0,0:0:0:0:
256,192,27140,1,8,0:0:0:0:
256,192,27327,1,8,0:0:0:0:
256,192,27515,1,0,0:0:0:0:
256,192,27702,1,8,0:0:0:0:
256,192,27765,1,8,0:0:0:0:
256,192,27827,1,0,0:0:0:0:
256,192,27890,1,0,0:0:0:0:
256,192,28077,1,0,0:0:0:0:
256,192,28265,1,8,0:0:0:0:
256,192,28452,1,8,0:0:0:0:
256,192,28640,1,0,0:0:0:0:
256,192,29015,1,8,0:0:0:0:
256,192,29296,1,0,0:0:0:0:
256,192,29390,1,8,0:0:0:0:
256,192,29577,1,0,0:0:0:0:
256,192,29765,1,8,0:0:0:0:
256,192,29858,1,8,0:0:0:0:
256,192,29952,1,8,0:0:0:0:
256,192,30046,1,8,0:0:0:0:
256,192,30140,1,0,0:0:0:0:
256,192,30327,1,8,0:0:0:0:
256,192,30421,1,0,0:0:0:0:
256,192,30515,1,8,0:0:0:0:
256,192,30608,1,8,0:0:0:0:
256,192,30702,1,0,0:0:0:0:
256,192,30796,1,8,0:0:0:0:
256,192,30843,1,8,0:0:0:0:
256,192,30890,1,0,0:0:0:0:
256,192,30983,1,0,0:0:0:0:
256,192,31077,1,8,0:0:0:0:
256,192,31171,1,8,0:0:0:0:
256,192,31265,1,0,0:0:0:0:
256,192,31452,1,8,0:0:0:0:
256,192,31640,1,0,0:0:0:0:
256,192,31921,1,8,0:0:0:0:
256,192,32015,1,0,0:0:0:0:
256,192,32108,1,0,0:0:0:0:
256,192,32202,1,8,0:0:0:0:
256,192,32296,1,0,0:0:0:0:
256,192,32390,1,8,0:0:0:0:
256,192,32452,1,8,0:0:0:0:
256,192,32515,1,0,0:0:0:0:
256,192,32577,1,0,0:0:0:0:
256,192,32765,1,8,0:0:0:0:
256,192,32952,1,0,0:0:0:0:
256,192,33140,1,8,0:0:0:0:
256,192,33327,1,8,0:0:0:0:
256,192,33515,1,0,0:0:0:0:
256,192,33702,1,8,0:0:0:0:
256,192,33765,1,8,0:0:0:0:
256,192,33827,1,0,0:0:0:0:
256,192,33890,1,0,0:0:0:0:
256,192,34077,1,0,0:0:0:0:
256,192,34265,1,8,0:0:0:0:
256,192,34452,1,8,0:0:0:0:
256,192,34640,1,0,0:0:0:0:
256,192,34827,1,0,0:0:0:0:
256,192,35015,1,8,0:0:0:0:
256,192,35202,1,0,0:0:0:0:
256,192,35296,1,0,0:0:0:0:
256,192,35390,1,8,0:0:0:0:
256,192,35577,1,8,0:0:0:0:
256,192,35765,1,0,0:0:0:0:
256,192,35858,1,0,0:0:0:0:
256,192,35952,1,0,0:0:0:0:
256,192,36046,1,0,0:0:0:0:
256,192,36140,1,12,0:0:0:0:
256,192,36327,1,0,0:0:0:0:
256,192,36421,1,0,0:0:0:0:
256,192,36515,1,0,0:0:0:0:
256,192,36702,1,12,0:0:0:0:
256,192,36890,1,0,0:0:0:0:
256,192,36983,1,8,0:0:0:0:
256,192,37077,1,0,0:0:0:0:
256,192,37265,1,12,0:0:0:0:
256,192,37452,1,0,0:0:0:0:
256,192,37546,1,0,0:0:0:0:
256,192,37640,1,0,0:0:0:0:
256,192,37827,1,12,0:0:0:0:
256,192,38015,1,0,0:0:0:0:
256,192,38202,1,8,0:0:0:0:
256,192,38296,1,8,0:0:0:0:
256,192,38390,1,0,0:0:0:0:
256,192,38483,1,8,0:0:0:0:
256,192,38577,1,0,0:0:0:0:
256,192,38671,1,0,0:0:0:0:
256,192,38765,1,8,0:0:0:0:
256,192,38952,1,8,0:0:0:0:
256,192,39140,1,0,0:0:0:0:
256,192,39515,1,8,0:0:0:0:
256,192,39702,1,8,0:0:0:0:
256,192,39890,1,0,0:0:0:0:
256,192,40077,1,8,0:0:0:0:
256,192,40265,1,0,0:0:0:0:
256,192,40452,1,0,0:0:0:0:
256,192,40640,1,8,0:0:0:0:
256,192,41015,1,0,0:0:0:0:
256,192,41390,1,8,0:0:0:0:
256,192,41765,1,0,0:0:0:0:
256,192,41952,1,8,0:0:0:0:
256,192,42140,1,0,0:0:0:0:
256,192,42515,1,8,0:0:0:0:
256,192,42702,1,8,0:0:0:0:
256,192,42890,1,0,0:0:0:0:
256,192,43265,1,8,0:0:0:0:
256,192,43452,1,0,0:0:0:0:
256,192,43640,1,8,0:0:0:0:
256,192,43827,1,8,0:0:0:0:
256,192,44015,1,0,0:0:0:0:
256,192,44202,1,8,0:0:0:0:
256,192,44390,1,0,0:0:0:0:
256,192,44483,1,8,0:0:0:0:
256,192,44577,1,0,0:0:0:0:
256,192,44671,1,0,0:0:0:0:
256,192,44765,1,8,0:0:0:0:
256,192,44858,1,8,0:0:0:0:
256,192,44952,1,8,0:0:0:0:
256,192,45046,1,8,0:0:0:0:
256,192,45140,1,0,0:0:0:0:
256,192,45515,1,8,0:0:0:0:
256,192,45702,1,8,0:0:0:0:
256,192,45890,1,0,0:0:0:0:
256,192,46077,1,8,0:0:0:0:
256,192,46265,1,0,0:0:0:0:
256,192,46452,1,8,0:0:0:0:
256,192,46640,1,8,0:0:0:0:
256,192,46827,1,0,0:0:0:0:
256,192,47015,1,8,0:0:0:0:
256,192,47202,1,0,0:0:0:0:
256,192,47390,1,8,0:0:0:0:
256,192,47577,1,8,0:0:0:0:
256,192,47765,1,0,0:0:0:0:
256,192,47952,1,0,0:0:0:0:
256,192,48140,1,8,0:0:0:0:
256,192,48327,1,0,0:0:0:0:
256,192,48515,1,0,0:0:0:0:
256,192,48608,1,8,0:0:0:0:
256,192,48702,1,8,0:0:0:0:
256,192,48890,1,0,0:0:0:0:
256,192,48983,1,0,0:0:0:0:
256,192,49077,1,8,0:0:0:0:
256,192,49171,1,8,0:0:0:0:
256,192,49265,1,0,0:0:0:0:
256,192,49452,1,0,0:0:0:0:
256,192,49640,1,12,0:0:0:0:
256,192,49921,1,0,0:0:0:0:
256,192,50015,1,8,0:0:0:0:
256,192,50202,1,4,0:0:0:0:
256,192,50577,1,8,0:0:0:0:
256,192,50765,1,0,0:0:0:0:
256,192,50858,1,0,0:0:0:0:
256,192,50952,1,8,0:0:0:0:
256,192,51046,1,8,0:0:0:0:
256,192,51140,1,0,0:0:0:0:
256,192,51327,1,0,0:0:0:0:
256,192,51515,1,8,0:0:0:0:
256,192,51702,1,0,0:0:0:0:
256,192,51796,1,0,0:0:0:0:
256,192,51890,1,8,0:0:0:0:
256,192,51983,1,0,0:0:0:0:
256,192,52077,1,8,0:0:0:0:
256,192,52171,1,8,0:0:0:0:
256,192,52265,1,0,0:0:0:0:
256,192,52452,1,0,0:0:0:0:
256,192,52640,1,12,0:0:0:0:
256,192,52921,1,0,0:0:0:0:
256,192,53015,1,8,0:0:0:0:
256,192,53202,1,0,0:0:0:0:
256,192,53296,1,0,0:0:0:0:
256,192,53390,1,8,0:0:0:0:
256,192,53483,1,8,0:0:0:0:
256,192,53577,1,0,0:0:0:0:
256,192,53671,1,8,0:0:0:0:
256,192,53765,1,0,0:0:0:0:
256,192,53858,1,0,0:0:0:0:
256,192,53952,1,8,0:0:0:0:
256,192,54046,1,8,0:0:0:0:
256,192,54140,1,0,0:0:0:0:
256,192,55265,1,12,0:0:0:0:
256,192,55640,1,0,0:0:0:0:
256,192,55702,1,8,0:0:0:0:
256,192,55765,1,8,0:0:0:0:
256,192,55827,1,0,0:0:0:0:
256,192,55921,1,0,0:0:0:0:
256,192,56015,1,8,0:0:0:0:
256,192,56077,1,8,0:0:0:0:
256,192,56140,1,0,0:0:0:0:
256,192,56202,1,0,0:0:0:0:
256,192,56390,1,8,0:0:0:0:
256,192,56483,1,0,0:0:0:0:
256,192,56577,1,8,0:0:0:0:
256,192,56624,1,8,0:0:0:0:
256,192,56765,1,8,0:0:0:0:
256,192,56811,1,8,0:0:0:0:
256,192,56952,1,8,0:0:0:0:
256,192,56999,1,8,0:0:0:0:
256,192,57140,1,8,0:0:0:0:
256,192,57186,1,8,0:0:0:0:
256,192,57327,1,8,0:0:0:0:
256,192,57374,1,8,0:0:0:0:
256,192,57515,1,0,0:0:0:0:
256,192,57608,1,0,0:0:0:0:
256,192,57702,1,8,0:0:0:0:
256,192,57749,1,8,0:0:0:0:
256,192,57890,1,8,0:0:0:0:
256,192,57936,1,8,0:0:0:0:
256,192,58077,1,0,0:0:0:0:
256,192,58171,1,0,0:0:0:0:
256,192,58265,1,8,0:0:0:0:
256,192,58358,1,0,0:0:0:0:
256,192,58452,1,8,0:0:0:0:
256,192,58546,1,8,0:0:0:0:
256,192,58640,1,0,0:0:0:0:
256,192,58702,1,8,0:0:0:0:
256,192,58765,1,8,0:0:0:0:
256,192,58827,1,0,0:0:0:0:
256,192,58921,1,0,0:0:0:0:
256,192,59015,1,8,0:0:0:0:
256,192,59077,1,8,0:0:0:0:
256,192,59140,1,0,0:0:0:0:
256,192,59202,1,0,0:0:0:0:
256,192,59390,1,8,0:0:0:0:
256,192,59483,1,0,0:0:0:0:
256,192,59577,1,8,0:0:0:0:
256,192,59624,1,8,0:0:0:0:
256,192,59765,1,8,0:0:0:0:
256,192,59811,1,8,0:0:0:0:
256,192,59952,1,0,0:0:0:0:
256,192,60046,1,0,0:0:0:0:
256,192,60140,1,8,0:0:0:0:
256,192,60163,1,8,0:0:0:0:
256,192,60233,1,0,0:0:0:0:
256,192,60257,1,0,0:0:0:0:
256,192,60327,1,8,0:0:0:0:
256,192,60350,1,8,0:0:0:0:
256,192,60421,1,0,0:0:0:0:
256,192,60444,1,0,0:0:0:0:
256,192,60515,1,8,0:0:0:0:
256,192,60538,1,8,0:0:0:0:
256,192,60608,1,0,0:0:0:0:
256,192,60632,1,0,0:0:0:0:
256,192,60702,1,8,0:0:0:0:
256,192,60725,1,8,0:0:0:0:
256,192,60796,1,0,0:0:0:0:
256,192,60819,1,0,0:0:0:0:
256,192,60890,1,8,0:0:0:0:
256,192,60983,1,8,0:0:0:0:
256,192,61077,1,0,0:0:0:0:
256,192,61171,1,0,0:0:0:0:
256,192,61265,1,8,0:0:0:0:
256,192,61452,1,8,0:0:0:0:
256,192,61640,1,0,0:0:0:0:
256,192,61702,1,8,0:0:0:0:
256,192,61765,1,8,0:0:0:0:
256,192,61827,1,0,0:0:0:0:
256,192,61921,1,0,0:0:0:0:
256,192,62015,1,8,0:0:0:0:
256,192,62061,1,8,0:0:0:0:
256,192,62202,1,0,0:0:0:0:
256,192,62249,1,0,0:0:0:0:
256,192,62390,1,8,0:0:0:0:
256,192,62483,1,0,0:0:0:0:
256,192,62577,1,8,0:0:0:0:
256,192,62624,1,8,0:0:0:0:
256,192,62765,1,0,0:0:0:0:
256,192,62858,1,0,0:0:0:0:
256,192,62952,1,8,0:0:0:0:
256,192,63046,1,0,0:0:0:0:
256,192,63140,1,8,0:0:0:0:
256,192,63186,1,8,0:0:0:0:
256,192,63327,1,0,0:0:0:0:
256,192,63421,1,8,0:0:0:0:
256,192,63515,1,0,0:0:0:0:
256,192,63608,1,0,0:0:0:0:
256,192,63702,1,8,0:0:0:0:
256,192,63749,1,8,0:0:0:0:
256,192,63890,1,0,0:0:0:0:
256,192,63983,1,8,0:0:0:0:
256,192,64077,1,0,0:0:0:0:
256,192,64171,1,0,0:0:0:0:
256,192,64265,1,8,0:0:0:0:
256,192,64358,1,0,0:0:0:0:
256,192,64452,1,8,0:0:0:0:
256,192,64546,1,8,0:0:0:0:
256,192,64640,1,0,0:0:0:0:
256,192,64702,1,8,0:0:0:0:
256,192,64765,1,8,0:0:0:0:
256,192,64827,1,0,0:0:0:0:
256,192,64921,1,0,0:0:0:0:
256,192,65015,1,8,0:0:0:0:
256,192,65108,1,0,0:0:0:0:
256,192,65202,1,8,0:0:0:0:
256,192,65265,1,8,0:0:0:0:
256,192,65327,1,0,0:0:0:0:
256,192,65390,1,0,0:0:0:0:
256,192,65577,1,8,0:0:0:0:
256,192,65671,1,0,0:0:0:0:
256,192,65765,1,8,0:0:0:0:
256,192,65811,1,8,0:0:0:0:
256,192,65952,1,8,0:0:0:0:
256,192,65999,1,8,0:0:0:0:
256,192,66140,1,0,0:0:0:0:
256,192,66327,1,8,0:0:0:0:
256,192,66515,1,8,0:0:0:0:
256,192,66538,1,8,0:0:0:0:
256,192,66608,1,0,0:0:0:0:
256,192,66632,1,0,0:0:0:0:
256,192,66702,1,8,0:0:0:0:
256,192,66725,1,8,0:0:0:0:
256,192,66796,1,0,0:0:0:0:
256,192,66819,1,0,0:0:0:0:
256,192,66890,1,8,0:0:0:0:
256,192,66983,1,8,0:0:0:0:
256,192,67077,1,0,0:0:0:0:
256,192,67171,1,0,0:0:0:0:
256,192,67265,1,8,0:0:0:0:
256,192,67452,1,8,0:0:0:0:
256,192,67640,1,0,0:0:0:0:
256,192,67702,1,8,0:0:0:0:
256,192,67765,1,8,0:0:0:0:
256,192,67827,1,0,0:0:0:0:
256,192,67921,1,0,0:0:0:0:
256,192,68015,1,8,0:0:0:0:
256,192,68077,1,8,0:0:0:0:
256,192,68140,1,0,0:0:0:0:
256,192,68202,1,0,0:0:0:0:
256,192,68390,1,8,0:0:0:0:
256,192,68483,1,0,0:0:0:0:
256,192,68577,1,8,0:0:0:0:
256,192,68624,1,8,0:0:0:0:
256,192,68765,1,8,0:0:0:0:
256,192,68811,1,8,0:0:0:0:
256,192,68952,1,8,0:0:0:0:
256,192,68999,1,8,0:0:0:0:
256,192,69140,1,8,0:0:0:0:
256,192,69186,1,8,0:0:0:0:
256,192,69327,1,8,0:0:0:0:
256,192,69374,1,8,0:0:0:0:
256,192,69515,1,0,0:0:0:0:
256,192,69608,1,0,0:0:0:0:
256,192,69702,1,8,0:0:0:0:
256,192,69749,1,8,0:0:0:0:
256,192,69890,1,8,0:0:0:0:
256,192,69936,1,8,0:0:0:0:
256,192,70077,1,0,0:0:0:0:
256,192,70171,1,0,0:0:0:0:
256,192,70265,1,8,0:0:0:0:
256,192,70358,1,0,0:0:0:0:
256,192,70452,1,8,0:0:0:0:
256,192,70546,1,8,0:0:0:0:
256,192,70640,1,0,0:0:0:0:
256,192,70702,1,8,0:0:0:0:
256,192,70765,1,8,0:0:0:0:
256,192,70827,1,0,0:0:0:0:
256,192,70921,1,0,0:0:0:0:
256,192,71015,1,8,0:0:0:0:
256,192,71077,1,8,0:0:0:0:
256,192,71140,1,0,0:0:0:0:
256,192,71202,1,0,0:0:0:0:
256,192,71390,1,8,0:0:0:0:
256,192,71483,1,0,0:0:0:0:
256,192,71577,1,8,0:0:0:0:
256,192,71624,1,8,0:0:0:0:
256,192,71765,1,8,0:0:0:0:
256,192,71811,1,8,0:0:0:0:
256,192,71952,1,0,0:0:0:0:
256,192,72046,1,0,0:0:0:0:
256,192,72140,1,8,0:0:0:0:
256,192,72163,1,8,0:0:0:0:
256,192,72233,1,0,0:0:0:0:
256,192,72257,1,0,0:0:0:0:
256,192,72327,1,8,0:0:0:0:
256,192,72350,1,8,0:0:0:0:
256,192,72421,1,0,0:0:0:0:
256,192,72444,1,0,0:0:0:0:
256,192,72515,1,8,0:0:0:0:
256,192,72538,1,8,0:0:0:0:
256,192,72608,1,0,0:0:0:0:
256,192,72632,1,0,0:0:0:0:
256,192,72702,1,8,0:0:0:0:
256,192,72725,1,8,0:0:0:0:
256,192,72796,1,0,0:0:0:0:
256,192,72819,1,0,0:0:0:0:
256,192,72890,1,8,0:0:0:0:
256,192,72983,1,8,0:0:0:0:
256,192,73077,1,0,0:0:0:0:
256,192,73171,1,0,0:0:0:0:
256,192,73265,1,8,0:0:0:0:
256,192,73452,1,8,0:0:0:0:
256,192,73640,1,0,0:0:0:0:
256,192,73702,1,8,0:0:0:0:
256,192,73765,1,8,0:0:0:0:
256,192,73827,1,0,0:0:0:0:
256,192,73921,1,0,0:0:0:0:
256,192,74015,1,8,0:0:0:0:
256,192,74061,1,8,0:0:0:0:
256,192,74202,1,0,0:0:0:0:
256,192,74249,1,0,0:0:0:0:
256,192,74390,1,8,0:0:0:0:
256,192,74483,1,0,0:0:0:0:
256,192,74577,1,8,0:0:0:0:
256,192,74624,1,8,0:0:0:0:
256,192,74765,1,0,0:0:0:0:
256,192,74858,1,0,0:0:0:0:
256,192,74952,1,8,0:0:0:0:
256,192,75046,1,0,0:0:0:0:
256,192,75140,1,8,0:0:0:0:
256,192,75186,1,8,0:0:0:0:
256,192,75327,1,0,0:0:0:0:
256,192,75421,1,8,0:0:0:0:
256,192,75515,1,0,0:0:0:0:
256,192,75608,1,0,0:0:0:0:
256,192,75702,1,8,0:0:0:0:
256,192,75749,1,8,0:0:0:0:
256,192,75890,1,0,0:0:0:0:
256,192,75983,1,8,0:0:0:0:
256,192,76077,1,0,0:0:0:0:
256,192,76171,1,0,0:0:0:0:
256,192,76265,1,8,0:0:0:0:
256,192,76358,1,0,0:0:0:0:
256,192,76452,1,8,0:0:0:0:
256,192,76546,1,8,0:0:0:0:
256,192,76640,1,0,0:0:0:0:
256,192,76702,1,8,0:0:0:0:
256,192,76765,1,8,0:0:0:0:
256,192,76827,1,0,0:0:0:0:
256,192,76921,1,0,0:0:0:0:
256,192,77015,1,8,0:0:0:0:
256,192,77108,1,0,0:0:0:0:
256,192,77202,1,8,0:0:0:0:
256,192,77265,1,8,0:0:0:0:
256,192,77327,1,0,0:0:0:0:
256,192,77390,1,0,0:0:0:0:
256,192,77577,1,8,0:0:0:0:
256,192,77671,1,0,0:0:0:0:
256,192,77765,1,8,0:0:0:0:
256,192,77811,1,8,0:0:0:0:
256,192,77952,1,8,0:0:0:0:
256,192,77999,1,8,0:0:0:0:
256,192,78140,1,0,0:0:0:0:
256,192,78327,1,8,0:0:0:0:
256,192,78515,1,0,0:0:0:0:
256,192,78608,1,8,0:0:0:0:
256,192,78702,1,8,0:0:0:0:
256,192,78890,1,0,0:0:0:0:
256,192,78913,1,0,0:0:0:0:
256,192,78983,1,8,0:0:0:0:
256,192,79007,1,8,0:0:0:0:
256,192,79077,1,0,0:0:0:0:
256,192,79100,1,0,0:0:0:0:
256,192,79171,1,8,0:0:0:0:
256,192,79194,1,8,0:0:0:0:
256,192,79265,1,4,0:0:0:0:
256,192,79640,1,8,0:0:0:0:
256,192,80015,1,0,0:0:0:0:
256,192,80202,1,8,0:0:0:0:
256,192,80296,1,0,0:0:0:0:
256,192,80390,1,8,0:0:0:0:
256,192,80483,1,8,0:0:0:0:
256,192,80577,1,0,0:0:0:0:
256,192,80671,1,8,0:0:0:0:
256,192,80765,1,0,0:0:0:0:
256,192,80858,1,0,0:0:0:0:
256,192,80952,1,8,0:0:0:0:
256,192,81046,1,8,0:0:0:0:
256,192,81140,1,0,0:0:0:0:
256,192,81327,1,8,0:0:0:0:
256,192,81421,1,8,0:0:0:0:
256,192,81515,1,0,0:0:0:0:
256,192,81608,1,0,0:0:0:0:
256,192,81702,1,8,0:0:0:0:
256,192,81796,1,0,0:0:0:0:
256,192,81890,1,8,0:0:0:0:
256,192,81983,1,8,0:0:0:0:
256,192,82077,1,0,0:0:0:0:
256,192,82171,1,8,0:0:0:0:
256,192,82265,1,0,0:0:0:0:
256,192,82358,1,0,0:0:0:0:
256,192,82452,1,8,0:0:0:0:
256,192,82546,1,8,0:0:0:0:
256,192,82640,1,0,0:0:0:0:
256,192,82827,1,8,0:0:0:0:
256,192,82921,1,0,0:0:0:0:
256,192,83015,1,8,0:0:0:0:
256,192,83108,1,8,0:0:0:0:
256,192,83202,1,0,0:0:0:0:
256,192,83296,1,8,0:0:0:0:
256,192,83390,1,0,0:0:0:0:
256,192,83483,1,8,0:0:0:0:
256,192,83577,1,8,0:0:0:0:
256,192,83671,1,8,0:0:0:0:
256,192,83765,1,0,0:0:0:0:
256,192,83858,1,0,0:0:0:0:
256,192,83952,1,8,0:0:0:0:
256,192,84046,1,8,0:0:0:0:
256,192,84140,1,0,0:0:0:0:
256,192,84327,1,0,0:0:0:0:
256,192,84515,1,8,0:0:0:0:
256,192,84702,1,0,0:0:0:0:
256,192,84796,1,8,0:0:0:0:
256,192,84890,1,0,0:0:0:0:
256,192,84983,1,8,0:0:0:0:
256,192,85077,1,8,0:0:0:0:
256,192,85171,1,8,0:0:0:0:
256,192,85265,1,0,0:0:0:0:
256,192,85358,1,0,0:0:0:0:
256,192,85452,1,8,0:0:0:0:
256,192,85546,1,8,0:0:0:0:
256,192,85640,1,0,0:0:0:0:
256,192,86015,1,8,0:0:0:0:
256,192,86202,1,0,0:0:0:0:
256,192,86296,1,0,0:0:0:0:
256,192,86390,1,8,0:0:0:0:
256,192,86483,1,8,0:0:0:0:
256,192,86577,1,0,0:0:0:0:
256,192,86671,1,8,0:0:0:0:
256,192,86765,1,0,0:0:0:0:
256,192,86858,1,0,0:0:0:0:
256,192,86952,1,8,0:0:0:0:
256,192,87046,1,8,0:0:0:0:
256,192,87140,1,0,0:0:0:0:
256,192,87327,1,8,0:0:0:0:
256,192,87421,1,0,0:0:0:0:
256,192,87515,1,8,0:0:0:0:
256,192,87608,1,8,0:0:0:0:
256,192,87702,1,0,0:0:0:0:
256,192,87796,1,8,0:0:0:0:
256,192,87890,1,0,0:0:0:0:
256,192,87983,1,0,0:0:0:0:
256,192,88077,1,8,0:0:0:0:
256,192,88171,1,8,0:0:0:0:
256,192,88265,1,8,0:0:0:0:
256,192,88358,1,8,0:0:0:0:
256,192,88452,1,0,0:0:0:0:
256,192,88640,1,12,0:0:0:0:
256,192,88827,1,0,0:0:0:0:
256,192,88921,1,8,0:0:0:0:
256,192,89015,1,0,0:0:0:0:
256,192,89202,1,8,0:0:0:0:
256,192,89296,1,8,0:0:0:0:
256,192,89390,1,0,0:0:0:0:
256,192,89483,1,8,0:0:0:0:
256,192,89577,1,0,0:0:0:0:
256,192,89671,1,0,0:0:0:0:
256,192,89765,1,8,0:0:0:0:
256,192,89858,1,8,0:0:0:0:
256,192,89952,1,8,0:0:0:0:
256,192,90046,1,8,0:0:0:0:
256,192,90140,1,4,0:0:0:0:
256,192,90421,1,8,0:0:0:0:
256,192,90515,1,0,0:0:0:0:
256,192,90702,1,8,0:0:0:0:
256,192,90890,1,0,0:0:0:0:
256,192,91077,1,8,0:0:0:0:
256,192,91171,1,8,0:0:0:0:
256,192,91265,1,0,0:0:0:0:
256,192,91452,1,8,0:0:0:0:
256,192,91640,1,4,0:0:0:0:
256,192,91921,1,8,0:0:0:0:
256,192,92015,1,0,0:0:0:0:
256,192,92108,1,0,0:0:0:0:
256,192,92202,1,8,0:0:0:0:
256,192,92296,1,0,0:0:0:0:
256,192,92390,1,8,0:0:0:0:
256,192,92452,1,8,0:0:0:0:
256,192,92515,1,0,0:0:0:0:
256,192,92577,1,0,0:0:0:0:
256,192,92765,1,8,0:0:0:0:
256,192,92952,1,0,0:0:0:0:
256,192,93140,1,8,0:0:0:0:
256,192,93327,1,8,0:0:0:0:
256,192,93515,1,0,0:0:0:0:
256,192,93702,1,8,0:0:0:0:
256,192,93765,1,8,0:0:0:0:
256,192,93827,1,0,0:0:0:0:
256,192,93890,1,0,0:0:0:0:
256,192,94077,1,0,0:0:0:0:
256,192,94265,1,8,0:0:0:0:
256,192,94452,1,8,0:0:0:0:
256,192,94640,1,0,0:0:0:0:
256,192,95015,1,8,0:0:0:0:
256,192,95296,1,0,0:0:0:0:
256,192,95390,1,8,0:0:0:0:
256,192,95577,1,0,0:0:0:0:
256,192,95765,1,8,0:0:0:0:
256,192,95858,1,8,0:0:0:0:
256,192,95952,1,8,0:0:0:0:
256,192,96046,1,8,0:0:0:0:
256,192,96140,1,0,0:0:0:0:
256,192,96327,1,8,0:0:0:0:
256,192,96421,1,0,0:0:0:0:
256,192,96515,1,8,0:0:0:0:
256,192,96608,1,8,0:0:0:0:
256,192,96702,1,0,0:0:0:0:
256,192,96796,1,8,0:0:0:0:
256,192,96843,1,8,0:0:0:0:
256,192,96890,1,0,0:0:0:0:
256,192,96983,1,0,0:0:0:0:
256,192,97077,1,8,0:0:0:0:
256,192,97171,1,8,0:0:0:0:
256,192,97265,1,0,0:0:0:0:
256,192,97452,1,8,0:0:0:0:
256,192,97640,1,0,0:0:0:0:
256,192,97921,1,8,0:0:0:0:
256,192,98015,1,0,0:0:0:0:
256,192,98108,1,0,0:0:0:0:
256,192,98202,1,8,0:0:0:0:
256,192,98296,1,0,0:0:0:0:
256,192,98390,1,8,0:0:0:0:
256,192,98452,1,8,0:0:0:0:
256,192,98515,1,0,0:0:0:0:
256,192,98577,1,0,0:0:0:0:
256,192,98765,1,8,0:0:0:0:
256,192,98952,1,0,0:0:0:0:
256,192,99140,1,8,0:0:0:0:
256,192,99327,1,8,0:0:0:0:
256,192,99515,1,0,0:0:0:0:
256,192,99702,1,8,0:0:0:0:
256,192,99765,1,8,0:0:0:0:
256,192,99827,1,0,0:0:0:0:
256,192,99890,1,0,0:0:0:0:
256,192,100077,1,0,0:0:0:0:
256,192,100265,1,8,0:0:0:0:
256,192,100452,1,8,0:0:0:0:
256,192,100640,1,0,0:0:0:0:
256,192,100827,1,0,0:0:0:0:
256,192,101015,1,8,0:0:0:0:
256,192,101202,1,0,0:0:0:0:
256,192,101296,1,0,0:0:0:0:
256,192,101390,1,8,0:0:0:0:
256,192,101577,1,8,0:0:0:0:
256,192,101765,1,0,0:0:0:0:
256,192,101858,1,0,0:0:0:0:
256,192,101952,1,0,0:0:0:0:
256,192,102046,1,0,0:0:0:0:
256,192,102140,1,12,0:0:0:0:
256,192,102327,1,0,0:0:0:0:
256,192,102421,1,0,0:0:0:0:
256,192,102515,1,0,0:0:0:0:
256,192,102702,1,12,0:0:0:0:
256,192,102890,1,0,0:0:0:0:
256,192,102983,1,8,0:0:0:0:
256,192,103077,1,0,0:0:0:0:
256,192,103265,1,12,0:0:0:0:
256,192,103452,1,0,0:0:0:0:
256,192,103546,1,0,0:0:0:0:
256,192,103640,1,0,0:0:0:0:
256,192,103827,1,12,0:0:0:0:
256,192,104015,1,0,0:0:0:0:
256,192,104202,1,8,0:0:0:0:
256,192,104296,1,8,0:0:0:0:
256,192,104390,1,0,0:0:0:0:
256,192,104483,1,8,0:0:0:0:
256,192,104577,1,0,0:0:0:0:
256,192,104671,1,0,0:0:0:0:
256,192,104765,1,8,0:0:0:0:
256,192,104952,1,8,0:0:0:0:
256,192,105140,1,0,0:0:0:0:
256,192,105515,1,8,0:0:0:0:
256,192,105702,1,8,0:0:0:0:
256,192,105890,1,0,0:0:0:0:
256,192,106077,1,8,0:0:0:0:
256,192,106265,1,0,0:0:0:0:
256,192,106452,1,0,0:0:0:0:
256,192,106640,1,8,0:0:0:0:
256,192,107015,1,0,0:0:0:0:
256,192,107390,1,8,0:0:0:0:
256,192,107765,1,0,0:0:0:0:
256,192,107952,1,8,0:0:0:0:
256,192,108140,1,0,0:0:0:0:
256,192,108515,1,8,0:0:0:0:
256,192,108702,1,8,0:0:0:0:
256,192,108890,1,0,0:0:0:0:
256,192,109265,1,8,0:0:0:0:
256,192,109452,1,0,0:0:0:0:
256,192,109640,1,8,0:0:0:0:
256,192,109827,1,8,0:0:0:0:
256,192,110015,1,0,0:0:0:0:
256,192,110202,1,8,0:0:0:0:
256,192,110390,1,0,0:0:0:0:
256,192,110483,1,8,0:0:0:0:
256,192,110577,1,0,0:0:0:0:
256,192,110671,1,0,0:0:0:0:
256,192,110765,1,8,0:0:0:0:
256,192,110858,1,8,0:0:0:0:
256,192,110952,1,8,0:0:0:0:
256,192,111046,1,8,0:0:0:0:
256,192,111140,1,0,0:0:0:0:
256,192,111515,1,8,0:0:0:0:
256,192,111702,1,8,0:0:0:0:
256,192,111890,1,0,0:0:0:0:
256,192,112077,1,8,0:0:0:0:
256,192,112265,1,0,0:0:0:0:
256,192,112452,1,8,0:0:0:0:
256,192,112640,1,8,0:0:0:0:
256,192,112827,1,0,0:0:0:0:
256,192,113015,1,8,0:0:0:0:
256,192,113202,1,0,0:0:0:0:
256,192,113390,1,8,0:0:0:0:
256,192,113577,1,8,0:0:0:0:
256,192,113765,1,0,0:0:0:0:
256,192,113952,1,0,0:0:0:0:
256,192,114140,1,8,0:0:0:0:
256,192,114327,1,0,0:0:0:0:
256,192,114515,1,0,0:0:0:0:
256,192,114608,1,8,0:0:0:0:
256,192,114702,1,8,0:0:0:0:
256,192,114890,1,0,0:0:0:0:
256,192,114983,1,0,0:0:0:0:
256,192,115077,1,8,0:0:0:0:
256,192,115171,1,8,0:0:0:0:
256,192,115265,1,0,0:0:0:0:
256,192,115452,1,0,0:0:0:0:
256,192,115640,1,8,0:0:0:0:
256,192,115733,1,0,0:0:0:0:
256,192,115827,1,0,0:0:0:0:
256,192,115921,1,0,0:0:0:0:
256,192,116015,1,8,0:0:0:0:
256,192,116108,1,0,0:0:0:0:
256,192,116202,1,8,0:0:0:0:
256,192,116296,1,8,0:0:0:0:
256,192,116390,1,0,0:0:0:0:
256,192,116483,1,8,0:0:0:0:
256,192,116577,1,0,0:0:0:0:
256,192,116671,1,0,0:0:0:0:
256,192,116765,1,8,0:0:0:0:
256,192,116858,1,8,0:0:0:0:
256,192,116952,1,0,0:0:0:0:
256,192,117046,1,0,0:0:0:0:
256,192,117140,1,8,0:0:0:0:
256,192,117233,1,0,0:0:0:0:
256,192,117327,1,0,0:0:0:0:
256,192,117421,1,0,0:0:0:0:
256,192,117515,1,8,0:0:0:0:
256,192,117608,1,0,0:0:0:0:
256,192,117702,1,8,0:0:0:0:
256,192,117796,1,8,0:0:0:0:
256,192,117890,1,0,0:0:0:0:
256,192,117983,1,8,0:0:0:0:
256,192,118077,1,0,0:0:0:0:
256,192,118171,1,0,0:0:0:0:
256,192,118265,1,8,0:0:0:0:
256,192,118358,1,8,0:0:0:0:
256,192,118452,1,8,0:0:0:0:
256,192,118546,1,0,0:0:0:0:
256,192,118640,1,8,0:0:0:0:
256,192,118733,1,0,0:0:0:0:
256,192,118827,1,0,0:0:0:0:
256,192,118921,1,0,0:0:0:0:
256,192,119015,1,8,0:0:0:0:
256,192,119108,1,0,0:0:0:0:
256,192,119202,1,8,0:0:0:0:
256,192,119296,1,8,0:0:0:0:
256,192,119390,1,0,0:0:0:0:
256,192,119483,1,8,0:0:0:0:
256,192,119577,1,0,0:0:0:0:
256,192,119671,1,0,0:0:0:0:
256,192,119765,1,8,0:0:0:0:
256,192,119858,1,8,0:0:0:0:
256,192,119952,1,8,0:0:0:0:
256,192,120046,1,8,0:0:0:0:
256,192,121640,1,4,0:0:0:0:
