osu file format v14

[General]
AudioFilename: audio.mp3
AudioLeadIn: 0
PreviewTime: 49635
Countdown: 0
SampleSet: Soft
StackLeniency: 0.7
Mode: 0
LetterboxInBreaks: 0
EpilepsyWarning: 1
WidescreenStoryboard: 1

[Editor]
Bookmarks: 1635,13635,25635,39135,54135,67635,79635,91635,105135
DistanceSpacing: 1.8
BeatDivisor: 8
GridSize: 32
TimelineZoom: 3.099999

[Metadata]
Title:PandorA
TitleUnicode:PandorA
Artist:M2U
ArtistUnicode:M2U
Creator:Minorsonek
Version:MinoridiuS' Infinity
Source:하이파이브
Tags:High5 RVMathew Ultima Fox MaridiuS Erasome Matsubara Kanon Walaowey
BeatmapID:1752431
BeatmapSetID:836894

[Difficulty]
HPDrainRate:7
CircleSize:4.4
OverallDifficulty:8.4
ApproachRate:9.4
SliderMultiplier:2.2
SliderTickRate:1

[Events]
//Background and Video events
0,0,"LuHsFB.jpg",0,0
//Break Periods
//Storyboard Layer 0 (Background)
//Storyboard Layer 1 (Fail)
//Storyboard Layer 2 (Pass)
//Storyboard Layer 3 (Foreground)
Sprite,Foreground,Centre,"sb\mask.png",320,240 S,0,0,,0.7907407 C,0,0,,0,0,0 F,1,0,1635,0,1 F,1,1635,1916,1,0 F,2,1916,2009,0,1 F,1,2010,2103,1,0 F,2,2103,2197,0,1 F,1,2197,2478,1,0 F,2,2478,2571,0,1 F,1,2572,2712,1,0 F,2,2712,2806,0,1 F,1,2760,2853,1,0 F,2,2853,2947,0,1 F,1,3697,3978,1,0 F,2,3978,4071,0,1 F,1,4072,4165,1,0 F,2,4165,4259,0,1 F,1,4260,4541,1,0 F,2,4541,4635,0,1 F,1,4635,4916,1,0 F,2,4916,5009,0,1 F,1,5010,5103,1,0 F,2,5103,5197,0,1 F,1,5197,5478,1,0 F,2,5478,5571,0,1 F,1,5572,5665,1,0 F,2,5665,5759,0,1 F,1,5760,5853,1,0 F,2,5853,5947,0,1 F,1,5947,6040,1,0 F,2,6040,6134,0,1 F,1,6135,6228,1,0 F,2,6228,6322,0,1 F,1,6322,6415,1,0 F,2,6415,6509,0,1 F,1,6510,6603,1,0 F,2,6603,6697,0,1 F,1,6697,6790,1,0 F,2,6790,6884,0,1 F,1,6885,6978,1,0 F,2,6978,7072,0,1 F,1,7072,7165,1,0 F,2,7165,7259,0,1 F,1,7260,7353,1,0 F,2,7353,7447,0,1 F,1,7447,7540,1,0 F,2,7540,7634,0,1 F,1,8197,8478,1,0 F,2,8478,8571,0,1 F,1,8572,8665,1,0 F,2,8665,8759,0,1 F,1,9135,9416,1,0 F,2,9416,9510,0,1 F,1,9510,9791,1,0 F,2,9791,9885,0,1 F,1,10635,10916,1,0 F,2,10916,11009,0,1 F,1,11010,11103,1,0 F,2,11103,11197,0,1 F,1,11197,11478,1,0 F,2,11478,11571,0,1 F,1,11572,11665,1,0 F,2,11665,11759,0,1 F,1,12135,12228,1,0 F,2,12228,12322,0,1 F,1,12322,12415,1,0 F,2,12415,12509,0,1 F,1,12885,12978,1,0 F,2,12978,13072,0,1 F,1,13072,13165,1,0 F,2,13165,13259,0,1 F,1,13260,13541,1,0 F,2,13541,13635,0,1 F,1,22635,25635,0,1 F,1,25635,25916,1,0 F,2,25916,26010,0,1 F,1,27135,27322,1,0 F,2,27322,27416,0,1 F,1,27885,28072,1,0 F,2,28072,28166,0,1 F,1,28635,29197,1,0 F,2,29197,29291,0,1 F,1,29385,29947,1,0 F,2,29947,30041,0,1 F,1,30510,30603,1,0 F,2,30603,30697,0,1 F,1,30697,30790,1,0 F,2,30790,30884,0,1 F,1,31635,31916,1,0 F,2,31916,32010,0,1 F,1,33135,33322,1,0 F,2,33322,33416,0,1 F,1,33885,34072,1,0 F,2,34072,34166,0,1 F,1,35385,35572,1,0 F,2,35572,35666,0,1 F,1,38760,39041,1,0 F,2,39041,39135,0,1 F,1,93510,93697,1,0 F,2,93697,93791,0,1 F,1,95010,95197,1,0 F,2,95197,95291,0,1 F,1,97635,97916,1,0 F,2,97916,98010,0,1 F,1,99885,100072,1,0 F,2,100072,100166,0,1 F,1,100635,100822,1,0 F,2,100822,100916,0,1 F,1,101197,101384,1,0 F,2,101384,101478,0,1 F,1,104760,105041,1,0 F,2,105041,105135,0,1
Sprite,Foreground,Centre,"sb\gear.png",320,240 F,1,0,1635,0,1 R,0,135,1635,0,0.3926991 S,1,1635,1728,1,1.01 R,0,1635,49635,0.3926991,12.56637 S,1,1728,1822,1.01,1 S,1,2010,2103,1,1.01 S,1,2103,2197,1.01,1 S,1,2197,2290,1,1.01 S,1,2290,2384,1.01,1 S,1,2572,2665,1,1.01 S,1,2665,2759,1.01,1 S,1,2760,2853,1,1.01 S,1,2853,2947,1.01,1 S,1,2947,3040,1,1.01 S,1,3040,3134,1.01,1 S,1,3041,3134,1,1.01 S,1,3134,3228,1.01,1 S,1,3135,3228,1,1.01 S,1,3228,3322,1.01,1 S,1,3322,3415,1,1.01 S,1,3415,3509,1.01,1 S,1,3510,3603,1,1.01 S,1,3603,3697,1.01,1 S,1,3697,3790,1,1.01 S,1,3790,3884,1.01,1 S,1,4072,4165,1,1.01 S,1,4165,4259,1.01,1 S,1,4260,4353,1,1.01 S,1,4353,4447,1.01,1 S,1,4635,4728,1,1.01 S,1,4728,4822,1.01,1 S,1,5010,5103,1,1.01 S,1,5103,5197,1.01,1 S,1,5197,5290,1,1.01 S,1,5290,5384,1.01,1 S,1,5572,5665,1,1.01 S,1,5665,5759,1.01,1 S,1,5760,5853,1,1.01 S,1,5853,5947,1.01,1 S,1,5947,6040,1,1.01 S,1,6040,6134,1.01,1 S,1,6135,6228,1,1.01 S,1,6228,6322,1.01,1 S,1,6322,6415,1,1.01 S,1,6415,6509,1.01,1 S,1,6510,6603,1,1.01 S,1,6603,6697,1.01,1 S,1,6697,6790,1,1.01 S,1,6790,6884,1.01,1 S,1,6885,6978,1,1.01 S,1,6978,7072,1.01,1 S,1,7072,7165,1,1.01 S,1,7165,7259,1.01,1 S,1,7260,7353,1,1.01 S,1,7353,7447,1.01,1 S,1,7447,7540,1,1.01 S,1,7540,7634,1.01,1 S,1,7635,7728,1,1.01 S,1,7728,7822,1.01,1 S,1,7822,7915,1,1.01 S,1,7915,8009,1.01,1 S,1,8010,8103,1,1.01 S,1,8103,8197,1.01,1 S,1,8197,8290,1,1.01 S,1,8290,8384,1.01,1 S,1,8572,8665,1,1.01 S,1,8665,8759,1.01,1 S,1,8760,8853,1,1.01 S,1,8853,8946,1,1.01 S,1,8853,8947,1.01,1 S,1,8946,9040,1.01,1 S,1,8947,9040,1,1.01 S,1,9040,9134,1.01,1 S,1,9041,9134,1,1.01 S,1,9134,9228,1.01,1 S,1,9135,9228,1,1.01 S,1,9228,9322,1.01,1 S,1,9510,9603,1,1.01 S,1,9603,9697,1.01,1 S,1,9885,9978,1,1.01 S,1,9978,10072,1.01,1 S,1,10072,10165,1,1.01 S,1,10165,10259,1.01,1 S,1,10260,10353,1,1.01 S,1,10353,10447,1.01,1 S,1,10447,10540,1,1.01 S,1,10540,10634,1.01,1 S,1,10635,10728,1,1.01 S,1,10728,10822,1.01,1 S,1,11010,11103,1,1.01 S,1,11103,11197,1.01,1 S,1,11197,11290,1,1.01 S,1,11290,11384,1.01,1 S,1,11572,11665,1,1.01 S,1,11665,11759,1.01,1 S,1,11760,11853,1,1.01 S,1,11853,11946,1,1.01 S,1,11853,11947,1.01,1 S,1,11946,12040,1.01,1 S,1,11947,12040,1,1.01 S,1,12040,12134,1.01,1 S,1,12041,12134,1,1.01 S,1,12134,12228,1.01,1 S,1,12135,12228,1,1.01 S,1,12228,12322,1.01,1 S,1,12322,12415,1,1.01 S,1,12415,12509,1.01,1 S,1,12510,12603,1,1.01 S,1,12603,12696,1,1.01 S,1,12603,12697,1.01,1 S,1,12696,12790,1.01,1 S,1,12697,12790,1,1.01 S,1,12790,12884,1.01,1 S,1,12791,12884,1,1.01 S,1,12884,12978,1.01,1 S,1,12885,12978,1,1.01 S,1,12978,13072,1.01,1 S,1,13072,13165,1,1.01 S,1,13165,13259,1.01,1 S,1,13260,13353,1,1.01 S,1,13353,13447,1.01,1 F,1,13635,14760,1,0.5 S,1,22635,22728,1,1.01 F,1,22635,25635,0.5,1 S,1,22728,22822,1.01,1 S,1,22822,22915,1,1.01 S,1,22915,23009,1.01,1 S,1,22916,23009,1,1.01 S,1,23009,23103,1.01,1 S,1,23010,23103,1,1.01 S,1,23103,23197,1.01,1 S,1,23197,23290,1,1.01 S,1,23290,23384,1.01,1 S,1,23291,23384,1,1.01 S,1,23384,23478,1.01,1 S,1,23385,23478,1,1.01 S,1,23478,23571,1,1.01 S,1,23478,23572,1.01,1 S,1,23571,23665,1.01,1 S,1,23572,23665,1,1.01 S,1,23665,23759,1.01,1 S,1,23666,23759,1,1.01 S,1,23759,23853,1.01,1 S,1,23760,23853,1,1.01 S,1,23853,23947,1.01,1 S,1,24135,24228,1,1.01 S,1,24228,24322,1.01,1 S,1,24322,24415,1,1.01 S,1,24415,24509,1.01,1 S,1,24510,24603,1,1.01 S,1,24603,24697,1.01,1 S,1,24697,24790,1,1.01 S,1,24790,24884,1.01,1 S,1,24884,24977,1,1.01 S,1,24977,25071,1.01,1 S,1,25072,25165,1,1.01 S,1,25165,25259,1.01,1 S,1,25166,25259,1,1.01 S,1,25259,25353,1.01,1 S,1,25260,25353,1,1.01 S,1,25353,25447,1.01,1 S,1,25635,25728,1,1.01 S,1,25728,25822,1.01,1 S,1,26010,26103,1,1.01 S,1,26103,26196,1,1.01 S,1,26103,26197,1.01,1 S,1,26196,26290,1.01,1 S,1,26197,26290,1,1.01 S,1,26290,26384,1.01,1 S,1,26291,26384,1,1.01 S,1,26384,26478,1.01,1 S,1,26385,26478,1,1.01 S,1,26478,26572,1.01,1 S,1,26572,26665,1,1.01 S,1,26665,26759,1.01,1 S,1,26760,26853,1,1.01 S,1,26853,26947,1.01,1 S,1,26947,27040,1,1.01 S,1,27040,27134,1.01,1 S,1,27135,27228,1,1.01 S,1,27228,27322,1.01,1 S,1,27510,27603,1,1.01 S,1,27603,27697,1.01,1 S,1,27697,27790,1,1.01 S,1,27790,27884,1.01,1 S,1,27885,27978,1,1.01 S,1,27978,28072,1.01,1 S,1,28260,28353,1,1.01 S,1,28353,28447,1.01,1 S,1,28447,28540,1,1.01 S,1,28540,28634,1.01,1 S,1,28635,28728,1,1.01 S,1,28728,28822,1.01,1 S,1,29385,29478,1,1.01 S,1,29478,29572,1.01,1 S,1,30135,30228,1,1.01 S,1,30228,30322,1.01,1 S,1,30510,30603,1,1.01 S,1,30603,30697,1.01,1 S,1,30697,30790,1,1.01 S,1,30790,30884,1.01,1 S,1,30885,30978,1,1.01 S,1,30978,31072,1.01,1 S,1,30979,31072,1,1.01 S,1,31072,31166,1.01,1 S,1,31073,31166,1,1.01 S,1,31166,31260,1.01,1 S,1,31167,31260,1,1.01 S,1,31260,31353,1,1.01 S,1,31260,31354,1.01,1 S,1,31353,31447,1.01,1 S,1,31447,31540,1,1.01 S,1,31540,31634,1.01,1 S,1,31635,31728,1,1.01 S,1,31728,31822,1.01,1 S,1,32010,32103,1,1.01 S,1,32103,32196,1,1.01 S,1,32103,32197,1.01,1 S,1,32196,32290,1.01,1 S,1,32197,32290,1,1.01 S,1,32290,32384,1.01,1 S,1,32291,32384,1,1.01 S,1,32384,32478,1.01,1 S,1,32385,32478,1,1.01 S,1,32478,32572,1.01,1 S,1,32572,32665,1,1.01 S,1,32665,32759,1.01,1 S,1,32760,32853,1,1.01 S,1,32853,32947,1.01,1 S,1,32947,33040,1,1.01 S,1,33040,33134,1.01,1 S,1,33135,33228,1,1.01 S,1,33228,33322,1.01,1 S,1,33510,33603,1,1.01 S,1,33603,33697,1.01,1 S,1,33697,33790,1,1.01 S,1,33790,33884,1.01,1 S,1,33885,33978,1,1.01 S,1,33978,34072,1.01,1 S,1,34260,34353,1,1.01 S,1,34353,34447,1.01,1 S,1,34447,34540,1,1.01 S,1,34540,34634,1.01,1 S,1,34635,34728,1,1.01 S,1,34728,34822,1.01,1 S,1,34822,34915,1,1.01 S,1,34915,35009,1.01,1 S,1,35010,35103,1,1.01 S,1,35103,35197,1.01,1 S,1,35197,35290,1,1.01 S,1,35290,35384,1.01,1 S,1,35385,35478,1,1.01 S,1,35478,35572,1.01,1 S,1,35760,35853,1,1.01 S,1,35853,35946,1,1.01 S,1,35853,35947,1.01,1 S,1,35946,36040,1.01,1 S,1,35947,36040,1,1.01 S,1,36040,36134,1.01,1 S,1,36041,36134,1,1.01 S,1,36134,36228,1.01,1 S,1,36135,36228,1,1.01 S,1,36228,36322,1.01,1 S,1,36322,36415,1,1.01 S,1,36415,36509,1.01,1 S,1,36510,36603,1,1.01 S,1,36603,36697,1.01,1 S,1,36697,36790,1,1.01 S,1,36790,36884,1.01,1 S,1,36885,36978,1,1.01 S,1,36978,37072,1.01,1 S,1,37072,37165,1,1.01 S,1,37165,37259,1.01,1 S,1,37260,37353,1,1.01 S,1,37353,37447,1.01,1 S,1,37447,37540,1,1.01 S,1,37540,37634,1.01,1 S,1,37635,37728,1,1.01 S,1,37728,37822,1.01,1 S,1,37822,37915,1,1.01 S,1,37915,38009,1.01,1 S,1,38010,38103,1,1.01 S,1,38103,38197,1.01,1 S,1,38197,38290,1,1.01 S,1,38290,38384,1.01,1 S,1,38385,38478,1,1.01 S,1,38478,38572,1.01,1 S,1,38479,38572,1,1.01 S,1,38572,38666,1.01,1 S,1,38573,38666,1,1.01 S,1,38666,38760,1.01,1 S,1,38667,38760,1,1.01 S,1,38760,38853,1,1.01 S,1,38760,38854,1.01,1 S,1,38853,38947,1.01,1 F,1,39135,40260,1,0.5 F,1,46635,49635,0.5,1 R,21,49635,54135,12.56637,113.0973 C,2,49635,54135,255,255,255,199,21,133 F,1,54135,54228,1,0 F,1,79635,80760,0,0.5 C,0,79635,85635,199,21,133,255,255,255 R,0,79635,115635,0.3926991,9.424778 F,1,88635,91635,0.5,1 S,1,91635,91728,1,1.01 S,1,91728,91822,1.01,1 S,1,91822,91915,1,1.01 S,1,91915,92009,1.01,1 S,1,91916,92009,1,1.01 S,1,92009,92103,1.01,1 S,1,92010,92103,1,1.01 S,1,92103,92196,1,1.01 S,1,92103,92197,1.01,1 S,1,92196,92290,1.01,1 S,1,92197,92290,1,1.01 S,1,92290,92384,1.01,1 S,1,92291,92384,1,1.01 S,1,92384,92478,1.01,1 S,1,92385,92478,1,1.01 S,1,92478,92572,1.01,1 S,1,92572,92665,1,1.01 S,1,92665,92759,1.01,1 S,1,92760,92853,1,1.01 S,1,92853,92947,1.01,1 S,1,92947,93040,1,1.01 S,1,93040,93134,1.01,1 S,1,93135,93228,1,1.01 S,1,93228,93322,1.01,1 S,1,93322,93415,1,1.01 S,1,93415,93509,1.01,1 S,1,93510,93603,1,1.01 S,1,93603,93697,1.01,1 S,1,93791,93884,1,1.01 S,1,93884,93978,1.01,1 S,1,93885,93978,1,1.01 S,1,93978,94072,1.01,1 S,1,94072,94165,1,1.01 S,1,94165,94259,1.01,1 S,1,94260,94353,1,1.01 S,1,94353,94447,1.01,1 S,1,94447,94540,1,1.01 S,1,94540,94634,1.01,1 S,1,94635,94728,1,1.01 S,1,94728,94822,1.01,1 S,1,94822,94915,1,1.01 S,1,94915,95009,1.01,1 S,1,95010,95103,1,1.01 S,1,95103,95197,1.01,1 S,1,95385,95478,1,1.01 S,1,95478,95572,1.01,1 S,1,95572,95665,1,1.01 S,1,95665,95759,1.01,1 S,1,95760,95853,1,1.01 S,1,95853,95946,1,1.01 S,1,95853,95947,1.01,1 S,1,95946,96040,1.01,1 S,1,95947,96040,1,1.01 S,1,96040,96134,1.01,1 S,1,96041,96134,1,1.01 S,1,96134,96228,1.01,1 S,1,96135,96228,1,1.01 S,1,96228,96322,1.01,1 S,1,96322,96415,1,1.01 S,1,96415,96509,1.01,1 S,1,96510,96603,1,1.01 S,1,96603,96696,1,1.01 S,1,96603,96697,1.01,1 S,1,96696,96790,1.01,1 S,1,96697,96790,1,1.01 S,1,96790,96884,1.01,1 S,1,96791,96884,1,1.01 S,1,96884,96978,1.01,1 S,1,96885,96978,1,1.01 S,1,96978,97071,1,1.01 S,1,96978,97072,1.01,1 S,1,97071,97165,1.01,1 S,1,97072,97165,1,1.01 S,1,97165,97259,1.01,1 S,1,97166,97259,1,1.01 S,1,97259,97353,1.01,1 S,1,97260,97353,1,1.01 S,1,97353,97447,1.01,1 S,1,97447,97540,1,1.01 S,1,97540,97634,1.01,1 S,1,97635,97728,1,1.01 S,1,97728,97822,1.01,1 S,1,98010,98103,1,1.01 S,1,98103,98196,1,1.01 S,1,98103,98197,1.01,1 S,1,98196,98290,1.01,1 S,1,98197,98290,1,1.01 S,1,98290,98384,1.01,1 S,1,98291,98384,1,1.01 S,1,98384,98478,1.01,1 S,1,98385,98478,1,1.01 S,1,98478,98572,1.01,1 S,1,98572,98665,1,1.01 S,1,98665,98759,1.01,1 S,1,98760,98853,1,1.01 S,1,98853,98947,1.01,1 S,1,98947,99040,1,1.01 S,1,99040,99134,1.01,1 S,1,99135,99228,1,1.01 S,1,99228,99322,1.01,1 S,1,99322,99415,1,1.01 S,1,99415,99509,1.01,1 S,1,99510,99603,1,1.01 S,1,99603,99697,1.01,1 S,1,99697,99790,1,1.01 S,1,99790,99884,1.01,1 S,1,99791,99884,1,1.01 S,1,99884,99978,1.01,1 S,1,99885,99978,1,1.01 S,1,99978,100072,1.01,1 S,1,100260,100353,1,1.01 S,1,100353,100447,1.01,1 S,1,100447,100540,1,1.01 S,1,100540,100634,1.01,1 S,1,100635,100728,1,1.01 S,1,100728,100822,1.01,1 S,1,101010,101103,1,1.01 S,1,101103,101197,1.01,1 S,1,101197,101290,1,1.01 S,1,101290,101384,1.01,1 S,1,101572,101665,1,1.01 S,1,101665,101759,1.01,1 S,1,101760,101853,1,1.01 S,1,101853,101946,1,1.01 S,1,101853,101947,1.01,1 S,1,101946,102040,1.01,1 S,1,101947,102040,1,1.01 S,1,102040,102134,1.01,1 S,1,102041,102134,1,1.01 S,1,102134,102228,1.01,1 S,1,102135,102228,1,1.01 S,1,102228,102322,1.01,1 S,1,102322,102415,1,1.01 S,1,102415,102509,1.01,1 S,1,102510,102603,1,1.01 S,1,102603,102697,1.01,1 S,1,102697,102790,1,1.01 S,1,102790,102884,1.01,1 S,1,102885,102978,1,1.01 S,1,102978,103071,1,1.01 S,1,102978,103072,1.01,1 S,1,103071,103165,1.01,1 S,1,103072,103165,1,1.01 S,1,103165,103259,1.01,1 S,1,103260,103353,1,1.01 S,1,103353,103447,1.01,1 S,1,103447,103540,1,1.01 S,1,103540,103634,1.01,1 S,1,103635,103728,1,1.01 S,1,103728,103822,1.01,1 S,1,103822,103915,1,1.01 S,1,103915,104009,1.01,1 S,1,104010,104103,1,1.01 S,1,104103,104196,1,1.01 S,1,104103,104197,1.01,1 S,1,104196,104290,1.01,1 S,1,104197,104290,1,1.01 S,1,104290,104384,1.01,1 S,1,104385,104478,1,1.01 S,1,104478,104571,1,1.01 S,1,104478,104572,1.01,1 S,1,104571,104665,1.01,1 S,1,104572,104665,1,1.01 S,1,104665,104759,1.01,1 S,1,104666,104759,1,1.01 S,1,104759,104853,1.01,1 S,1,104760,104853,1,1.01 S,1,104853,104947,1.01,1 F,1,105135,106260,1,0.5 F,1,112635,115635,0.5,1 R,21,115635,120135,9.424778,109.9557 F,0,120135,120228,1,0
Sprite,Foreground,TopCentre,"sb\drop.png",0,0 C,0,13588,,250,250,210 MX,0,13588,,282 MY,0,13588,,0 F,2,13588,13635,0,0.5 F,1,13635,14385,0.5,0
Sprite,Foreground,TopCentre,"sb\drop.png",0,0 C,0,13963,,250,250,210 MX,0,13963,,88 MY,0,13963,,0 F,2,13963,14010,0,0.5 F,1,14010,14760,0.5,0
Sprite,Foreground,TopCentre,"sb\drop.png",0,0 C,0,14150,,250,250,210 MX,0,14150,,76 MY,0,14150,,0 F,2,14150,14197,0,0.5 F,1,14197,14947,0.5,0
Sprite,Foreground,TopCentre,"sb\drop.png",0,0 C,0,14338,,250,250,210 MX,0,14338,,162 MY,0,14338,,0 F,2,14338,14385,0,0.5 F,1,14385,15135,0.5,0
Sprite,Foreground,TopCentre,"sb\drop.png",0,0 C,0,14713,,250,250,210 MX,0,14713,,179 MY,0,14713,,0 F,2,14713,14760,0,0.5 F,1,14760,15510,0.5,0
Sprite,Foreground,TopCentre,"sb\drop.png",0,0 C,0,14807,,250,250,210 MX,0,14807,,201 MY,0,14807,,0 F,2,14807,14854,0,0.5 F,1,14854,15604,0.5,0
Sprite,Foreground,TopCentre,"sb\drop.png",0,0 C,0,14900,,250,250,210 MX,0,14900,,224 MY,0,14900,,0 F,2,14900,14947,0,0.5 F,1,14947,15697,0.5,0
Sprite,Foreground,TopCentre,"sb\drop.png",0,0 C,0,14994,,250,250,210 MX,0,14994,,248 MY,0,14994,,0 F,2,14994,15041,0,0.5 F,1,15041,15791,0.5,0
Sprite,Foreground,TopCentre,"sb\drop.png",0,0 C,0,15088,,250,250,210 MX,0,15088,,272 MY,0,15088,,0 F,2,15088,15135,0,0.5 F,1,15135,15885,0.5,0
Sprite,Foreground,TopCentre,"sb\drop.png",0,0 C,0,15369,,250,250,210 MX,0,15369,,344 MY,0,15369,,0 F,2,15369,15416,0,0.5 F,1,15416,16166,0.5,0
Sprite,Foreground,TopCentre,"sb\drop.png",0,0 C,0,15463,,250,250,210 MX,0,15463,,344 MY,0,15463,,0 F,2,15463,15510,0,0.5 F,1,15510,16260,0.5,0
Sprite,Foreground,TopCentre,"sb\drop.png",0,0 C,0,15838,,250,250,210 MX,0,15838,,456 MY,0,15838,,0 F,2,15838,15885,0,0.5 F,1,15885,16635,0.5,0
Sprite,Foreground,TopCentre,"sb\drop.png",0,0 C,0,16213,,250,250,210 MX,0,16213,,349 MY,0,16213,,0 F,2,16213,16260,0,0.5 F,1,16260,17010,0.5,0
Sprite,Foreground,TopCentre,"sb\drop.png",0,0 C,0,16306,,250,250,210 MX,0,16306,,324 MY,0,16306,,0 F,2,16306,16353,0,0.5 F,1,16353,17103,0.5,0
Sprite,Foreground,TopCentre,"sb\drop.png",0,0 C,0,16400,,250,250,210 MX,0,16400,,299 MY,0,16400,,0 F,2,16400,16447,0,0.5 F,1,16447,17197,0.5,0
Sprite,Foreground,TopCentre,"sb\drop.png",0,0 C,0,16494,,250,250,210 MX,0,16494,,275 MY,0,16494,,0 F,2,16494,16541,0,0.5 F,1,16541,17291,0.5,0
Sprite,Foreground,TopCentre,"sb\drop.png",0,0 C,0,16588,,250,250,210 MX,0,16588,,254 MY,0,16588,,0 F,2,16588,16635,0,0.5 F,1,16635,17385,0.5,0
Sprite,Foreground,TopCentre,"sb\drop.png",0,0 C,0,16775,,250,250,210 MX,0,16775,,196 MY,0,16775,,0 F,2,16775,16822,0,0.5 F,1,16822,17572,0.5,0
Sprite,Foreground,TopCentre,"sb\drop.png",0,0 C,0,16869,,250,250,210 MX,0,16869,,177 MY,0,16869,,0 F,2,16869,16916,0,0.5 F,1,16916,17666,0.5,0
Sprite,Foreground,TopCentre,"sb\drop.png",0,0 C,0,16963,,250,250,210 MX,0,16963,,170 MY,0,16963,,0 F,2,16963,17010,0,0.5 F,1,17010,17760,0.5,0
Sprite,Foreground,TopCentre,"sb\drop.png",0,0 C,0,17056,,250,250,210 MX,0,17056,,184 MY,0,17056,,0 F,2,17056,17103,0,0.5 F,1,17103,17853,0.5,0
Sprite,Foreground,TopCentre,"sb\drop.png",0,0 C,0,17150,,250,250,210 MX,0,17150,,211 MY,0,17150,,0 F,2,17150,17197,0,0.5 F,1,17197,17947,0.5,0
Sprite,Foreground,TopCentre,"sb\drop.png",0,0 C,0,17244,,250,250,210 MX,0,17244,,242 MY,0,17244,,0 F,2,17244,17291,0,0.5 F,1,17291,18041,0.5,0
Sprite,Foreground,TopCentre,"sb\drop.png",0,0 C,0,17338,,250,250,210 MX,0,17338,,266 MY,0,17338,,0 F,2,17338,17385,0,0.5 F,1,17385,18135,0.5,0
Sprite,Foreground,TopCentre,"sb\drop.png",0,0 C,0,17431,,250,250,210 MX,0,17431,,297 MY,0,17431,,0 F,2,17431,17478,0,0.5 F,1,17478,18228,0.5,0
Sprite,Foreground,TopCentre,"sb\drop.png",0,0 C,0,17525,,250,250,210 MX,0,17525,,337 MY,0,17525,,0 F,2,17525,17572,0,0.5 F,1,17572,18322,0.5,0
Sprite,Foreground,TopCentre,"sb\drop.png",0,0 C,0,17619,,250,250,210 MX,0,17619,,378 MY,0,17619,,0 F,2,17619,17666,0,0.5 F,1,17666,18416,0.5,0
Sprite,Foreground,TopCentre,"sb\drop.png",0,0 C,0,17713,,250,250,210 MX,0,17713,,407 MY,0,17713,,0 F,2,17713,17760,0,0.5 F,1,17760,18510,0.5,0
Sprite,Foreground,TopCentre,"sb\drop.png",0,0 C,0,17806,,250,250,210 MX,0,17806,,453 MY,0,17806,,0 F,2,17806,17853,0,0.5 F,1,17853,18603,0.5,0
Sprite,Foreground,TopCentre,"sb\drop.png",0,0 C,0,17900,,250,250,210 MX,0,17900,,476 MY,0,17900,,0 F,2,17900,17947,0,0.5 F,1,17947,18697,0.5,0
Sprite,Foreground,TopCentre,"sb\drop.png",0,0 C,0,17994,,250,250,210 MX,0,17994,,499 MY,0,17994,,0 F,2,17994,18041,0,0.5 F,1,18041,18791,0.5,0
Sprite,Foreground,TopCentre,"sb\drop.png",0,0 C,0,18088,,250,250,210 MX,0,18088,,522 MY,0,18088,,0 F,2,18088,18135,0,0.5 F,1,18135,18885,0.5,0
Sprite,Foreground,TopCentre,"sb\drop.png",0,0 C,0,18275,,250,250,210 MX,0,18275,,488 MY,0,18275,,0 F,2,18275,18322,0,0.5 F,1,18322,19072,0.5,0
Sprite,Foreground,TopCentre,"sb\drop.png",0,0 C,0,18463,,250,250,210 MX,0,18463,,372 MY,0,18463,,0 F,2,18463,18510,0,0.5 F,1,18510,19260,0.5,0
Sprite,Foreground,TopCentre,"sb\drop.png",0,0 C,0,18650,,250,250,210 MX,0,18650,,292 MY,0,18650,,0 F,2,18650,18697,0,0.5 F,1,18697,19447,0.5,0
Sprite,Foreground,TopCentre,"sb\drop.png",0,0 C,0,18744,,250,250,210 MX,0,18744,,292 MY,0,18744,,0 F,2,18744,18791,0,0.5 F,1,18791,19541,0.5,0
Sprite,Foreground,TopCentre,"sb\drop.png",0,0 C,0,18838,,250,250,210 MX,0,18838,,292 MY,0,18838,,0 F,2,18838,18885,0,0.5 F,1,18885,19635,0.5,0
Sprite,Foreground,TopCentre,"sb\drop.png",0,0 C,0,19213,,250,250,210 MX,0,19213,,300 MY,0,19213,,0 F,2,19213,19260,0,0.5 F,1,19260,20010,0.5,0
Sprite,Foreground,TopCentre,"sb\drop.png",0,0 C,0,19306,,250,250,210 MX,0,19306,,308 MY,0,19306,,0 F,2,19306,19353,0,0.5 F,1,19353,20103,0.5,0
Sprite,Foreground,TopCentre,"sb\drop.png",0,0 C,0,19400,,250,250,210 MX,0,19400,,311 MY,0,19400,,0 F,2,19400,19447,0,0.5 F,1,19447,20197,0.5,0
Sprite,Foreground,TopCentre,"sb\drop.png",0,0 C,0,19494,,250,250,210 MX,0,19494,,310 MY,0,19494,,0 F,2,19494,19541,0,0.5 F,1,19541,20291,0.5,0
Sprite,Foreground,TopCentre,"sb\drop.png",0,0 C,0,19588,,250,250,210 MX,0,19588,,303 MY,0,19588,,0 F,2,19588,19635,0,0.5 F,1,19635,20385,0.5,0
Sprite,Foreground,TopCentre,"sb\drop.png",0,0 C,0,19963,,250,250,210 MX,0,19963,,413 MY,0,19963,,0 F,2,19963,20010,0,0.5 F,1,20010,20760,0.5,0
Sprite,Foreground,TopCentre,"sb\drop.png",0,0 C,0,20150,,250,250,210 MX,0,20150,,535 MY,0,20150,,0 F,2,20150,20197,0,0.5 F,1,20197,20947,0.5,0
Sprite,Foreground,TopCentre,"sb\drop.png",0,0 C,0,20338,,250,250,210 MX,0,20338,,561 MY,0,20338,,0 F,2,20338,20385,0,0.5 F,1,20385,21135,0.5,0
Sprite,Foreground,TopCentre,"sb\drop.png",0,0 C,0,20713,,250,250,210 MX,0,20713,,552 MY,0,20713,,0 F,2,20713,20760,0,0.5 F,1,20760,21510,0.5,0
Sprite,Foreground,TopCentre,"sb\drop.png",0,0 C,0,20806,,250,250,210 MX,0,20806,,528 MY,0,20806,,0 F,2,20806,20853,0,0.5 F,1,20853,21603,0.5,0
Sprite,Foreground,TopCentre,"sb\drop.png",0,0 C,0,20900,,250,250,210 MX,0,20900,,503 MY,0,20900,,0 F,2,20900,20947,0,0.5 F,1,20947,21697,0.5,0
Sprite,Foreground,TopCentre,"sb\drop.png",0,0 C,0,20994,,250,250,210 MX,0,20994,,479 MY,0,20994,,0 F,2,20994,21041,0,0.5 F,1,21041,21791,0.5,0
Sprite,Foreground,TopCentre,"sb\drop.png",0,0 C,0,21088,,250,250,210 MX,0,21088,,461 MY,0,21088,,0 F,2,21088,21135,0,0.5 F,1,21135,21885,0.5,0
Sprite,Foreground,TopCentre,"sb\drop.png",0,0 C,0,21275,,250,250,210 MX,0,21275,,369 MY,0,21275,,0 F,2,21275,21322,0,0.5 F,1,21322,22072,0.5,0
Sprite,Foreground,TopCentre,"sb\drop.png",0,0 C,0,21463,,250,250,210 MX,0,21463,,260 MY,0,21463,,0 F,2,21463,21510,0,0.5 F,1,21510,22260,0.5,0
Sprite,Foreground,TopCentre,"sb\drop.png",0,0 C,0,21556,,250,250,210 MX,0,21556,,235 MY,0,21556,,0 F,2,21556,21603,0,0.5 F,1,21603,22353,0.5,0
Sprite,Foreground,TopCentre,"sb\drop.png",0,0 C,0,21650,,250,250,210 MX,0,21650,,210 MY,0,21650,,0 F,2,21650,21697,0,0.5 F,1,21697,22447,0.5,0
Sprite,Foreground,TopCentre,"sb\drop.png",0,0 C,0,21744,,250,250,210 MX,0,21744,,186 MY,0,21744,,0 F,2,21744,21791,0,0.5 F,1,21791,22541,0.5,0
Sprite,Foreground,TopCentre,"sb\drop.png",0,0 C,0,21838,,250,250,210 MX,0,21838,,167 MY,0,21838,,0 F,2,21838,21885,0,0.5 F,1,21885,22635,0.5,0
Sprite,Foreground,TopCentre,"sb\drop.png",0,0 C,0,22025,,250,250,210 MX,0,22025,,183 MY,0,22025,,0 F,2,22025,22072,0,0.5 F,1,22072,22822,0.5,0
Sprite,Foreground,TopCentre,"sb\drop.png",0,0 C,0,22119,,250,250,210 MX,0,22119,,195 MY,0,22119,,0 F,2,22119,22166,0,0.5 F,1,22166,22916,0.5,0
Sprite,Foreground,TopCentre,"sb\drop.png",0,0 C,0,22213,,250,250,210 MX,0,22213,,200 MY,0,22213,,0 F,2,22213,22260,0,0.5 F,1,22260,23010,0.5,0
Sprite,Foreground,TopCentre,"sb\drop.png",0,0 C,0,22306,,250,250,210 MX,0,22306,,200 MY,0,22306,,0 F,2,22306,22353,0,0.5 F,1,22353,23103,0.5,0
Sprite,Foreground,TopCentre,"sb\drop.png",0,0 C,0,22400,,250,250,210 MX,0,22400,,194 MY,0,22400,,0 F,2,22400,22447,0,0.5 F,1,22447,23197,0.5,0
Sprite,Foreground,TopCentre,"sb\drop.png",0,0 C,0,22588,,250,250,210 MX,0,22588,,450 MY,0,22588,,0 F,2,22588,22635,0,0.5 F,1,22635,23385,0.5,0
Sprite,Foreground,TopCentre,"sb\drop.png",0,0 C,0,22775,,250,250,210 MX,0,22775,,437 MY,0,22775,,0 F,2,22775,22822,0,0.5 F,1,22822,23572,0.5,0
Sprite,Foreground,TopCentre,"sb\drop.png",0,0 C,0,22869,,250,250,210 MX,0,22869,,460 MY,0,22869,,0 F,2,22869,22916,0,0.5 F,1,22916,23666,0.5,0
Sprite,Foreground,TopCentre,"sb\drop.png",0,0 C,0,22963,,250,250,210 MX,0,22963,,448 MY,0,22963,,0 F,2,22963,23010,0,0.5 F,1,23010,23760,0.5,0
Sprite,Foreground,TopCentre,"sb\drop.png",0,0 C,0,23150,,250,250,210 MX,0,23150,,204 MY,0,23150,,0 F,2,23150,23197,0,0.5 F,1,23197,23947,0.5,0
Sprite,Foreground,TopCentre,"sb\drop.png",0,0 C,0,23244,,250,250,210 MX,0,23244,,238 MY,0,23244,,0 F,2,23244,23291,0,0.5 F,1,23291,24041,0.5,0
Sprite,Foreground,TopCentre,"sb\drop.png",0,0 C,0,23338,,250,250,210 MX,0,23338,,283 MY,0,23338,,0 F,2,23338,23385,0,0.5 F,1,23385,24135,0.5,0
Sprite,Foreground,TopCentre,"sb\drop.png",0,0 C,0,23431,,250,250,210 MX,0,23431,,308 MY,0,23431,,0 F,2,23431,23478,0,0.5 F,1,23478,24228,0.5,0
Sprite,Foreground,TopCentre,"sb\drop.png",0,0 C,0,23525,,250,250,210 MX,0,23525,,347 MY,0,23525,,0 F,2,23525,23572,0,0.5 F,1,23572,24322,0.5,0
Sprite,Foreground,TopCentre,"sb\drop.png",0,0 C,0,23619,,250,250,210 MX,0,23619,,351 MY,0,23619,,0 F,2,23619,23666,0,0.5 F,1,23666,24416,0.5,0
Sprite,Foreground,TopCentre,"sb\drop.png",0,0 C,0,23713,,250,250,210 MX,0,23713,,329 MY,0,23713,,0 F,2,23713,23760,0,0.5 F,1,23760,24510,0.5,0
Sprite,Foreground,TopCentre,"sb\drop.png",0,0 C,0,24088,,250,250,210 MX,0,24088,,416 MY,0,24088,,0 F,2,24088,24135,0,0.5 F,1,24135,24885,0.5,0
Sprite,Foreground,TopCentre,"sb\drop.png",0,0 C,0,24275,,250,250,210 MX,0,24275,,188 MY,0,24275,,0 F,2,24275,24322,0,0.5 F,1,24322,25072,0.5,0
Sprite,Foreground,TopCentre,"sb\drop.png",0,0 C,0,24463,,250,250,210 MX,0,24463,,416 MY,0,24463,,0 F,2,24463,24510,0,0.5 F,1,24510,25260,0.5,0
Sprite,Foreground,TopCentre,"sb\drop.png",0,0 C,0,24650,,250,250,210 MX,0,24650,,442 MY,0,24650,,0 F,2,24650,24697,0,0.5 F,1,24697,25447,0.5,0
Sprite,Foreground,TopCentre,"sb\drop.png",0,0 C,0,24837,,250,250,210 MX,0,24837,,293 MY,0,24837,,0 F,2,24837,24884,0,0.5 F,1,24884,25634,0.5,0
Sprite,Foreground,TopCentre,"sb\drop.png",0,0 C,0,25025,,250,250,210 MX,0,25025,,539 MY,0,25025,,0 F,2,25025,25072,0,0.5 F,1,25072,25822,0.5,0
Sprite,Foreground,TopCentre,"sb\drop.png",0,0 C,0,25119,,250,250,210 MX,0,25119,,506 MY,0,25119,,0 F,2,25119,25166,0,0.5 F,1,25166,25916,0.5,0
Sprite,Foreground,TopCentre,"sb\drop.png",0,0 C,0,25213,,250,250,210 MX,0,25213,,473 MY,0,25213,,0 F,2,25213,25260,0,0.5 F,1,25260,26010,0.5,0
Sprite,Foreground,TopCentre,"sb\drop.png",0,0 C,0,25588,,250,250,210 MX,0,25588,,319 MY,0,25588,,0 F,2,25588,25635,0,0.5 F,1,25635,26385,0.5,0
Sprite,Foreground,Centre,"sb\hit.png",0,0 M,0,26385,,450,137 F,0,26385,27135,1,0 S,1,26385,27135,0.33,0.75
Sprite,Foreground,Centre,"sb\hit.png",0,0 M,0,27885,,260,195 F,0,27885,28635,1,0 S,1,27885,28635,0.33,0.75
Sprite,Foreground,Centre,"sb\hit.png",0,0 M,0,29385,,374,406 F,0,29385,30135,1,0 S,1,29385,30135,0.33,0.75
Sprite,Foreground,Centre,"sb\hit.png",0,0 M,0,30885,,464,364 F,0,30885,31635,1,0 S,1,30885,31635,0.33,0.75
Sprite,Foreground,Centre,"sb\hit.png",0,0 M,0,32385,,413,100 F,0,32385,33135,1,0 S,1,32385,33135,0.33,0.75
Sprite,Foreground,Centre,"sb\hit.png",0,0 M,0,33885,,460,142 F,0,33885,34635,1,0 S,1,33885,34635,0.33,0.75
Sprite,Foreground,Centre,"sb\hit.png",0,0 M,0,35385,,267,253 F,0,35385,36135,1,0 S,1,35385,36135,0.33,0.75
Sprite,Foreground,Centre,"sb\hit.png",0,0 M,0,36135,,478,329 F,0,36135,36885,1,0 S,1,36135,36885,0.33,0.75
Sprite,Foreground,Centre,"sb\hit.png",0,0 M,0,36697,,576,257 F,0,36697,37447,1,0 S,1,36697,37447,0.33,0.75
Sprite,Foreground,Centre,"sb\hit.png",0,0 M,0,37260,,283,142 F,0,37260,38010,1,0 S,1,37260,38010,0.33,0.75
Sprite,Foreground,Centre,"sb\hit.png",0,0 M,0,37822,,356,76 F,0,37822,38572,1,0 S,1,37822,38572,0.33,0.75
Sprite,Foreground,Centre,"sb\hit.png",0,0 M,0,38385,,129,172 F,0,38385,39135,1,0 S,1,38385,39135,0.33,0.75
Sprite,Foreground,Centre,"sb\hit.png",0,0 M,0,38385,,129,172 F,0,38385,39135,1,0 S,1,38385,39135,0.33,0.75
Sprite,Foreground,Centre,"sb\hit.png",0,0 M,0,38760,,159,297 F,0,38760,39510,1,0 S,1,38760,39510,0.33,0.75
Sprite,Foreground,Centre,"sb\Follow_Line1.png",0,0 C,0,55635,,255,255,255 M,0,55635,55728,537,398,551.9435,334.451 M,0,55728,55822,551.9435,334.451,533.9281,271.709 M,0,55822,55916,533.9281,271.709,488,226 M,1,55916,56010,488,226,276,277 M,0,56010,56033,276,277,300.6159,274.7914 M,0,56033,56056,300.6159,274.7914,324.4297,268.1863 M,0,56056,56080,324.4297,268.1863,346.6629,257.4011 M,0,56080,56103,346.6629,257.4011,366.5887,242.7892 M,0,56103,56127,366.5887,242.7892,383.5558,224.829 M,0,56127,56150,383.5558,224.829,397.01,204.1081 M,0,56150,56174,397.01,204.1081,406.5118,181.3046 M,0,56174,56197,406.5118,181.3046,411.7509,157.1642 M,0,56197,56220,411.7509,157.1642,412.5568,132.4767 M,0,56220,56244,412.5568,132.4767,408.9034,108.0492 M,0,56244,56267,408.9034,108.0492,400.9109,84.68063 M,0,56267,56291,400.9109,84.68063,388.8412,63.13484 M,1,56291,56385,388.8412,63.13484,216,213 C,0,56385,,255,165,0 M,0,56385,56408,216,213,214.8467,203.4443 M,0,56408,56431,214.8467,203.4443,213.6935,193.8887 M,0,56431,56455,213.6935,193.8887,212.5402,184.333 M,0,56455,56478,212.5402,184.333,211.3869,174.7774 M,0,56478,56502,211.3869,174.7774,210.2337,165.2217 M,0,56502,56525,210.2337,165.2217,209.0804,155.6661 M,1,56525,56572,209.0804,155.6661,179,326 M,0,56572,56595,179,326,173.5664,304.7706 M,0,56595,56618,173.5664,304.7706,163.893,285.1277 M,0,56618,56642,163.893,285.1277,149.8252,268.3449 M,0,56642,56665,149.8252,268.3449,132.4929,255.0031 M,1,56665,56760,132.4929,255.0031,310,391 M,0,56760,56783,310,391,323.257,373.5543 M,0,56783,56806,323.257,373.5543,339.9093,359.358 M,0,56806,56830,339.9093,359.358,359.3875,349.3303 M,0,56830,56853,359.3875,349.3303,380.6829,344.0513 M,1,56853,56947,380.6829,344.0513,153,405 M,0,56947,56970,153,405,137.7413,389.2691 M,0,56970,56993,137.7413,389.2691,119.6137,376.986 M,0,56993,57017,119.6137,376.986,99.103,369.307 M,0,57017,57040,99.103,369.307,77.45102,366.192 M,1,57040,57135,77.45102,366.192,266,317 C,0,57135,,255,165,0 M,0,57135,57158,266,317,268.6573,295.2538 M,0,57158,57181,268.6573,295.2538,275.9664,274.6331 M,0,57181,57205,275.9664,274.6331,287.8863,256.2566 M,0,57205,57228,287.8863,256.2566,303.8021,241.1585 M,1,57228,57322,303.8021,241.1585,233,440 M,1,57322,57510,233,440,417,224 M,1,57510,57603,417,224,452,265 M,1,57603,57697,452,265,472,317 M,0,57697,57720,472,317,496.5924,319.0528 M,0,57720,57743,496.5924,319.0528,520.9113,314.9115 M,0,57743,57767,520.9113,314.9115,543.4224,304.8417 M,0,57767,57790,543.4224,304.8417,562.7652,289.5332 M,1,57790,57885,562.7652,289.5332,525,127 M,0,57885,57908,525,127,500.3635,139.1097 M,0,57908,57931,500.3635,139.1097,473.432,143.859 M,0,57931,57955,473.432,143.859,446.3595,139.4269 M,0,57955,57978,446.3595,139.4269,419.3004,134.8512 M,0,57978,58002,419.3004,134.8512,392.1764,138.5569 M,0,58002,58025,392.1764,138.5569,366.8693,149.201 M,1,58025,58072,366.8693,149.201,294,241 M,0,58072,58095,294,241,295.2239,231.4531 M,0,58095,58118,295.2239,231.4531,296.4479,221.9063 M,0,58118,58142,296.4479,221.9063,297.6719,212.3594 M,0,58142,58165,297.6719,212.3594,298.8958,202.8126 M,1,58165,58260,298.8958,202.8126,389,324 M,1,58260,58353,389,324,328,312 M,1,58353,58447,328,312,266,317 M,1,58447,58541,266,317,208,340 M,1,58541,58635,208,340,159,377 C,0,58635,,255,255,255 M,0,58635,58658,159,377,172.3231,363.1407 M,0,58658,58681,172.3231,363.1407,183.7413,347.6869 M,0,58681,58705,183.7413,347.6869,193.2712,330.9901 M,0,58705,58728,193.2712,330.9901,200.2133,313.0634 M,0,58728,58752,200.2133,313.0634,204.7829,294.4005 M,0,58752,58775,204.7829,294.4005,207.123,275.3195 M,0,58775,58799,207.123,275.3195,206.609,256.103 M,0,58799,58822,206.609,256.103,203.6222,237.1228 M,0,58822,58845,203.6222,237.1228,198.4101,218.62 M,0,58845,58869,198.4101,218.62,190.5201,201.0911 M,0,58869,58892,190.5201,201.0911,180.44,184.7342 M,0,58892,58916,180.44,184.7342,168.4856,169.6819 M,1,58916,59010,168.4856,169.6819,282,396 M,0,59010,59033,282,396,301.9579,414.8162 M,0,59033,59056,301.9579,414.8162,325.3443,429.1121 M,0,59056,59080,325.3443,429.1121,351.1234,438.4427 M,0,59080,59103,351.1234,438.4427,378.3216,441.915 M,0,59103,59127,378.3216,441.915,405.6382,439.7164 M,0,59127,59150,405.6382,439.7164,431.9378,432.0131 M,0,59150,59174,431.9378,432.0131,455.9669,418.8232 M,0,59174,59197,455.9669,418.8232,476.8896,401.1025 M,0,59197,59220,476.8896,401.1025,493.4207,379.2249 M,0,59220,59244,493.4207,379.2249,505.0888,354.427 M,0,59244,59267,505.0888,354.427,511.4932,327.7793 M,0,59267,59291,511.4932,327.7793,512.1663,300.3532 M,1,59291,59385,512.1663,300.3532,396,97 C,0,59385,,255,165,0 M,0,59385,59408,396,97,394.8268,106.5532 M,0,59408,59431,394.8268,106.5532,393.6536,116.1065 M,0,59431,59455,393.6536,116.1065,392.4804,125.6597 M,0,59455,59478,392.4804,125.6597,391.3072,135.2129 M,0,59478,59502,391.3072,135.2129,390.134,144.7662 M,0,59502,59525,390.134,144.7662,389,154 M,1,59525,59572,389,154,293,215 M,0,59572,59595,293,215,297.0788,193.4782 M,0,59595,59618,297.0788,193.4782,296.4583,171.5972 M,0,59618,59642,296.4583,171.5972,290.3647,150.5725 M,0,59642,59665,290.3647,150.5725,279.7551,131.455 M,1,59665,59760,279.7551,131.455,430,259 M,0,59760,59783,430,259,441.1234,240.1312 M,0,59783,59806,441.1234,240.1312,456.1302,224.2176 M,0,59806,59830,456.1302,224.2176,474.5122,212.3045 M,0,59830,59853,474.5122,212.3045,495.2589,205.1827 M,1,59853,59947,495.2589,205.1827,268,378 M,1,59947,60041,268,378,215,403 M,1,60041,60135,215,403,157,403 C,0,60135,,255,165,0 M,0,60135,60158,157,403,144.1549,392.9419 M,0,60158,60181,144.1549,392.9419,129.2367,386.3457 M,1,60181,60228,129.2367,386.3457,163,392 M,0,60228,60251,163,392,146.0829,386.6699 M,0,60251,60274,146.0829,386.6699,128.4264,384.9934 M,1,60274,60322,128.4264,384.9934,166,380 M,0,60322,60345,166,380,146.9517,380.6426 M,0,60345,60368,146.9517,380.6426,128.5918,385.7513 M,1,60368,60416,128.5918,385.7513,162,365 M,0,60416,60439,162,365,142.7655,372.0189 M,0,60439,60462,142.7655,372.0189,126.0759,383.9319 M,1,60462,60510,126.0759,383.9319,156,353 M,0,60510,60533,156,353,139.44,367.1851 M,0,60533,60556,139.44,367.1851,128,385 M,1,60556,60603,128,385,140,341 M,0,60603,60626,140,341,128.4502,361.1066 M,0,60626,60649,128.4502,361.1066,123,383 M,1,60649,60697,123,383,127,334 M,0,60697,60720,127,334,123.3843,358.3475 M,0,60720,60743,123.3843,358.3475,125.9617,382.8262 M,1,60743,60791,125.9617,382.8262,105,337 M,0,60791,60814,105,337,110.2453,362.4601 M,0,60814,60837,110.2453,362.4601,121.3534,385.9589 M,1,60837,60885,121.3534,385.9589,79,347 C,0,60885,,0,128,0 M,0,60885,60908,79,347,97.69839,326.9213 M,0,60908,60931,97.69839,326.9213,112.0295,303.5455 M,0,60931,60955,112.0295,303.5455,121.4311,277.7993 M,0,60955,60978,121.4311,277.7993,125.676,250.7136 M,0,60978,61002,125.676,250.7136,124.1639,223.332 M,0,61002,61025,124.1639,223.332,117.249,196.8074 M,1,61025,61072,117.249,196.8074,136,109 M,0,61072,61095,136,109,126.4051,109.4998 M,0,61095,61118,126.4051,109.4998,116.8362,109.5357 M,0,61118,61142,116.8362,109.5357,107.3124,108.6062 M,0,61142,61165,107.3124,108.6062,97.81239,107.1699 M,1,61165,61260,97.81239,107.1699,215,239 M,0,61260,61283,215,239,235.4135,241.8509 M,0,61283,61306,235.4135,241.8509,256.0126,241.7087 M,0,61306,61330,256.0126,241.7087,276.1875,237.6199 M,0,61330,61353,276.1875,237.6199,294.9878,229.2365 M,0,61353,61377,294.9878,229.2365,311.9139,217.4858 M,0,61377,61400,311.9139,217.4858,327.5695,204.0621 M,0,61400,61424,327.5695,204.0621,343.2768,190.7002 M,0,61424,61447,343.2768,190.7002,360.3773,179.2125 M,0,61447,61470,360.3773,179.2125,379.4312,171.4422 M,0,61470,61494,379.4312,171.4422,399.7732,168.3104 M,0,61494,61517,399.7732,168.3104,420.3515,169.2548 M,0,61517,61541,420.3515,169.2548,440.5901,173.1623 M,1,61541,61635,440.5901,173.1623,332,56 C,0,61635,,255,255,255 M,0,61635,61658,332,56,330.9543,73.83775 M,0,61658,61681,330.9543,73.83775,331.2224,91.70151 M,0,61681,61705,331.2224,91.70151,332.8026,109.4952 M,0,61705,61728,332.8026,109.4952,335.6862,127.1233 M,0,61728,61752,335.6862,127.1233,339.8576,144.4909 M,0,61752,61775,339.8576,144.4909,345.1943,161.5397 M,0,61775,61799,345.1943,161.5397,351.9165,178.0936 M,0,61799,61822,351.9165,178.0936,359.8362,194.1066 M,0,61822,61845,359.8362,194.1066,368.9107,209.4927 M,0,61845,61869,368.9107,209.4927,379.0909,224.1694 M,0,61869,61892,379.0909,224.1694,390.2279,238.1393 M,0,61892,61916,390.2279,238.1393,402.4914,251.1339 M,1,61916,62010,402.4914,251.1339,542,406 M,0,62010,62033,542,406,529.9318,384.5028 M,0,62033,62056,529.9318,384.5028,513.4052,366.2662 M,0,62056,62080,513.4052,366.2662,493.0408,352.4452 M,0,62080,62103,493.0408,352.4452,469.9889,343.8208 M,0,62103,62127,469.9889,343.8208,445.5515,340.8806 M,0,62127,62150,445.5515,340.8806,421.0448,343.5473 M,1,62150,62197,421.0448,343.5473,311,413 M,0,62197,62220,311,413,333.0011,416.8535 M,0,62220,62243,333.0011,416.8535,344.947,399.1689 M,0,62243,62267,344.947,399.1689,332.5808,381.7664 M,0,62267,62290,332.5808,381.7664,310.7618,386.3401 M,1,62290,62385,310.7618,386.3401,78,331 C,0,62385,,255,165,0 M,0,62385,62408,78,331,107.8511,335.7561 M,0,62408,62431,107.8511,335.7561,138.035,337.2789 M,0,62431,62455,138.035,337.2789,168.2041,335.4326 M,0,62455,62478,168.2041,335.4326,197.985,330.2391 M,0,62478,62502,197.985,330.2391,226.9552,321.614 M,0,62502,62525,226.9552,321.614,254.82,309.9137 M,0,62525,62549,254.82,309.9137,281.2119,295.1833 M,0,62549,62572,281.2119,295.1833,305.8037,277.6047 M,0,62572,62595,305.8037,277.6047,328.1914,257.2966 M,0,62595,62619,328.1914,257.2966,348.239,234.6823 M,0,62619,62642,348.239,234.6823,365.6465,209.9754 M,0,62642,62666,365.6465,209.9754,380.1977,183.4813 M,1,62666,62760,380.1977,183.4813,329,83 M,0,62760,62783,329,83,317.7282,90.73002 M,0,62783,62806,317.7282,90.73002,307.8497,100.1501 M,0,62806,62830,307.8497,100.1501,300.5959,111.7193 M,0,62830,62853,300.5959,111.7193,295.5615,124.3657 M,1,62853,62947,295.5615,124.3657,347,401 M,0,62947,62970,347,401,323.8706,386.1514 M,0,62970,62993,323.8706,386.1514,302.2367,369.2044 M,0,62993,63017,302.2367,369.2044,282.2416,350.3506 M,0,63017,63040,282.2416,350.3506,264.2156,329.6052 M,0,63040,63064,264.2156,329.6052,248.1261,307.3214 M,0,63064,63087,248.1261,307.3214,234.3632,283.5306 M,0,63087,63111,234.3632,283.5306,222.8903,258.5588 M,0,63111,63134,222.8903,258.5588,213.7561,232.6396 M,0,63134,63157,213.7561,232.6396,207.2299,205.9432 C,0,63135,,255,165,0 M,0,63157,63181,207.2299,205.9432,203.1386,178.765 M,0,63181,63204,203.1386,178.765,201.7968,151.3132 M,0,63204,63228,201.7968,151.3132,202.9314,123.8505 M,1,63228,63322,202.9314,123.8505,65,264 M,1,63322,63416,65,264,139,237 M,1,63416,63510,139,237,220,254 M,0,63510,63533,220,254,249.3692,260.9092 M,0,63533,63556,249.3692,260.9092,279.5093,261.7901 M,0,63556,63580,279.5093,261.7901,309.1877,256.3878 M,0,63580,63603,309.1877,256.3878,337,245 M,1,63603,63697,337,245,238,440 M,0,63697,63720,238,440,229.2718,411.1137 M,0,63720,63743,229.2718,411.1137,215.1291,384.4748 M,0,63743,63767,215.1291,384.4748,195.9227,361.2018 M,0,63767,63790,195.9227,361.2018,172.4018,342.2736 M,1,63790,63885,172.4018,342.2736,398,331 M,0,63885,63908,398,331,377.1487,352.8089 M,0,63908,63931,377.1487,352.8089,361.0423,378.3022 M,0,63931,63955,361.0423,378.3022,350.5097,406.5705 M,0,63955,63978,350.5097,406.5705,346,436 M,1,63978,64072,346,436,294,179 M,1,64072,64166,294,179,359,234 M,1,64166,64260,359,234,445,237 M,0,64260,64283,445,237,458.6933,216.4906 M,0,64283,64306,458.6933,216.4906,465.949,192.9256 M,0,64306,64330,465.949,192.9256,466.1631,168.2735 M,0,64330,64353,466.1631,168.2735,459.32,144.5931 M,0,64353,64377,459.32,144.5931,445.9929,123.8615 M,0,64377,64400,445.9929,123.8615,427.2968,107.8088 M,0,64400,64424,427.2968,107.8088,404.7941,97.77413 M,0,64424,64447,404.7941,97.77413,380.365,94.59375 M,0,64447,64470,380.365,94.59375,356.0499,98.53133 M,0,64470,64494,356.0499,98.53133,333.879,109.2562 M,0,64494,64517,333.879,109.2562,315.7032,125.8709 M,0,64517,64541,315.7032,125.8709,303.0391,146.9867 M,1,64541,64635,303.0391,146.9867,153,319 C,0,64635,,255,255,255 M,0,64635,64658,153,319,169.9251,313.2606 M,0,64658,64681,169.9251,313.2606,187.1238,308.4067 M,0,64681,64705,187.1238,308.4067,204.55,304.4511 M,0,64705,64728,204.55,304.4511,222.1571,301.4044 M,0,64728,64752,222.1571,301.4044,239.8981,299.2747 M,0,64752,64775,239.8981,299.2747,257.7215,297.9793 M,0,64775,64799,257.7215,297.9793,275.5911,297.7325 M,0,64799,64822,275.5911,297.7325,293.4484,298.4123 M,0,64822,64845,293.4484,298.4123,311.2455,300.0168 M,0,64845,64869,311.2455,300.0168,328.9348,302.5418 M,0,64869,64892,328.9348,302.5418,346.4691,305.9804 M,0,64892,64916,346.4691,305.9804,363,310 M,1,64916,65010,363,310,520,404 M,0,65010,65033,520,404,496.2838,411.0308 M,0,65033,65056,496.2838,411.0308,472.0639,416.0305 M,0,65056,65080,472.0639,416.0305,447.4937,418.8419 M,0,65080,65103,447.4937,418.8419,422.7704,419.4421 M,0,65103,65127,422.7704,419.4421,398.0927,417.8265 M,0,65127,65150,398.0927,417.8265,373.6356,414.1204 M,1,65150,65197,373.6356,414.1204,357,426 M,0,65197,65220,357,426,370.2529,429.6439 M,0,65220,65243,370.2529,429.6439,383.6519,432.6963 M,0,65243,65267,383.6519,432.6963,397.1989,435.0238 M,0,65267,65290,397.1989,435.0238,410.8694,436.4473 M,0,65290,65314,410.8694,436.4473,424.5883,437.2299 M,0,65314,65337,424.5883,437.2299,438.3322,437.2733 M,0,65337,65361,438.3322,437.2733,452.0508,436.438 M,0,65361,65384,452.0508,436.438,465.7084,434.9293 M,0,65384,65407,465.7084,434.9293,479.2669,432.6877 C,0,65385,,255,165,0 C,0,65385,,0,128,0 M,0,65407,65431,479.2669,432.6877,492.6887,429.7191 M,0,65431,65454,492.6887,429.7191,505.8797,425.8585 M,0,65454,65478,505.8797,425.8585,518.876,421.3947 M,1,65478,65572,518.876,421.3947,536,275 M,1,65572,65666,536,275,521,208 M,1,65666,65760,521,208,515,136 M,0,65760,65783,515,136,507.2225,153.5836 M,0,65783,65806,507.2225,153.5836,497.3205,170.0538 M,0,65806,65830,497.3205,170.0538,485.4476,185.1582 M,0,65830,65853,485.4476,185.1582,471.8788,198.7648 M,1,65853,65947,471.8788,198.7648,289,112 M,0,65947,65970,289,112,294.1049,130.5396 M,0,65970,65993,294.1049,130.5396,301.3599,148.339 M,0,65993,66017,301.3599,148.339,310.6633,165.1529 M,0,66017,66040,310.6633,165.1529,321,180 M,1,66040,66135,321,180,413,56 C,0,66135,,255,165,0 M,1,66135,66322,413,56,387,266 M,0,66322,66345,387,266,376.705,266.1799 M,0,66345,66368,376.705,266.1799,366.4805,267.3288 M,0,66368,66392,366.4805,267.3288,356.4147,269.4359 M,0,66392,66415,356.4147,269.4359,347,272 M,1,66415,66510,347,272,210,381 M,1,66510,66603,210,381,179,346 M,1,66603,66697,179,346,141,320 M,0,66697,66720,141,320,131.4579,316.1474 M,0,66720,66743,131.4579,316.1474,121.5504,313.407 M,0,66743,66767,121.5504,313.407,111.4036,311.8116 M,0,66767,66790,111.4036,311.8116,101.137,311.0258 M,1,66790,66885,101.137,311.0258,157,141 C,0,66885,,0,128,0 M,1,66885,66978,157,141,195,210 M,1,66978,67072,195,210,257,261 M,0,67072,67095,257,261,274.5363,250.2409 M,0,67095,67118,274.5363,250.2409,293.6379,242.6446 M,0,67118,67142,293.6379,242.6446,313.7441,238.4117 M,0,67142,67165,313.7441,238.4117,334.2967,237.9844 M,1,67165,67260,334.2967,237.9844,389,407 M,0,67260,67283,389,407,404.9923,402.9385 M,0,67283,67306,404.9923,402.9385,420.9846,398.8769 M,0,67306,67330,420.9846,398.8769,436.9769,394.8154 M,0,67330,67353,436.9769,394.8154,451.0319,390.7495 M,0,67353,67377,451.0319,390.7495,435.0579,386.6164 M,0,67377,67400,435.0579,386.6164,419.084,382.4833 M,0,67400,67424,419.084,382.4833,403.11,378.3501 M,0,67424,67447,403.11,378.3501,387.136,374.217 M,0,67447,67470,387.136,374.217,371.1621,370.0839 M,0,67470,67494,371.1621,370.0839,355.1881,365.9508 M,0,67494,67517,355.1881,365.9508,339.2142,361.8177 M,0,67517,67541,339.2142,361.8177,323.2402,357.6845 M,1,67541,67635,323.2402,357.6845,210,381 C,0,67635,,255,255,255 M,0,67635,67658,210,381,192.5004,370.1613 M,0,67658,67681,192.5004,370.1613,176.7271,356.9372 M,0,67681,67705,176.7271,356.9372,163.486,341.1827 M,0,67705,67728,163.486,341.1827,152.6918,323.6672 M,0,67728,67752,152.6918,323.6672,145.029,304.5708 M,0,67752,67775,145.029,304.5708,140.3101,284.5516 M,0,67775,67799,140.3101,284.5516,138.7415,264.0173 M,0,67799,67822,138.7415,264.0173,140.8227,243.5387 M,0,67822,67845,140.8227,243.5387,145.806,223.5679 M,0,67845,67869,145.806,223.5679,154.1715,204.7651 M,0,67869,67892,154.1715,204.7651,165.1929,187.3918 M,0,67892,67916,165.1929,187.3918,179.0055,172.1407 M,1,67916,68010,179.0055,172.1407,389,407 M,0,68010,68033,389,407,412.0644,410.5063 M,0,68033,68056,412.0644,410.5063,435.3738,410.3716 M,0,68056,68080,435.3738,410.3716,458.34,406.3766 M,0,68080,68103,458.34,406.3766,480.3286,398.6315 M,0,68103,68127,480.3286,398.6315,500.7323,387.3492 M,0,68127,68150,500.7323,387.3492,518.9871,372.8405 M,0,68150,68174,518.9871,372.8405,534.5883,355.5053 M,0,68174,68197,534.5883,355.5053,547.1039,335.8213 M,0,68197,68220,547.1039,335.8213,556.1871,314.3314 M,0,68220,68244,556.1871,314.3314,561.5856,291.6282 M,0,68244,68267,561.5856,291.6282,563.1482,268.3385 M,0,68267,68291,563.1482,268.3385,560.5904,245.1508 M,1,68291,68385,560.5904,245.1508,336,56 C,0,68385,,255,165,0 M,1,68385,68478,336,56,347,100 M,1,68478,68572,347,100,345,138 M,0,68572,68595,345,138,338.2805,158.9271 M,0,68595,68618,338.2805,158.9271,333.703,180.4204 M,0,68618,68642,333.703,180.4204,331.6801,202.3031 M,0,68642,68665,331.6801,202.3031,331.9719,224.271 M,1,68665,68760,331.9719,224.271,389,407 M,0,68760,68783,389,407,385.9555,385.2325 M,0,68783,68806,385.9555,385.2325,385.1087,363.2729 M,0,68806,68830,385.1087,363.2729,386.8491,341.3658 M,0,68830,68853,386.8491,341.3658,390.8688,319.7663 M,1,68853,68947,390.8688,319.7663,438,197 M,0,68947,68970,438,197,438.6633,218.9679 M,0,68970,68993,438.6633,218.9679,441.6143,240.7423 M,0,68993,69017,441.6143,240.7423,447.1855,261.9985 M,0,69017,69040,447.1855,261.9985,455.0425,282.513 M,1,69040,69135,455.0425,282.513,494,390 C,0,69135,,255,165,0 M,0,69135,69158,494,390,498.1837,368.426 M,0,69158,69181,498.1837,368.426,504.6848,347.4384 M,0,69181,69205,504.6848,347.4384,513.7937,327.4435 M,0,69205,69228,513.7937,327.4435,525.1101,308.618 M,1,69228,69322,525.1101,308.618,531,218 M,0,69322,69345,531,218,539.3768,238.3214 M,0,69345,69368,539.3768,238.3214,549.7327,257.7036 M,0,69368,69392,549.7327,257.7036,562.1102,275.8731 M,0,69392,69415,562.1102,275.8731,576.5594,292.436 M,1,69415,69510,576.5594,292.436,389,407 M,1,69510,69604,389,407,301,396 M,1,69604,69697,301,396,214,384 M,0,69697,69720,214,384,212.3409,362.0627 M,0,69720,69743,212.3409,362.0627,210.6817,340.1253 M,0,69743,69767,210.6817,340.1253,209.0226,318.188 M,0,69767,69790,209.0226,318.188,207.3635,296.2506 M,1,69790,69885,207.3635,296.2506,423,201 M,0,69885,69908,423,201,421.2356,222.9291 M,0,69908,69931,421.2356,222.9291,419.4712,244.8583 M,0,69931,69955,419.4712,244.8583,417.7068,266.7874 M,0,69955,69978,417.7068,266.7874,416,288 M,1,69978,70072,416,288,314,281 M,0,70072,70095,314,281,312.3409,259.0627 M,0,70095,70118,312.3409,259.0627,310.6818,237.1253 M,0,70118,70142,310.6818,237.1253,309.0226,215.188 M,0,70142,70165,309.0226,215.188,307.3635,193.2506 M,1,70165,70260,307.3635,193.2506,196,56 M,1,70260,70353,196,56,204,134 M,1,70353,70447,204,134,177,208 M,1,70447,70540,177,208,190,285 M,1,70540,70635,190,285,278,344 C,0,70635,,255,255,255 M,0,70635,70658,278,344,281.4668,365.7251 M,0,70658,70681,281.4668,365.7251,284.9335,387.4503 M,0,70681,70705,284.9335,387.4503,288.4003,409.1754 M,0,70705,70728,288.4003,409.1754,291.8671,430.9005 M,1,70728,70822,291.8671,430.9005,422,440 M,1,70822,71010,422,440,517,262 M,0,71010,71033,517,262,501.34,239.4536 M,0,71033,71056,501.34,239.4536,482.0746,219.9168 M,0,71056,71080,482.0746,219.9168,459.8204,203.8643 M,0,71080,71103,459.8204,203.8643,435.0338,192.0869 M,0,71103,71127,435.0338,192.0869,408.6434,184.5378 M,0,71127,71150,408.6434,184.5378,381.3181,181.9412 M,0,71150,71174,381.3181,181.9412,353.9619,184.0405 M,0,71174,71197,353.9619,184.0405,327.3457,190.6995 M,0,71197,71220,327.3457,190.6995,302.3511,202.024 M,0,71220,71244,302.3511,202.024,279.5681,217.3258 M,0,71244,71267,279.5681,217.3258,259.9457,236.515 M,0,71267,71291,259.9457,236.515,243.8883,258.7607 M,1,71291,71385,243.8883,258.7607,490,379 C,0,71385,,255,165,0 M,0,71385,71408,490,379,511.7646,376.1877 M,0,71408,71431,511.7646,376.1877,532.737,369.7835 M,0,71431,71455,532.737,369.7835,552.2386,359.7192 M,0,71455,71478,552.2386,359.7192,569.4274,346.084 M,1,71478,71572,569.4274,346.084,358,377 M,0,71572,71595,358,377,336.1924,374.5963 M,0,71595,71618,336.1924,374.5963,315.162,368.4104 M,0,71618,71642,315.162,368.4104,295.6521,358.3699 M,0,71642,71665,295.6521,358.3699,278.6031,344.5696 M,1,71665,71760,278.6031,344.5696,517,262 M,0,71760,71783,517,262,532.3502,246.334 M,0,71783,71806,532.3502,246.334,544.5316,228.1192 M,0,71806,71830,544.5316,228.1192,552.8722,207.8303 M,0,71830,71853,552.8722,207.8303,556.6543,186.2317 M,1,71853,71947,556.6543,186.2317,331,260 M,1,71947,72041,331,260,290,184 M,1,72041,72135,290,184,321,103 C,0,72135,,255,165,0 M,0,72135,72158,321,103,346.6503,127.2596 M,0,72158,72181,346.6503,127.2596,356.8527,160.9967 M,1,72181,72228,356.8527,160.9967,388,115 M,0,72228,72251,388,115,391.2935,150.1606 M,0,72251,72274,391.2935,150.1606,377.0054,182.3858 M,1,72274,72322,377.0054,182.3858,430,166 M,0,72322,72345,430,166,409.7739,194.9833 M,0,72345,72368,409.7739,194.9833,378.2992,210.9253 M,1,72368,72416,378.2992,210.9253,429,234 M,0,72416,72439,429,234,395.1608,244.0621 M,0,72439,72462,395.1608,244.0621,360.8895,235.8009 M,1,72462,72510,360.8895,235.8009,359,266 M,0,72510,72533,359,266,333.3497,290.2596 M,0,72533,72556,333.3497,290.2596,323.1472,323.9967 M,1,72556,72603,323.1472,323.9967,292,278 M,0,72603,72626,292,278,288.7065,313.1606 M,0,72626,72649,288.7065,313.1606,302.9946,345.3858 M,1,72649,72697,302.9946,345.3858,250,329 M,0,72697,72720,250,329,270.2261,357.9833 M,0,72720,72743,270.2261,357.9833,301.7008,373.9254 M,1,72743,72791,301.7008,373.9254,251,397 M,0,72791,72814,251,397,284.8392,407.062 M,0,72814,72837,284.8392,407.062,319.1105,398.8009 M,1,72837,72885,319.1105,398.8009,309,440 C,0,72885,,0,128,0 M,0,72885,72908,309,440,332.4799,432.1734 M,0,72908,72931,332.4799,432.1734,355.9598,424.3467 M,0,72931,72955,355.9598,424.3467,379.4397,416.5201 M,0,72955,72978,379.4397,416.5201,402.9196,408.6935 M,0,72978,73002,402.9196,408.6935,379.4397,416.5201 M,0,73002,73025,379.4397,416.5201,355.9598,424.3467 M,0,73025,73049,355.9598,424.3467,332.4799,432.1734 M,0,73049,73072,332.4799,432.1734,309,440 M,1,73072,73260,309,440,107,274 M,0,73260,73283,107,274,106.3021,267.1605 M,0,73283,73306,106.3021,267.1605,105.6042,260.321 M,0,73306,73330,105.6042,260.321,104.9063,253.4816 M,0,73330,73353,104.9063,253.4816,104.2084,246.6421 M,0,73353,73377,104.2084,246.6421,103.5105,239.8026 M,0,73377,73400,103.5105,239.8026,102.8126,232.9631 M,0,73400,73424,102.8126,232.9631,102.1147,226.1236 M,0,73424,73447,102.1147,226.1236,104.3221,230.2554 M,0,73447,73470,104.3221,230.2554,107.1008,236.5439 M,0,73470,73494,107.1008,236.5439,109.8794,242.8323 M,0,73494,73517,109.8794,242.8323,112.658,249.1208 M,0,73517,73541,112.658,249.1208,115.4367,255.4093 M,0,73541,73564,115.4367,255.4093,118.2153,261.6978 M,0,73564,73588,118.2153,261.6978,120.9939,267.9862 M,1,73588,73635,120.9939,267.9862,64,354 C,0,73635,,255,255,255 M,0,73635,73658,64,354,63.48503,332.0116 M,0,73658,73681,63.48503,332.0116,64.15883,310.0294 M,0,73681,73705,64.15883,310.0294,66.10425,288.1216 M,0,73705,73728,66.10425,288.1216,69.4001,266.3762 M,0,73728,73752,69.4001,266.3762,73.90643,244.851 M,0,73752,73775,73.90643,244.851,79.65154,223.6221 M,0,73775,73799,79.65154,223.6221,86.61654,202.76 M,0,73799,73822,86.61654,202.76,94.85883,182.369 M,0,73822,73845,94.85883,182.369,104.2265,162.4722 M,0,73845,73869,104.2265,162.4722,114.7307,143.1503 M,0,73869,73892,114.7307,143.1503,126.3368,124.4676 M,0,73892,73916,126.3368,124.4676,139.0773,106.5399 M,1,73916,74010,139.0773,106.5399,265,182 M,0,74010,74033,265,182,278.6611,164.8137 M,0,74033,74056,278.6611,164.8137,294.7557,149.8994 M,0,74056,74080,294.7557,149.8994,313.0779,137.7889 M,0,74080,74103,313.0779,137.7889,333.2669,129.1681 M,1,74103,74197,333.2669,129.1681,480,151 M,1,74197,74385,480,151,378,294 C,0,74385,,255,165,0 M,0,74385,74408,378,294,398.4902,286.1152 M,0,74408,74431,398.4902,286.1152,419.9238,281.4184 M,0,74431,74455,419.9238,281.4184,441.8526,280.2585 M,0,74455,74478,441.8526,280.2585,463.6325,283.0017 M,1,74478,74572,463.6325,283.0017,576,358 M,1,74572,74760,576,358,349,434 M,1,74760,74853,349,434,302,370 M,1,74853,74947,302,370,255,305 M,0,74947,74970,255,305,233.5449,309.8661 M,0,74970,74993,233.5449,309.8661,212.0898,314.7322 M,0,74993,75017,212.0898,314.7322,190.6347,319.5983 M,0,75017,75040,190.6347,319.5983,169.1796,324.4644 M,1,75040,75135,169.1796,324.4644,302,193 C,0,75135,,255,165,0 M,0,75135,75158,302,193,323.482,188.254 M,0,75158,75181,323.482,188.254,344.964,183.508 M,0,75181,75205,344.964,183.508,366.4459,178.7619 M,0,75205,75228,366.4459,178.7619,387.9279,174.0159 M,1,75228,75322,387.9279,174.0159,222,56 M,1,75322,75416,222,56,208,134 M,1,75416,75510,208,134,194,212 M,0,75510,75533,194,212,172.5449,216.8661 M,0,75533,75556,172.5449,216.8661,151.0898,221.7322 M,0,75556,75580,151.0898,221.7322,129.6347,226.5983 M,0,75580,75603,129.6347,226.5983,108.1796,231.4644 M,1,75603,75697,108.1796,231.4644,356,284 M,0,75697,75720,356,284,377.4152,278.9611 M,0,75720,75743,377.4152,278.9611,398.8304,273.9223 M,0,75743,75767,398.8304,273.9223,420.2455,268.8834 M,0,75767,75790,420.2455,268.8834,441,264 M,1,75790,75885,441,264,545,90 M,1,75885,75978,545,90,556,158 M,1,75978,76072,556,158,565,227 M,1,76072,76166,565,227,573,297 M,1,76166,76260,573,297,532,244 M,1,76260,76353,532,244,473,296 M,1,76353,76447,473,296,413,348 M,1,76447,76541,413,348,349,395 M,1,76541,76635,349,395,256,337 C,0,76635,,255,255,255 M,0,76635,76658,256,337,242.6159,319.5568 M,0,76658,76681,242.6159,319.5568,230.7255,301.0673 M,0,76681,76705,230.7255,301.0673,220.5274,281.5863 M,0,76705,76728,220.5274,281.5863,212.2975,261.1989 M,0,76728,76752,212.2975,261.1989,205.8037,240.198 M,0,76752,76775,205.8037,240.198,201.2061,218.6967 M,0,76775,76799,201.2061,218.6967,198.73,196.8513 M,0,76799,76822,198.73,196.8513,198.1084,174.8789 M,0,76822,76845,198.1084,174.8789,199.4477,152.9337 M,0,76845,76869,199.4477,152.9337,202.9055,131.2225 M,0,76869,76892,202.9055,131.2225,208.2014,109.8894 M,0,76892,76916,208.2014,109.8894,215.3787,89.10921 M,1,76916,77010,215.3787,89.10921,363,74 M,0,77010,77033,363,74,378.8904,61.64877 M,0,77033,77056,378.8904,61.64877,397.8479,67.77702 M,0,77056,77080,397.8479,67.77702,399.9435,87.51733 M,0,77080,77103,399.9435,87.51733,384.7122,99.60979 M,1,77103,77197,384.7122,99.60979,312,166 M,0,77197,77220,312,166,310.362,187.916 M,0,77220,77243,310.362,187.916,311.109,209.8733 M,0,77243,77267,311.109,209.8733,314.4057,231.6026 M,0,77267,77290,314.4057,231.6026,320.4134,252.7404 M,1,77290,77385,320.4134,252.7404,390,396 C,0,77385,,0,128,0 M,0,77385,77408,390,396,397.9965,375.5536 M,0,77408,77431,397.9965,375.5536,402.8457,354.1507 M,0,77431,77455,402.8457,354.1507,403.907,332.2294 M,0,77455,77478,403.907,332.2294,401.527,310.4257 M,1,77478,77572,401.527,310.4257,94,270 M,1,77572,77666,94,270,169,246 M,1,77666,77760,169,246,246,261 M,1,77760,77947,246,261 M,1,77947,78135,246,261,507,102 C,0,78135,,255,0,0 M,1,78135,78322,507,102 M,1,78322,78510,507,102,415,231 M,1,78510,78603,415,231,461,167 M,1,78603,78697,461,167,507,102 M,1,78697,78885,507,102,428,380 C,0,78885,,0,128,0 M,1,78885,78978,428,380,345,330 M,1,78978,79072,345,330,262,381 M,0,79072,79095,262,381,245.8602,366.1521 M,0,79095,79118,245.8602,366.1521,232.6944,348.6228 M,0,79118,79142,232.6944,348.6228,223.6288,328.6644 M,0,79142,79165,223.6288,328.6644,218.4843,307.3723 M,1,79165,79260,218.4843,307.3723,317,78 M,0,79260,79283,317,78,317.079,84.87454 M,0,79283,79306,317.079,84.87454,317.158,91.74909 M,0,79306,79330,317.158,91.74909,317.2371,98.62364 M,0,79330,79353,317.2371,98.62364,317.3161,105.4982 M,0,79353,79377,317.3161,105.4982,317.3951,112.3727 M,0,79377,79400,317.3951,112.3727,317.4741,119.2473 M,0,79400,79424,317.4741,119.2473,317.5531,126.1218 M,0,79424,79447,317.5531,126.1218,317.6321,132.9964 M,0,79447,79470,317.6321,132.9964,317.7112,139.8709 M,0,79470,79494,317.7112,139.8709,317.7902,146.7455 M,0,79494,79517,317.7902,146.7455,317.8692,153.62 M,0,79517,79541,317.8692,153.62,317.9482,160.4946 M,1,79541,79635,317.9482,160.4946,316,56
Sprite,Foreground,TopCentre,"sb\drop.png",0,0 C,0,79588,,250,250,210 MX,0,79588,,316 MY,0,79588,,0 F,2,79588,79635,0,0.5 F,1,79635,80385,0.5,0
Sprite,Foreground,TopCentre,"sb\drop.png",0,0 C,0,79963,,250,250,210 MX,0,79963,,89 MY,0,79963,,0 F,2,79963,80010,0,0.5 F,1,80010,80760,0.5,0
Sprite,Foreground,TopCentre,"sb\drop.png",0,0 C,0,80244,,250,250,210 MX,0,80244,,207 MY,0,80244,,0 F,2,80244,80291,0,0.5 F,1,80291,81041,0.5,0
Sprite,Foreground,TopCentre,"sb\drop.png",0,0 C,0,80338,,250,250,210 MX,0,80338,,233 MY,0,80338,,0 F,2,80338,80385,0,0.5 F,1,80385,81135,0.5,0
Sprite,Foreground,TopCentre,"sb\drop.png",0,0 C,0,80431,,250,250,210 MX,0,80431,,211 MY,0,80431,,0 F,2,80431,80478,0,0.5 F,1,80478,81228,0.5,0
Sprite,Foreground,TopCentre,"sb\drop.png",0,0 C,0,80525,,250,250,210 MX,0,80525,,211 MY,0,80525,,0 F,2,80525,80572,0,0.5 F,1,80572,81322,0.5,0
Sprite,Foreground,TopCentre,"sb\drop.png",0,0 C,0,80619,,250,250,210 MX,0,80619,,232 MY,0,80619,,0 F,2,80619,80666,0,0.5 F,1,80666,81416,0.5,0
Sprite,Foreground,TopCentre,"sb\drop.png",0,0 C,0,80713,,250,250,210 MX,0,80713,,269 MY,0,80713,,0 F,2,80713,80760,0,0.5 F,1,80760,81510,0.5,0
Sprite,Foreground,TopCentre,"sb\drop.png",0,0 C,0,80806,,250,250,210 MX,0,80806,,242 MY,0,80806,,0 F,2,80806,80853,0,0.5 F,1,80853,81603,0.5,0
Sprite,Foreground,TopCentre,"sb\drop.png",0,0 C,0,80900,,250,250,210 MX,0,80900,,196 MY,0,80900,,0 F,2,80900,80947,0,0.5 F,1,80947,81697,0.5,0
Sprite,Foreground,TopCentre,"sb\drop.png",0,0 C,0,80994,,250,250,210 MX,0,80994,,145 MY,0,80994,,0 F,2,80994,81041,0,0.5 F,1,81041,81791,0.5,0
Sprite,Foreground,TopCentre,"sb\drop.png",0,0 C,0,81088,,250,250,210 MX,0,81088,,99 MY,0,81088,,0 F,2,81088,81135,0,0.5 F,1,81135,81885,0.5,0
Sprite,Foreground,TopCentre,"sb\drop.png",0,0 C,0,81275,,250,250,210 MX,0,81275,,305 MY,0,81275,,0 F,2,81275,81322,0,0.5 F,1,81322,82072,0.5,0
Sprite,Foreground,TopCentre,"sb\drop.png",0,0 C,0,81369,,250,250,210 MX,0,81369,,325 MY,0,81369,,0 F,2,81369,81416,0,0.5 F,1,81416,82166,0.5,0
Sprite,Foreground,TopCentre,"sb\drop.png",0,0 C,0,81463,,250,250,210 MX,0,81463,,356 MY,0,81463,,0 F,2,81463,81510,0,0.5 F,1,81510,82260,0.5,0
Sprite,Foreground,TopCentre,"sb\drop.png",0,0 C,0,81838,,250,250,210 MX,0,81838,,437 MY,0,81838,,0 F,2,81838,81885,0,0.5 F,1,81885,82635,0.5,0
Sprite,Foreground,TopCentre,"sb\drop.png",0,0 C,0,82025,,250,250,210 MX,0,82025,,387 MY,0,82025,,0 F,2,82025,82072,0,0.5 F,1,82072,82822,0.5,0
Sprite,Foreground,TopCentre,"sb\drop.png",0,0 C,0,82213,,250,250,210 MX,0,82213,,540 MY,0,82213,,0 F,2,82213,82260,0,0.5 F,1,82260,83010,0.5,0
Sprite,Foreground,TopCentre,"sb\drop.png",0,0 C,0,82307,,250,250,210 MX,0,82307,,494 MY,0,82307,,0 F,2,82307,82354,0,0.5 F,1,82354,83104,0.5,0
Sprite,Foreground,TopCentre,"sb\drop.png",0,0 C,0,82401,,250,250,210 MX,0,82401,,443 MY,0,82401,,0 F,2,82401,82448,0,0.5 F,1,82448,83198,0.5,0
Sprite,Foreground,TopCentre,"sb\drop.png",0,0 C,0,82495,,250,250,210 MX,0,82495,,397 MY,0,82495,,0 F,2,82495,82542,0,0.5 F,1,82542,83292,0.5,0
Sprite,Foreground,TopCentre,"sb\drop.png",0,0 C,0,82588,,250,250,210 MX,0,82588,,370 MY,0,82588,,0 F,2,82588,82635,0,0.5 F,1,82635,83385,0.5,0
Sprite,Foreground,TopCentre,"sb\drop.png",0,0 C,0,82775,,250,250,210 MX,0,82775,,262 MY,0,82775,,0 F,2,82775,82822,0,0.5 F,1,82822,83572,0.5,0
Sprite,Foreground,TopCentre,"sb\drop.png",0,0 C,0,82868,,250,250,210 MX,0,82868,,222 MY,0,82868,,0 F,2,82868,82915,0,0.5 F,1,82915,83665,0.5,0
Sprite,Foreground,TopCentre,"sb\drop.png",0,0 C,0,82962,,250,250,210 MX,0,82962,,181 MY,0,82962,,0 F,2,82962,83009,0,0.5 F,1,83009,83759,0.5,0
Sprite,Foreground,TopCentre,"sb\drop.png",0,0 C,0,83056,,250,250,210 MX,0,83056,,166 MY,0,83056,,0 F,2,83056,83103,0,0.5 F,1,83103,83853,0.5,0
Sprite,Foreground,TopCentre,"sb\drop.png",0,0 C,0,83150,,250,250,210 MX,0,83150,,161 MY,0,83150,,0 F,2,83150,83197,0,0.5 F,1,83197,83947,0.5,0
Sprite,Foreground,TopCentre,"sb\drop.png",0,0 C,0,83244,,250,250,210 MX,0,83244,,167 MY,0,83244,,0 F,2,83244,83291,0,0.5 F,1,83291,84041,0.5,0
Sprite,Foreground,TopCentre,"sb\drop.png",0,0 C,0,83338,,250,250,210 MX,0,83338,,184 MY,0,83338,,0 F,2,83338,83385,0,0.5 F,1,83385,84135,0.5,0
Sprite,Foreground,TopCentre,"sb\drop.png",0,0 C,0,83432,,250,250,210 MX,0,83432,,226 MY,0,83432,,0 F,2,83432,83479,0,0.5 F,1,83479,84229,0.5,0
Sprite,Foreground,TopCentre,"sb\drop.png",0,0 C,0,83526,,250,250,210 MX,0,83526,,259 MY,0,83526,,0 F,2,83526,83573,0,0.5 F,1,83573,84323,0.5,0
Sprite,Foreground,TopCentre,"sb\drop.png",0,0 C,0,83620,,250,250,210 MX,0,83620,,289 MY,0,83620,,0 F,2,83620,83667,0,0.5 F,1,83667,84417,0.5,0
Sprite,Foreground,TopCentre,"sb\drop.png",0,0 C,0,83713,,250,250,210 MX,0,83713,,303 MY,0,83713,,0 F,2,83713,83760,0,0.5 F,1,83760,84510,0.5,0
Sprite,Foreground,TopCentre,"sb\drop.png",0,0 C,0,83806,,250,250,210 MX,0,83806,,277 MY,0,83806,,0 F,2,83806,83853,0,0.5 F,1,83853,84603,0.5,0
Sprite,Foreground,TopCentre,"sb\drop.png",0,0 C,0,83900,,250,250,210 MX,0,83900,,276 MY,0,83900,,0 F,2,83900,83947,0,0.5 F,1,83947,84697,0.5,0
Sprite,Foreground,TopCentre,"sb\drop.png",0,0 C,0,83994,,250,250,210 MX,0,83994,,301 MY,0,83994,,0 F,2,83994,84041,0,0.5 F,1,84041,84791,0.5,0
Sprite,Foreground,TopCentre,"sb\drop.png",0,0 C,0,84088,,250,250,210 MX,0,84088,,347 MY,0,84088,,0 F,2,84088,84135,0,0.5 F,1,84135,84885,0.5,0
Sprite,Foreground,TopCentre,"sb\drop.png",0,0 C,0,84275,,250,250,210 MX,0,84275,,469 MY,0,84275,,0 F,2,84275,84322,0,0.5 F,1,84322,85072,0.5,0
Sprite,Foreground,TopCentre,"sb\drop.png",0,0 C,0,84463,,250,250,210 MX,0,84463,,247 MY,0,84463,,0 F,2,84463,84510,0,0.5 F,1,84510,85260,0.5,0
Sprite,Foreground,TopCentre,"sb\drop.png",0,0 C,0,84650,,250,250,210 MX,0,84650,,535 MY,0,84650,,0 F,2,84650,84697,0,0.5 F,1,84697,85447,0.5,0
Sprite,Foreground,TopCentre,"sb\drop.png",0,0 C,0,84743,,250,250,210 MX,0,84743,,517 MY,0,84743,,0 F,2,84743,84790,0,0.5 F,1,84790,85540,0.5,0
Sprite,Foreground,TopCentre,"sb\drop.png",0,0 C,0,84837,,250,250,210 MX,0,84837,,508 MY,0,84837,,0 F,2,84837,84884,0,0.5 F,1,84884,85634,0.5,0
Sprite,Foreground,TopCentre,"sb\drop.png",0,0 C,0,84931,,250,250,210 MX,0,84931,,475 MY,0,84931,,0 F,2,84931,84978,0,0.5 F,1,84978,85728,0.5,0
Sprite,Foreground,TopCentre,"sb\drop.png",0,0 C,0,85025,,250,250,210 MX,0,85025,,435 MY,0,85025,,0 F,2,85025,85072,0,0.5 F,1,85072,85822,0.5,0
Sprite,Foreground,TopCentre,"sb\drop.png",0,0 C,0,85119,,250,250,210 MX,0,85119,,391 MY,0,85119,,0 F,2,85119,85166,0,0.5 F,1,85166,85916,0.5,0
Sprite,Foreground,TopCentre,"sb\drop.png",0,0 C,0,85213,,250,250,210 MX,0,85213,,350 MY,0,85213,,0 F,2,85213,85260,0,0.5 F,1,85260,86010,0.5,0
Sprite,Foreground,TopCentre,"sb\drop.png",0,0 C,0,85307,,250,250,210 MX,0,85307,,332 MY,0,85307,,0 F,2,85307,85354,0,0.5 F,1,85354,86104,0.5,0
Sprite,Foreground,TopCentre,"sb\drop.png",0,0 C,0,85401,,250,250,210 MX,0,85401,,300 MY,0,85401,,0 F,2,85401,85448,0,0.5 F,1,85448,86198,0.5,0
Sprite,Foreground,TopCentre,"sb\drop.png",0,0 C,0,85495,,250,250,210 MX,0,85495,,255 MY,0,85495,,0 F,2,85495,85542,0,0.5 F,1,85542,86292,0.5,0
Sprite,Foreground,TopCentre,"sb\drop.png",0,0 C,0,85589,,250,250,210 MX,0,85589,,202 MY,0,85589,,0 F,2,85589,85636,0,0.5 F,1,85636,86386,0.5,0
Sprite,Foreground,TopCentre,"sb\drop.png",0,0 C,0,85963,,250,250,210 MX,0,85963,,146 MY,0,85963,,0 F,2,85963,86010,0,0.5 F,1,86010,86760,0.5,0
Sprite,Foreground,TopCentre,"sb\drop.png",0,0 C,0,86244,,250,250,210 MX,0,86244,,164 MY,0,86244,,0 F,2,86244,86291,0,0.5 F,1,86291,87041,0.5,0
Sprite,Foreground,TopCentre,"sb\drop.png",0,0 C,0,86338,,250,250,210 MX,0,86338,,144 MY,0,86338,,0 F,2,86338,86385,0,0.5 F,1,86385,87135,0.5,0
Sprite,Foreground,TopCentre,"sb\drop.png",0,0 C,0,86431,,250,250,210 MX,0,86431,,179 MY,0,86431,,0 F,2,86431,86478,0,0.5 F,1,86478,87228,0.5,0
Sprite,Foreground,TopCentre,"sb\drop.png",0,0 C,0,86525,,250,250,210 MX,0,86525,,215 MY,0,86525,,0 F,2,86525,86572,0,0.5 F,1,86572,87322,0.5,0
Sprite,Foreground,TopCentre,"sb\drop.png",0,0 C,0,86619,,250,250,210 MX,0,86619,,248 MY,0,86619,,0 F,2,86619,86666,0,0.5 F,1,86666,87416,0.5,0
Sprite,Foreground,TopCentre,"sb\drop.png",0,0 C,0,86713,,250,250,210 MX,0,86713,,276 MY,0,86713,,0 F,2,86713,86760,0,0.5 F,1,86760,87510,0.5,0
Sprite,Foreground,TopCentre,"sb\drop.png",0,0 C,0,86806,,250,250,210 MX,0,86806,,310 MY,0,86806,,0 F,2,86806,86853,0,0.5 F,1,86853,87603,0.5,0
Sprite,Foreground,TopCentre,"sb\drop.png",0,0 C,0,86900,,250,250,210 MX,0,86900,,350 MY,0,86900,,0 F,2,86900,86947,0,0.5 F,1,86947,87697,0.5,0
Sprite,Foreground,TopCentre,"sb\drop.png",0,0 C,0,86994,,250,250,210 MX,0,86994,,394 MY,0,86994,,0 F,2,86994,87041,0,0.5 F,1,87041,87791,0.5,0
Sprite,Foreground,TopCentre,"sb\drop.png",0,0 C,0,87088,,250,250,210 MX,0,87088,,436 MY,0,87088,,0 F,2,87088,87135,0,0.5 F,1,87135,87885,0.5,0
Sprite,Foreground,TopCentre,"sb\drop.png",0,0 C,0,87275,,250,250,210 MX,0,87275,,370 MY,0,87275,,0 F,2,87275,87322,0,0.5 F,1,87322,88072,0.5,0
Sprite,Foreground,TopCentre,"sb\drop.png",0,0 C,0,87369,,250,250,210 MX,0,87369,,337 MY,0,87369,,0 F,2,87369,87416,0,0.5 F,1,87416,88166,0.5,0
Sprite,Foreground,TopCentre,"sb\drop.png",0,0 C,0,87463,,250,250,210 MX,0,87463,,306 MY,0,87463,,0 F,2,87463,87510,0,0.5 F,1,87510,88260,0.5,0
Sprite,Foreground,TopCentre,"sb\drop.png",0,0 C,0,87744,,250,250,210 MX,0,87744,,123 MY,0,87744,,0 F,2,87744,87791,0,0.5 F,1,87791,88541,0.5,0
Sprite,Foreground,TopCentre,"sb\drop.png",0,0 C,0,87838,,250,250,210 MX,0,87838,,111 MY,0,87838,,0 F,2,87838,87885,0,0.5 F,1,87885,88635,0.5,0
Sprite,Foreground,TopCentre,"sb\drop.png",0,0 C,0,87931,,250,250,210 MX,0,87931,,85 MY,0,87931,,0 F,2,87931,87978,0,0.5 F,1,87978,88728,0.5,0
Sprite,Foreground,TopCentre,"sb\drop.png",0,0 C,0,88025,,250,250,210 MX,0,88025,,70 MY,0,88025,,0 F,2,88025,88072,0,0.5 F,1,88072,88822,0.5,0
Sprite,Foreground,TopCentre,"sb\drop.png",0,0 C,0,88119,,250,250,210 MX,0,88119,,66 MY,0,88119,,0 F,2,88119,88166,0,0.5 F,1,88166,88916,0.5,0
Sprite,Foreground,TopCentre,"sb\drop.png",0,0 C,0,88213,,250,250,210 MX,0,88213,,78 MY,0,88213,,0 F,2,88213,88260,0,0.5 F,1,88260,89010,0.5,0
Sprite,Foreground,TopCentre,"sb\drop.png",0,0 C,0,88307,,250,250,210 MX,0,88307,,143 MY,0,88307,,0 F,2,88307,88354,0,0.5 F,1,88354,89104,0.5,0
Sprite,Foreground,TopCentre,"sb\drop.png",0,0 C,0,88400,,250,250,210 MX,0,88400,,218 MY,0,88400,,0 F,2,88400,88447,0,0.5 F,1,88447,89197,0.5,0
Sprite,Foreground,TopCentre,"sb\drop.png",0,0 C,0,88588,,250,250,210 MX,0,88588,,442 MY,0,88588,,0 F,2,88588,88635,0,0.5 F,1,88635,89385,0.5,0
Sprite,Foreground,TopCentre,"sb\drop.png",0,0 C,0,88682,,250,250,210 MX,0,88682,,390 MY,0,88682,,0 F,2,88682,88729,0,0.5 F,1,88729,89479,0.5,0
Sprite,Foreground,TopCentre,"sb\drop.png",0,0 C,0,88776,,250,250,210 MX,0,88776,,337 MY,0,88776,,0 F,2,88776,88823,0,0.5 F,1,88823,89573,0.5,0
Sprite,Foreground,TopCentre,"sb\drop.png",0,0 C,0,88870,,250,250,210 MX,0,88870,,284 MY,0,88870,,0 F,2,88870,88917,0,0.5 F,1,88917,89667,0.5,0
Sprite,Foreground,TopCentre,"sb\drop.png",0,0 C,0,88963,,250,250,210 MX,0,88963,,232 MY,0,88963,,0 F,2,88963,89010,0,0.5 F,1,89010,89760,0.5,0
Sprite,Foreground,TopCentre,"sb\drop.png",0,0 C,0,89150,,250,250,210 MX,0,89150,,434 MY,0,89150,,0 F,2,89150,89197,0,0.5 F,1,89197,89947,0.5,0
Sprite,Foreground,TopCentre,"sb\drop.png",0,0 C,0,89244,,250,250,210 MX,0,89244,,416 MY,0,89244,,0 F,2,89244,89291,0,0.5 F,1,89291,90041,0.5,0
Sprite,Foreground,TopCentre,"sb\drop.png",0,0 C,0,89338,,250,250,210 MX,0,89338,,399 MY,0,89338,,0 F,2,89338,89385,0,0.5 F,1,89385,90135,0.5,0
Sprite,Foreground,TopCentre,"sb\drop.png",0,0 C,0,89432,,250,250,210 MX,0,89432,,381 MY,0,89432,,0 F,2,89432,89479,0,0.5 F,1,89479,90229,0.5,0
Sprite,Foreground,TopCentre,"sb\drop.png",0,0 C,0,89525,,250,250,210 MX,0,89525,,363 MY,0,89525,,0 F,2,89525,89572,0,0.5 F,1,89572,90322,0.5,0
Sprite,Foreground,TopCentre,"sb\drop.png",0,0 C,0,89713,,250,250,210 MX,0,89713,,536 MY,0,89713,,0 F,2,89713,89760,0,0.5 F,1,89760,90510,0.5,0
Sprite,Foreground,TopCentre,"sb\drop.png",0,0 C,0,90088,,250,250,210 MX,0,90088,,501 MY,0,90088,,0 F,2,90088,90135,0,0.5 F,1,90135,90885,0.5,0
Sprite,Foreground,TopCentre,"sb\drop.png",0,0 C,0,90650,,250,250,210 MX,0,90650,,153 MY,0,90650,,0 F,2,90650,90697,0,0.5 F,1,90697,91447,0.5,0
Sprite,Foreground,TopCentre,"sb\drop.png",0,0 C,0,91213,,250,250,210 MX,0,91213,,104 MY,0,91213,,0 F,2,91213,91260,0,0.5 F,1,91260,92010,0.5,0
Sprite,Foreground,TopCentre,"sb\drop.png",0,0 C,0,91588,,250,250,210 MX,0,91588,,98 MY,0,91588,,0 F,2,91588,91635,0,0.5 F,1,91635,92385,0.5,0
Sprite,Foreground,Centre,"sb\hit.png",0,0 M,0,92385,,358,279 F,0,92385,93135,1,0 S,1,92385,93135,0.33,0.75
Sprite,Foreground,Centre,"sb\hit.png",0,0 M,0,93885,,98,160 F,0,93885,94635,1,0 S,1,93885,94635,0.33,0.75
Sprite,Foreground,Centre,"sb\hit.png",0,0 M,0,95385,,301,392 F,0,95385,96135,1,0 S,1,95385,96135,0.33,0.75
Sprite,Foreground,Centre,"sb\hit.png",0,0 M,0,96885,,206,112 F,0,96885,97635,1,0 S,1,96885,97635,0.33,0.75
Sprite,Foreground,Centre,"sb\hit.png",0,0 M,0,98385,,289,248 F,0,98385,99135,1,0 S,1,98385,99135,0.33,0.75
Sprite,Foreground,Centre,"sb\hit.png",0,0 M,0,99885,,346,147 F,0,99885,100635,1,0 S,1,99885,100635,0.33,0.75
Sprite,Foreground,Centre,"sb\hit.png",0,0 M,0,102135,,98,131 F,0,102135,102885,1,0 S,1,102135,102885,0.33,0.75
Sprite,Foreground,Centre,"sb\hit.png",0,0 M,0,102697,,436,205 F,0,102697,103447,1,0 S,1,102697,103447,0.33,0.75
Sprite,Foreground,Centre,"sb\hit.png",0,0 M,0,103260,,198,318 F,0,103260,104010,1,0 S,1,103260,104010,0.33,0.75
Sprite,Foreground,Centre,"sb\hit.png",0,0 M,0,103822,,191,421 F,0,103822,104572,1,0 S,1,103822,104572,0.33,0.75
Sprite,Foreground,Centre,"sb\hit.png",0,0 M,0,104385,,440,438 F,0,104385,105135,1,0 S,1,104385,105135,0.33,0.75
Sprite,Foreground,Centre,"sb\hit.png",0,0 M,0,104385,,440,438 F,0,104385,105135,1,0 S,1,104385,105135,0.33,0.75
Sprite,Foreground,Centre,"sb\hit.png",0,0 M,0,104760,,440,438 F,0,104760,105510,1,0 S,1,104760,105510,0.33,0.75
//Storyboard Sound Samples

[TimingPoints]
1635,375,4,2,1,60,1,0
1635,-83.3333333333333,4,2,1,60,0,0
1916,-83.3333333333333,4,2,1,10,0,0
2010,-133.333333333333,4,2,1,60,0,0
2197,-83.3333333333333,4,2,1,60,0,0
2478,-83.3333333333333,4,2,1,10,0,0
2572,-83.3333333333333,4,2,1,60,0,0
2713,-83.3333333333333,4,2,1,10,0,0
2760,-133.333333333333,4,2,1,60,0,0
2853,-133.333333333333,4,2,1,10,0,0
2947,-133.333333333333,4,2,1,60,0,0
3135,-76.9230769230769,4,2,1,60,0,0
3978,-76.9230769230769,4,2,1,10,0,0
4072,-133.333333333333,4,2,1,60,0,0
4260,-100,4,2,1,60,0,0
4541,-100,4,2,1,10,0,0
4635,-76.9230769230769,4,2,1,60,0,0
4916,-76.9230769230769,4,2,1,10,0,0
5010,-100,4,2,1,60,0,0
5197,-71.4285714285714,4,2,1,60,0,0
5478,-71.4285714285714,4,2,1,10,0,0
5572,-100,4,2,1,60,0,0
5760,-76.9230769230769,4,2,1,60,0,0
6322,-66.6666666666667,4,2,1,60,0,0
6885,-58.8235294117647,4,2,1,60,0,0
7635,-71.4285714285714,4,2,1,60,0,0
8572,-100,4,2,1,60,0,0
9135,-58.8235294117647,4,2,1,60,0,0
10635,-83.3333333333333,4,2,1,60,0,0
10916,-83.3333333333333,4,2,1,10,0,0
11010,-133.333333333333,4,2,1,60,0,0
11197,-71.4285714285714,4,2,1,60,0,0
11478,-71.4285714285714,4,2,1,10,0,0
11572,-100,4,2,1,60,0,0
12135,-62.5,4,2,1,60,0,0
12885,-58.8235294117647,4,2,1,60,0,0
13260,-200,4,2,1,60,0,0
13541,-200,4,2,1,10,0,0
13635,-200,4,2,1,30,0,0
22447,-83.3333333333333,4,2,1,30,0,0
22635,-66.6666666666667,4,2,1,50,0,0
23760,-200,4,2,1,50,0,0
24041,-200,4,2,1,10,0,0
24135,-200,4,2,1,60,0,0
25541,-200,4,2,1,10,0,0
25635,-133.333333333333,4,2,1,50,0,0
28635,-100,4,2,1,50,0,0
30135,-133.333333333333,4,2,1,50,0,0
30697,-100,4,2,1,50,0,0
30885,-71.4285714285714,4,2,1,50,0,0
31635,-100,4,2,1,50,0,0
36135,-76.9230769230769,4,2,1,60,0,0
38760,-200,4,2,1,60,0,0
39041,-200,4,2,1,10,0,0
39135,-200,4,2,1,30,0,0
48135,-200,4,2,1,50,0,0
49541,-200,4,2,1,10,0,0
49635,-83.3333333333333,4,2,1,60,0,0
54135,-133.333333333333,4,2,1,50,0,0
54978,-133.333333333333,4,2,1,10,0,0
55072,-133.333333333333,4,2,1,50,0,0
55260,-76.9230769230769,4,2,1,50,0,0
55541,-76.9230769230769,4,2,1,10,0,0
55635,-83.3333333333333,4,2,1,70,0,1
55916,-83.3333333333333,4,2,1,10,0,1
56010,-55.5555555555556,4,2,1,70,0,1
56291,-55.5555555555556,4,2,1,10,0,1
56385,-142.857142857143,4,2,1,70,0,1
56525,-142.857142857143,4,2,1,10,0,1
56572,-62.5,4,2,1,70,0,1
57510,-55.5555555555556,4,2,1,70,0,1
57885,-50,4,2,1,70,0,1
58025,-50,4,2,1,10,0,1
58072,-142.857142857143,4,2,1,70,0,1
58635,-71.4285714285714,4,2,1,70,0,1
58916,-71.4285714285714,4,2,1,10,0,1
59010,-50,4,2,1,70,0,1
59291,-50,4,2,1,10,0,1
59385,-142.857142857143,4,2,1,70,0,1
59525,-142.857142857143,4,2,1,10,0,1
59572,-62.5,4,2,1,70,0,1
60135,-83.3333333333333,4,2,1,70,0,1
60181,-83.3333333333333,4,2,1,10,0,1
60228,-76.9230769230769,4,2,1,70,0,1
60275,-83.3333333333333,4,2,1,10,0,1
60322,-71.4285714285714,4,2,1,70,0,1
60369,-83.3333333333333,4,2,1,10,0,1
60415,-66.6666666666667,4,2,1,70,0,1
60463,-83.3333333333333,4,2,1,10,0,1
60510,-62.5,4,2,1,70,0,1
60556,-83.3333333333333,4,2,1,10,0,1
60603,-58.8235294117647,4,2,1,70,0,1
60650,-83.3333333333333,4,2,1,10,0,1
60697,-55.5555555555556,4,2,1,70,0,1
60744,-83.3333333333333,4,2,1,10,0,1
60790,-52.6315789473684,4,2,1,70,0,1
60838,-52.6315789473684,4,2,1,10,0,1
60885,-50,4,2,1,70,0,1
61025,-50,4,2,1,10,0,1
61072,-142.857142857143,4,2,1,70,0,1
61260,-66.6666666666667,4,2,1,70,0,1
61541,-66.6666666666667,4,2,1,10,0,1
61635,-76.9230769230769,4,2,1,70,0,1
61916,-76.9230769230769,4,2,1,10,0,1
62010,-55.5555555555556,4,2,1,70,0,1
62150,-55.5555555555556,4,2,1,10,0,1
62197,-55.5555555555556,4,2,1,70,0,1
62385,-45.4545454545455,4,2,1,70,0,1
62760,-100,4,2,1,70,0,1
62947,-50,4,2,1,70,0,1
63228,-50,4,2,1,10,0,1
63322,-100,4,2,1,70,0,1
63510,-45.4545454545455,4,2,1,70,0,1
64260,-55.5555555555556,4,2,1,70,0,1
64541,-55.5555555555556,4,2,1,10,0,1
64635,-76.9230769230769,4,2,1,70,0,1
64916,-76.9230769230769,4,2,1,10,0,1
65010,-55.5555555555556,4,2,1,70,0,1
65150,-55.5555555555556,4,2,1,10,0,1
65197,-100,4,2,1,70,0,1
65478,-100,4,2,1,10,0,1
65572,-71.4285714285714,4,2,1,70,0,1
66135,-133.333333333333,4,2,1,70,0,1
66885,-66.6666666666667,4,2,1,70,0,1
67260,-83.3333333333333,4,2,1,70,0,1
67541,-83.3333333333333,4,2,1,10,0,1
67635,-66.6666666666667,4,2,1,70,0,1
67916,-66.6666666666667,4,2,1,10,0,1
68010,-58.8235294117647,4,2,1,70,0,1
68291,-58.8235294117647,4,2,1,10,0,1
68385,-58.8235294117647,4,2,1,70,0,1
68572,-62.5,4,2,1,70,0,1
71010,-50,4,2,1,70,0,1
71291,-50,4,2,1,10,0,1
71385,-62.5,4,2,1,70,0,1
72135,-38.4615384615385,4,2,1,70,0,1
72181,-38.4615384615385,4,2,1,10,0,1
72228,-38.4615384615385,4,2,1,70,0,1
72275,-38.4615384615385,4,2,1,10,0,1
72322,-38.4615384615385,4,2,1,70,0,1
72369,-38.4615384615385,4,2,1,10,0,1
72416,-38.4615384615385,4,2,1,70,0,1
72463,-38.4615384615385,4,2,1,10,0,1
72510,-38.4615384615385,4,2,1,70,0,1
72556,-38.4615384615385,4,2,1,10,0,1
72603,-38.4615384615385,4,2,1,70,0,1
72650,-38.4615384615385,4,2,1,10,0,1
72697,-38.4615384615385,4,2,1,70,0,1
72744,-38.4615384615385,4,2,1,10,0,1
72791,-38.4615384615385,4,2,1,70,0,1
72838,-38.4615384615385,4,2,1,10,0,1
72885,-55.5555555555556,4,2,1,70,0,1
73260,-200,4,2,1,70,0,1
73588,-200,4,2,1,10,0,1
73635,-62.5,4,2,1,70,0,1
73916,-62.5,4,2,1,10,0,1
74010,-62.5,4,2,1,70,0,1
76916,-62.5,4,2,1,10,0,1
77010,-62.5,4,2,1,70,0,1
79260,-200,4,2,1,70,0,1
79541,-200,4,2,1,10,0,1
79635,-125,4,2,1,30,0,0
88447,-100,4,2,1,30,0,0
88541,-100,4,2,1,10,0,0
88635,-76.9230769230769,4,2,1,50,0,0
89760,-200,4,2,1,50,0,0
90041,-200,4,2,1,10,0,0
90135,-83.3333333333333,4,2,1,60,0,0
90697,-71.4285714285714,4,2,1,60,0,0
91260,-200,4,2,1,60,0,0
91541,-200,4,2,1,10,0,0
91635,-133.333333333333,4,2,1,50,0,0
102135,-133.333333333333,4,2,1,60,0,0
104760,-200,4,2,1,60,0,0
105041,-200,4,2,1,10,0,0
105135,-100,4,2,1,30,0,0
106916,-100,4,2,1,10,0,0
107010,-100,4,2,1,30,0,0
107291,-100,4,2,1,10,0,0
107385,-100,4,2,1,30,0,0
107666,-100,4,2,1,10,0,0
107760,-100,4,2,1,30,0,0
112916,-100,4,2,1,10,0,0
113010,-100,4,2,1,30,0,0
113291,-100,4,2,1,10,0,0
113385,-100,4,2,1,30,0,0
113666,-100,4,2,1,10,0,0
113760,-100,4,2,1,30,0,0
114135,-83.3333333333333,4,2,1,50,0,0
115260,-200,4,2,1,50,0,0
115541,-200,4,2,1,10,0,0
115635,-66.6666666666667,4,2,1,60,0,0
115916,-66.6666666666667,4,2,1,10,0,0
116010,-66.6666666666667,4,2,1,60,0,0
116478,-66.6666666666667,4,2,1,10,0,0
116572,-66.6666666666667,4,2,1,60,0,0
117416,-66.6666666666667,4,2,1,10,0,0
117510,-66.6666666666667,4,2,1,60,0,0
117978,-66.6666666666667,4,2,1,10,0,0
118072,-66.6666666666667,4,2,1,60,0,0
121635,-200,4,2,1,60,0,0
122010,-200,4,2,1,40,0,0
122197,-200,4,2,1,30,0,0
122385,-200,4,2,1,50,0,0
123135,-200,4,2,1,40,0,0
123885,-200,4,2,1,30,0,0
124635,-200,4,2,1,20,0,0
125385,-200,4,2,1,10,0,0

[Colours]
Combo1 : 128,128,255
Combo2 : 0,0,255
Combo3 : 0,128,255
Combo4 : 64,0,128

[HitObjects]
39,301,1635,6,0,P|160:279|246:182,1,197.99999395752,0|0,1:0|0:0,0:0:0:0:
230,143,2010,2,0,P|207:142|183:150,1,41.2500015735627,8|0,0:0|0:0,0:0:0:0:
133,365,2197,2,0,P|98:273|112:176,1,197.99999395752,0|0,1:0|0:0,0:0:0:0:
287,310,2572,2,0,P|334:322|382:314,1,98.9999969787599,8|0,0:0|0:0,0:0:0:0:
417,297,2760,2,0,P|411:316|409:337,1,41.2500015735627,0|0,1:0|0:0,0:0:0:0:
483,227,2947,1,2,0:0:0:0:
471,178,3041,1,0,0:0:0:0:
459,129,3135,5,0,1:0:0:0:
342,193,3322,1,2,0:0:0:0:
214,150,3510,1,8,0:0:0:0:
408,38,3697,2,0,P|356:101|372:266,1,214.49999018097,0|0,1:0|0:0,0:0:0:0:
464,214,4072,2,0,P|439:204|410:205,1,41.2500015735627,8|0,0:0|0:0,0:0:0:0:
349,345,4260,2,0,B|311:306|311:306|438:334,1,165,2|0,1:2|0:0,0:0:0:0:
193,384,4635,6,0,P|230:289|211:152,1,214.49999018097,0|0,1:0|0:0,0:0:0:0:
188,52,5010,2,0,P|184:79|188:106,1,55,8|0,0:0|0:0,0:0:0:0:
380,300,5197,2,0,P|364:221|413:65,1,230.99999295044,0|0,1:0|0:0,0:0:0:0:
321,9,5572,2,0,P|324:36|320:63,1,55,8|0,0:0|0:0,0:0:0:0:
185,218,5760,6,0,P|218:207|244:183,1,71.4999967269899,0|0,1:0|0:0,0:0:0:0:
170,54,5947,2,0,P|161:88|169:123,1,71.4999967269899,0|0,0:0|0:0,0:0:0:0:
318,122,6135,2,0,P|292:97|258:87,1,71.4999967269899,8|0,0:0|0:0,0:0:0:0:
349,289,6322,6,0,P|364:251|365:210,1,82.5000031471254,0|0,1:0|0:0,0:0:0:0:
262,331,6510,2,0,P|286:363|321:384,1,82.5000031471254,2|0,0:0|0:0,0:0:0:0:
266,234,6697,2,0,P|225:239|189:258,1,82.5000031471254,8|0,0:0|0:0,0:0:0:0:
40,358,6885,6,0,P|71:323|89:280,1,93.500001783371,0|0,1:0|0:0,0:0:0:0:
0,112,7072,2,0,P|1:158|19:201,1,93.500001783371,2|0,0:0|0:0,0:0:0:0:
203,79,7260,2,0,P|220:121|222:168,1,93.500001783371,8|0,0:0|0:0,0:0:0:0:
233,345,7447,2,0,P|201:310|183:267,1,93.500001783371,2|0,0:0|0:0,0:0:0:0:
226,53,7635,5,0,1:0:0:0:
353,146,7822,1,2,0:0:0:0:
500,107,8010,1,8,0:0:0:0:
335,169,8197,2,0,P|308:252|379:392,1,230.99999295044,0|0,1:0|0:0,0:0:0:0:
509,252,8572,2,0,P|481:247|454:249,1,55,8|0,0:0|0:0,0:0:0:0:
254,290,8760,1,0,1:0:0:0:
228,300,8853,1,0,0:0:0:0:
206,316,8947,1,2,0:0:0:0:
186,336,9041,1,0,0:0:0:0:
173,359,9135,6,0,B|187:294|88:258|118:166|175:145|266:194|194:282,1,280.500005350113,0|0,1:0|0:0,0:0:0:0:
63,231,9510,2,0,B|49:166|148:130|118:38|61:17|-30:66|42:154,1,280.500005350113,8|0,0:0|0:0,0:0:0:0:
181,110,9885,5,0,1:0:0:0:
358,181,10072,1,8,0:0:0:0:
267,317,10260,5,0,1:0:0:0:
338,72,10447,1,2,0:0:0:0:
449,295,10635,6,0,P|352:312|255:298,1,197.99999395752,0|0,1:0|0:0,0:0:0:0:
149,355,11010,2,0,P|169:355|189:350,1,41.2500015735627,8|0,0:0|0:0,0:0:0:0:
17,244,11197,6,0,P|137:243|251:207,1,230.99999295044,0|0,1:0|0:0,0:0:0:0:
377,239,11572,2,0,P|352:239|323:234,1,55,8|0,0:0|0:0,0:0:0:0:
428,138,11760,1,0,1:0:0:0:
390,154,11853,1,0,0:0:0:0:
349,156,11947,1,2,0:0:0:0:
309,144,12041,1,0,0:0:0:0:
276,120,12135,6,0,P|224:132|176:158,1,88,8|0,0:0|0:0,0:0:0:0:
298,342,12322,2,0,P|293:298|279:256,1,88,0|0,1:0|0:0,0:0:0:0:
82,377,12510,1,2,0:0:0:0:
113,346,12603,1,0,0:0:0:0:
135,308,12697,1,8,0:0:0:0:
145,266,12791,1,0,0:0:0:0:
143,222,12885,6,0,P|125:169|93:128,1,93.500001783371,0|0,1:0|0:0,0:0:0:0:
388,72,13072,2,0,P|362:110|348:155,1,93.500001783371,2|0,0:0|0:0,0:0:0:0:
259,362,13260,6,0,L|258:279,1,82.5,4|0,0:0|0:0,0:0:0:0:
218,148,13635,5,2,0:0:0:0:
24,22,14010,1,2,3:2:0:0:
12,190,14197,2,0,P|11:176|12:162,1,27.5,0|0,0:0|0:0,0:0:0:0:
98,142,14385,2,0,P|99:156|98:170,3,27.5,2|0|0|0,0:0|0:0|0:0|0:0,0:0:0:0:
115,124,14760,1,2,0:0:0:0:
137,133,14854,1,0,0:0:0:0:
160,140,14947,1,2,3:2:0:0:
184,141,15041,1,0,0:0:0:0:
208,139,15135,6,0,P|232:137|281:148,1,55,2|0,0:0|0:0,0:0:0:0:
280,159,15416,1,0,0:0:0:0:
280,159,15510,2,0,P|294:158|313:162,3,27.5,2|0|0|0,3:2|0:0|0:0|0:0,0:0:0:0:
392,226,15885,2,0,P|377:226|359:223,3,27.5,2|0|2|0,0:0|0:0|3:2|0:0,0:0:0:0:
285,248,16260,1,2,0:0:0:0:
260,245,16353,1,0,0:0:0:0:
235,248,16447,1,2,3:2:0:0:
211,255,16541,1,0,0:0:0:0:
190,268,16635,1,2,0:0:0:0:
132,102,16822,5,0,0:0:0:0:
113,118,16916,1,0,0:0:0:0:
106,141,17010,1,2,3:2:0:0:
120,164,17103,1,0,0:0:0:0:
147,175,17197,1,0,0:0:0:0:
178,165,17291,1,0,0:0:0:0:
202,138,17385,1,2,0:0:0:0:
233,116,17478,1,0,0:0:0:0:
273,106,17572,1,0,0:0:0:0:
314,120,17666,1,0,0:0:0:0:
343,156,17760,1,2,0:0:0:0:
389,193,17853,5,0,0:0:0:0:
412,185,17947,1,2,3:2:0:0:
435,177,18041,1,0,0:0:0:0:
458,170,18135,1,2,0:0:0:0:
424,318,18322,1,2,0:0:0:0:
308,233,18510,1,2,3:2:0:0:
228,349,18697,1,0,0:0:0:0:
228,349,18791,1,0,0:0:0:0:
228,349,18885,6,0,P|223:324|222:306,3,27.5,2|0|0|0,0:0|0:0|0:0|0:0,0:0:0:0:
236,301,19260,1,2,0:0:0:0:
244,277,19353,1,0,0:0:0:0:
247,252,19447,1,0,0:0:0:0:
246,227,19541,1,0,0:0:0:0:
239,203,19635,5,2,0:0:0:0:
349,16,20010,1,2,3:2:0:0:
471,107,20197,2,0,P|471:122|474:147,1,27.5,0|0,0:0|0:0,0:0:0:0:
497,209,20385,2,0,P|496:224|494:249,3,27.5,2|0|0|0,0:0|0:0|0:0|0:0,0:0:0:0:
488,260,20760,1,2,0:0:0:0:
464,253,20853,1,0,0:0:0:0:
439,257,20947,1,2,3:2:0:0:
415,264,21041,1,0,0:0:0:0:
397,281,21135,5,2,0:0:0:0:
305,358,21322,2,0,P|282:359|263:355,1,27.5,0|0,0:0|0:0,0:0:0:0:
196,329,21510,1,2,3:2:0:0:
171,324,21603,1,0,0:0:0:0:
146,326,21697,1,0,0:0:0:0:
122,334,21791,1,0,0:0:0:0:
103,350,21885,1,2,0:0:0:0:
119,245,22072,1,2,3:2:0:0:
131,223,22166,1,0,0:0:0:0:
136,198,22260,1,2,0:0:0:0:
136,173,22353,1,0,0:0:0:0:
130,148,22447,6,0,P|124:115|129:70,1,65.9999979858399,0|0,0:0|0:0,0:0:0:0:
386,2,22635,6,0,P|351:23|326:56,1,82.5000031471254,0|0,1:0|0:0,0:0:0:0:
373,249,22822,1,0,0:0:0:0:
396,196,22916,1,0,0:0:0:0:
384,139,23010,1,2,3:2:0:0:
140,142,23197,5,0,0:0:0:0:
174,172,23291,1,0,0:0:0:0:
219,173,23385,1,0,0:0:0:0:
244,137,23478,1,0,0:0:0:0:
283,159,23572,1,2,3:2:0:0:
287,204,23666,1,0,0:0:0:0:
265,243,23760,6,0,L|181:255,1,82.5,4|0,0:0|0:0,0:0:0:0:
352,233,24135,5,0,1:0:0:0:
124,136,24322,1,0,0:0:0:0:
352,39,24510,1,8,0:0:0:0:
378,276,24697,5,0,1:0:0:0:
229,77,24884,1,0,0:0:0:0:
475,107,25072,1,0,0:0:0:0:
442,121,25166,1,0,0:0:0:0:
409,136,25260,6,0,L|318:124,1,82.5,4|0,0:0|0:0,0:0:0:0:
255,268,25635,6,0,P|270:208|258:148,1,123.750004720688,0|0,1:0|0:0,0:0:0:0:
218,61,26010,1,2,0:0:0:0:
256,81,26103,1,0,0:0:0:0:
298,95,26197,1,0,0:0:0:0:
342,95,26291,1,0,0:0:0:0:
386,81,26385,1,8,0:0:0:0:
268,180,26572,1,2,0:0:0:0:
445,242,26760,1,2,0:0:0:0:
243,295,26947,1,2,0:0:0:0:
441,344,27135,6,0,P|438:302|442:261,1,82.5000031471254,0|2,1:0|0:0,0:0:0:0:
312,360,27510,1,2,0:0:0:0:
463,170,27697,1,2,0:0:0:0:
196,139,27885,6,0,P|233:156|267:179,1,82.5000031471254,8|2,0:0|0:0,0:0:0:0:
345,76,28260,1,2,0:0:0:0:
105,112,28447,1,2,0:0:0:0:
93,332,28635,6,0,B|25:352|-15:297|-14:244|24:196|124:187|184:249,1,330,0|0,1:0|0:0,0:0:0:0:
310,350,29385,2,0,B|365:407|465:398|503:350|504:297|464:242|396:262,1,330,8|0,0:0|0:0,0:0:0:0:
216,365,30135,5,0,1:0:0:0:
216,365,30510,2,0,L|206:296,1,41.2500015735627,2|0,0:0|0:0,0:0:0:0:
334,155,30697,2,0,L|342:215,1,55,0|0,0:0|1:0,0:0:0:0:
400,308,30885,5,8,0:0:0:0:
330,286,30979,1,0,1:0:0:0:
258,269,31073,1,0,1:0:0:0:
186,252,31167,1,0,1:0:0:0:
115,234,31260,1,8,0:0:0:0:
310,130,31447,1,0,1:0:0:0:
143,309,31635,6,0,B|226:268|153:203|243:172,1,165,0|0,1:0|0:0,0:0:0:0:
344,217,32010,1,2,0:0:0:0:
318,177,32103,1,0,0:0:0:0:
310,130,32197,1,0,0:0:0:0:
321,83,32291,1,0,0:0:0:0:
349,44,32385,1,8,0:0:0:0:
451,135,32572,1,2,0:0:0:0:
264,243,32760,1,2,0:0:0:0:
489,316,32947,1,2,0:0:0:0:
324,384,33135,6,0,P|310:330|287:281,1,110,0|2,1:0|0:0,0:0:0:0:
406,249,33510,1,2,0:0:0:0:
164,196,33697,1,2,0:0:0:0:
396,86,33885,6,0,P|352:118|313:156,1,110,8|2,0:0|0:0,0:0:0:0:
294,28,34260,1,2,0:0:0:0:
214,264,34447,1,2,0:0:0:0:
95,152,34635,5,0,1:0:0:0:
312,157,34822,1,2,0:0:0:0:
192,39,35010,1,2,0:0:0:0:
219,281,35197,1,2,0:0:0:0:
203,197,35385,2,0,P|256:204|296:241,1,110,8|2,0:0|0:0,0:0:0:0:
421,376,35760,5,2,0:0:0:0:
408,346,35853,1,0,0:0:0:0:
417,322,35947,1,0,0:0:0:0:
407,296,36041,1,0,0:0:0:0:
414,273,36135,5,4,0:0:0:0:
471,96,36322,1,0,0:0:0:0:
302,134,36510,1,8,0:0:0:0:
512,201,36697,5,0,1:0:0:0:
375,51,36885,1,0,0:0:0:0:
322,262,37072,1,8,0:0:0:0:
219,86,37260,5,0,1:0:0:0:
440,171,37447,1,0,0:0:0:0:
185,262,37635,1,8,0:0:0:0:
292,20,37822,5,0,1:0:0:0:
141,163,38010,1,0,0:0:0:0:
404,246,38197,1,8,0:0:0:0:
65,116,38385,5,0,1:0:0:0:
52,149,38479,1,0,0:0:0:0:
53,185,38573,1,0,0:0:0:0:
68,217,38667,1,0,0:0:0:0:
95,241,38760,6,0,L|185:229,1,82.5,4|0,0:0|0:0,0:0:0:0:
72,263,39135,5,2,0:0:0:0:
72,263,39510,5,2,3:2:0:0:
146,283,39697,1,0,0:0:0:0:
245,292,39885,1,2,0:0:0:0:
319,272,40072,1,0,0:0:0:0:
418,263,40260,1,2,0:0:0:0:
492,283,40447,1,2,3:2:0:0:
475,167,40635,5,2,0:0:0:0:
475,167,41010,1,2,3:2:0:0:
455,98,41197,1,0,0:0:0:0:
354,128,41385,1,2,0:0:0:0:
368,58,41572,1,2,3:2:0:0:
267,69,41760,1,2,0:0:0:0:
272,0,41947,1,2,3:2:0:0:
148,43,42135,5,2,0:0:0:0:
148,43,42510,1,2,3:2:0:0:
224,50,42697,1,0,0:0:0:0:
210,156,42885,1,2,0:0:0:0:
134,149,43072,1,0,0:0:0:0:
148,43,43260,5,2,0:0:0:0:
224,50,43447,1,2,3:2:0:0:
210,156,43635,1,2,0:0:0:0:
134,149,43822,1,2,0:0:0:0:
290,123,44010,5,2,3:2:0:0:
283,199,44197,1,0,0:0:0:0:
165,284,44385,1,2,0:0:0:0:
127,287,44478,1,0,0:0:0:0:
89,291,44572,1,0,0:0:0:0:
51,294,44666,1,0,0:0:0:0:
13,298,44760,1,2,0:0:0:0:
23,258,44853,1,0,0:0:0:0:
33,217,44947,1,2,3:2:0:0:
42,176,45041,1,0,0:0:0:0:
51,135,45135,5,2,0:0:0:0:
51,135,45510,1,2,3:2:0:0:
135,175,45697,1,0,0:0:0:0:
228,186,45885,1,2,0:0:0:0:
318,164,46072,1,0,0:0:0:0:
382,96,46260,1,2,0:0:0:0:
396,3,46447,1,2,3:2:0:0:
439,171,46635,5,2,0:0:0:0:
492,259,46822,1,0,0:0:0:0:
343,218,47010,1,2,3:2:0:0:
439,171,47197,1,0,0:0:0:0:
388,306,47385,1,2,0:0:0:0:
343,218,47572,1,2,3:2:0:0:
167,332,47760,5,2,0:0:0:0:
237,160,47947,1,0,0:0:0:0:
211,58,48135,5,2,0:0:0:0:
348,124,48322,1,2,0:0:0:0:
217,171,48510,1,2,3:2:0:0:
211,58,48697,5,2,0:0:0:0:
348,124,48884,1,2,0:0:0:0:
217,171,49072,1,2,3:2:0:0:
103,68,49260,2,0,L|94:151,1,82.5,4|0,0:0|0:0,0:0:0:0:
9,249,49635,6,0,P|8:172|-7:92,1,131.99999597168,0|0,1:0|0:0,0:0:0:0:
37,373,50010,1,8,0:0:0:0:
140,229,50197,2,0,P|216:229|297:245,1,131.99999597168,0|0,1:0|0:0,0:0:0:0:
121,86,50572,1,8,0:0:0:0:
210,335,50760,2,0,L|215:269,1,65.9999979858399,0|0,1:0|0:0,0:0:0:0:
321,114,50947,2,0,L|321:192,1,65.9999979858399,0|0,0:0|0:0,0:0:0:0:
408,383,51135,6,0,P|407:306|392:226,1,131.99999597168,0|0,1:0|0:0,0:0:0:0:
230,360,51510,1,8,0:0:0:0:
273,149,51697,2,0,P|196:149|116:165,1,131.99999597168,0|0,1:0|0:0,0:0:0:0:
54,296,52072,1,8,0:0:0:0:
298,230,52260,2,0,L|229:235,1,65.9999979858399,0|0,1:0|0:0,0:0:0:0:
57,93,52447,2,0,L|134:85,1,65.9999979858399,0|0,0:0|0:0,0:0:0:0:
176,380,52635,5,0,1:0:0:0:
284,46,52822,1,0,0:0:0:0:
327,352,53010,1,8,0:0:0:0:
135,65,53197,2,0,P|124:125|124:239,1,131.99999597168,0|0,1:0|0:0,0:0:0:0:
403,381,53572,1,8,0:0:0:0:
512,61,53760,2,0,L|414:65,1,65.9999979858399,0|0,1:0|0:0,0:0:0:0:
286,140,53947,1,0,0:0:0:0:
19,34,54135,5,2,1:2:0:0:
195,114,54322,1,2,0:0:0:0:
41,280,54510,1,2,0:0:0:0:
35,244,54603,1,2,0:0:0:0:
29,208,54697,2,0,B|94:201|72:260|153:252,1,123.750004720688,2|0,0:0|0:0,0:0:0:0:
137,178,55072,1,2,0:0:0:0:
289,325,55260,6,0,B|346:284|346:284|197:307,1,214.49999018097,4|0,0:0|0:0,0:0:0:0:
473,342,55635,6,0,P|483:246|424:170,1,197.99999395752,0|0,1:0|0:0,0:0:0:0:
212,221,56010,2,0,P|285:200|305:-16,1,296.99999093628
152,157,56385,6,0,L|145:99,1,57.7499982376099,8|0,0:0|0:0,0:0:0:0:
115,270,56572,6,0,P|98:226|43:188,1,88
246,335,56760,2,0,P|276:303|317:288,1,88
89,349,56947,2,0,P|52:319|-14:313,1,88
202,261,57135,2,0,P|212:218|240:185,1,88
169,384,57322,1,0,1:0:0:0:
353,168,57510,5,0,0:0:0:0:
388,209,57603,1,0,0:0:0:0:
408,261,57697,2,0,P|460:258|503:229,1,98.9999969787599,0|0,1:0|1:0,0:0:0:0:
461,71,57885,6,0,B|384:118|379:46|291:100,1,165,8|0,0:0|0:0,0:0:0:0:
230,185,58072,2,0,L|235:146,1,38.4999988250733,0|0,1:0|0:0,0:0:0:0:
325,268,58260,5,8,0:0:0:0:
264,256,58353,1,0,0:0:0:0:
202,261,58447,1,0,1:0:0:0:
144,284,58541,1,0,0:0:0:0:
95,321,58635,6,0,P|142:232|66:84,1,230.99999295044,0|0,1:0|0:0,0:0:0:0:
218,340,59010,2,0,P|377:372|448:242,1,330
332,41,59385,6,0,L|325:98,1,57.7499982376099,8|0,0:0|0:0,0:0:0:0:
229,159,59572,6,0,P|232:112|202:60,1,88
366,203,59760,2,0,P|392:168|432:149,1,88,0|0,0:0|0:0,0:0:0:0:
204,322,59947,1,0,0:0:0:0:
151,347,60041,1,0,0:0:0:0:
93,347,60135,6,0,P|80:336|64:330,1,32.99999899292,0|0,1:0|0:0,0:0:0:0:
99,336,60228,2,0,P|82:330|64:329,1,35.749998363495,0|0,0:0|0:0,0:0:0:0:
102,324,60322,2,0,P|82:324|64:330,1,38.4999988250733,0|0,1:0|0:0,0:0:0:0:
98,309,60416,2,0,P|78:316|62:328,1,41.2500015735627,0|0,0:0|0:0,0:0:0:0:
92,297,60510,2,0,P|75:311|64:329,1,44,0|0,0:0|0:0,0:0:0:0:
76,285,60603,2,0,P|64:305|59:327,1,46.7500008916855,0|0,0:0|0:0,0:0:0:0:
63,278,60697,2,0,P|59:302|62:327,1,49.4999984893799,0|0,0:0|0:0,0:0:0:0:
41,281,60791,2,0,P|46:307|58:331,1,52.2499986047745,0|0,0:0|0:0,0:0:0:0:
15,291,60885,6,0,P|61:204|42:117,1,165,8|0,0:0|0:0,0:0:0:0:
72,53,61072,2,0,P|52:54|33:51,1,38.4999988250733,0|0,0:0|0:0,0:0:0:0:
151,183,61260,6,0,B|276:208|255:78|390:121,1,247.500009441376,8|0,0:0|0:0,0:0:0:0:
268,0,61635,6,0,P|274:82|349:205,1,214.49999018097,0|0,1:0|0:0,0:0:0:0:
478,350,62010,2,0,P|436:300|355:288,1,148.49999546814,0|0,1:0|0:0,0:0:0:0:
247,357,62197,2,0,P|279:355|246:331,1,98.9999969787599,0|0,1:0|0:0,0:0:0:0:
14,275,62385,6,0,P|126:276|325:107,1,363.000011077881,8|0,0:0|1:0,0:0:0:0:
265,27,62760,2,0,P|234:60|229:89,1,55,8|0,0:0|0:0,0:0:0:0:
283,345,62947,6,0,P|170:227|139:67,1,330,8|0,0:0|0:0,0:0:0:0:
1,208,63322,1,0,1:0:0:0:
75,181,63416,1,0,1:0:0:0:
156,198,63510,6,0,P|215:206|273:189,1,121.000003692627,8|0,0:0|0:0,0:0:0:0:
174,384,63697,2,0,P|151:328|108:286,1,121.000003692627,0|0,1:0|0:0,0:0:0:0:
334,275,63885,2,0,P|297:322|282:380,1,121.000003692627,0|0,0:0|0:0,0:0:0:0:
230,123,64072,5,0,1:0:0:0:
295,178,64166,1,0,1:0:0:0:
381,181,64260,2,0,P|396:90|233:113,1,296.99999093628,8|0,0:0|0:0,0:0:0:0:
89,263,64635,6,0,P|193:242|299:254,1,214.49999018097,0|0,1:0|0:0,0:0:0:0:
456,348,65010,6,0,P|383:363|309:358,1,148.49999546814,8|0,0:0|0:0,0:0:0:0:
293,370,65197,6,0,P|394:380|466:361,1,165,0|0,1:0|0:0,0:0:0:0:
472,219,65572,1,0,1:0:0:0:
457,152,65666,1,0,1:0:0:0:
451,80,65760,2,0,P|421:130|382:161,1,76.9999976501466,8|0,0:0|0:0,0:0:0:0:
225,56,65947,2,0,P|237:92|257:124,1,76.9999976501466,0|0,0:0|0:0,0:0:0:0:
349,0,66135,5,0,1:0:0:0:
323,210,66322,2,0,P|303:211|283:216,1,41.2500015735627,0|0,0:0|0:0,0:0:0:0:
146,325,66510,1,0,0:0:0:0:
115,290,66603,1,0,0:0:0:0:
77,264,66697,2,0,P|57:257|36:255,1,41.2500015735627,0|0,0:0|0:0,0:0:0:0:
93,85,66885,5,8,0:0:0:0:
131,154,66978,1,0,1:0:0:0:
193,205,67072,2,0,P|244:183|287:184,1,82.5000031471254,0|0,1:0|1:0,0:0:0:0:
325,351,67260,6,0,B|388:335|388:335|245:298,1,197.99999395752,8|0,0:0|0:0,0:0:0:0:
146,325,67635,6,0,P|85:260|128:105,1,247.500009441376,0|0,1:0|0:0,0:0:0:0:
325,351,68010,2,0,P|416:343|480:144,1,280.500005350113,8|0,0:0|0:0,0:0:0:0:
272,0,68385,1,0,1:0:0:0:
283,44,68478,1,0,0:0:0:0:
281,82,68572,2,0,P|270:122|269:180,1,88,0|0,0:0|0:0,0:0:0:0:
325,351,68760,2,0,P|321:309|330:252,1,88,8|0,0:0|0:0,0:0:0:0:
374,141,68947,2,0,P|377:182|396:237,1,88,0|0,0:0|0:0,0:0:0:0:
430,334,69135,2,0,P|440:293|468:243,1,88,0|0,1:0|0:0,0:0:0:0:
467,162,69322,2,0,P|484:199|520:244,1,88,0|0,0:0|0:0,0:0:0:0:
325,351,69510,5,8,0:0:0:0:
237,340,69604,1,0,0:0:0:0:
150,328,69697,2,0,L|141:209,1,88,0|0,0:0|0:0,0:0:0:0:
359,145,69885,2,0,L|352:232,1,88,0|0,1:0|0:0,0:0:0:0:
250,225,70072,2,0,L|241:106,1,88,0|0,0:0|0:0,0:0:0:0:
132,0,70260,5,8,0:0:0:0:
140,78,70353,1,0,0:0:0:0:
113,152,70447,5,0,0:0:0:0:
126,229,70540,1,0,0:0:0:0:
214,288,70635,6,0,L|229:382,1,88,0|0,1:0|0:0,0:0:0:0:
358,384,70822,1,0,0:0:0:0:
453,206,71010,6,0,P|335:127|166:232,1,330,8|0,0:0|0:0,0:0:0:0:
426,323,71385,2,0,P|491:302|517:278,1,88,0|0,1:0|0:0,0:0:0:0:
294,321,71572,2,0,P|228:300|203:276,1,88,0|0,0:0|0:0,0:0:0:0:
453,206,71760,2,0,P|490:148|493:113,1,88,8|0,0:0|0:0,0:0:0:0:
267,204,71947,1,0,0:0:0:0:
226,128,72041,1,0,0:0:0:0:
257,47,72135,6,0,P|286:77|292:120,1,71.4999967269899,0|0,1:0|0:0,0:0:0:0:
324,59,72228,2,0,P|326:101|303:137,1,71.4999967269899,0|0,0:0|0:0,0:0:0:0:
366,110,72322,2,0,P|341:143|300:157,1,71.4999967269899,0|0,0:0|0:0,0:0:0:0:
365,178,72416,2,0,P|324:188|284:171,1,71.4999967269899,0|0,0:0|0:0,0:0:0:0:
295,210,72510,6,0,P|266:240|260:283,1,71.4999967269899,8|0,0:0|0:0,0:0:0:0:
228,222,72603,2,0,P|226:264|249:300,1,71.4999967269899,0|0,0:0|0:0,0:0:0:0:
186,273,72697,2,0,P|211:306|252:320,1,71.4999967269899,0|0,0:0|0:0,0:0:0:0:
187,341,72791,2,0,P|228:351|268:334,1,71.4999967269899,0|0,0:0|0:0,0:0:0:0:
245,384,72885,6,0,L|350:349,2,98.9999969787599,0|0|0,1:0|0:0|0:0,0:0:0:0:
43,218,73260,2,0,B|38:169|38:169|57:212,1,96.25,8|0,0:0|0:0,0:0:0:0:
0,298,73635,6,0,P|14:173|80:44,1,264,0|0,1:0|0:0,0:0:0:0:
201,126,74010,2,0,P|233:92|279:70,1,88,8|0,0:0|0:0,0:0:0:0:
416,95,74197,1,0,0:0:0:0:
314,238,74385,2,0,P|358:225|409:229,1,88,0|0,1:0|0:0,0:0:0:0:
512,302,74572,1,0,0:0:0:0:
285,378,74760,5,8,0:0:0:0:
238,314,74853,1,0,0:0:0:0:
191,249,74947,2,0,L|94:271,1,88,0|0,0:0|0:0,0:0:0:0:
238,137,75135,2,0,L|324:118,1,88,0|0,1:0|0:0,0:0:0:0:
158,0,75322,1,0,0:0:0:0:
144,78,75416,1,0,0:0:0:0:
130,156,75510,2,0,L|33:178,1,88,8|0,0:0|0:0,0:0:0:0:
292,228,75697,2,0,L|377:208,1,88,0|0,0:0|0:0,0:0:0:0:
481,34,75885,5,0,1:0:0:0:
492,102,75978,1,0,0:0:0:0:
501,171,76072,1,0,0:0:0:0:
509,241,76166,1,0,0:0:0:0:
468,188,76260,5,8,0:0:0:0:
409,240,76353,1,0,0:0:0:0:
349,292,76447,1,0,0:0:0:0:
285,339,76541,1,0,0:0:0:0:
192,281,76635,6,0,P|143:189|157:20,1,264,0|0,1:0|0:0,0:0:0:0:
299,18,77010,2,0,P|339:24|308:42,1,88,8|0,0:0|0:0,0:0:0:0:
248,110,77197,2,0,P|247:154|266:220,1,88,0|0,0:0|0:0,0:0:0:0:
326,340,77385,2,0,P|339:298|326:220,1,88,0|0,1:0|0:0,0:0:0:0:
30,214,77572,5,0,0:0:0:0:
105,190,77666,1,0,0:0:0:0:
182,205,77760,1,8,0:0:0:0:
182,205,77947,1,0,0:0:0:0:
443,46,78135,5,0,1:0:0:0:
443,46,78322,1,0,0:0:0:0:
351,175,78510,1,0,0:0:0:0:
397,111,78603,1,0,0:0:0:0:
443,46,78697,1,0,0:0:0:0:
364,324,78885,5,8,0:0:0:0:
281,274,78978,1,0,0:0:0:0:
198,325,79072,2,0,P|170:295|161:197,1,88,0|0,0:0|0:0,0:0:0:0:
253,22,79260,6,0,L|254:109,1,82.5,4|0,0:0|0:0,0:0:0:0:
252,0,79635,5,2,0:0:0:0:
25,184,80010,2,0,P|65:168|109:171,1,88,2|0,3:2|0:0,0:0:0:0:
143,194,80291,1,0,0:0:0:0:
169,221,80385,5,2,0:0:0:0:
147,258,80478,1,0,0:0:0:0:
147,302,80572,1,0,0:0:0:0:
168,340,80666,1,0,0:0:0:0:
205,363,80760,1,2,0:0:0:0:
178,317,80853,1,0,0:0:0:0:
132,290,80947,1,2,3:2:0:0:
81,289,81041,1,0,0:0:0:0:
35,315,81135,5,2,0:0:0:0:
241,257,81322,1,0,0:0:0:0:
261,292,81416,1,0,0:0:0:0:
292,313,81510,2,0,P|330:318|397:279,1,88,2|0,3:2|0:0,0:0:0:0:
373,101,81885,5,2,0:0:0:0:
323,240,82072,1,2,3:2:0:0:
476,57,82260,1,2,0:0:0:0:
430,83,82354,1,0,0:0:0:0:
379,80,82448,1,2,3:2:0:0:
333,55,82542,1,0,0:0:0:0:
306,9,82635,5,2,0:0:0:0:
198,124,82822,1,0,0:0:0:0:
158,141,82915,1,0,0:0:0:0:
117,130,83009,5,2,3:2:0:0:
102,161,83103,1,0,0:0:0:0:
97,196,83197,1,0,0:0:0:0:
103,228,83291,1,0,0:0:0:0:
120,260,83385,1,2,0:0:0:0:
162,259,83479,1,0,0:0:0:0:
195,243,83573,1,0,0:0:0:0:
225,214,83667,1,0,0:0:0:0:
239,179,83760,5,2,0:0:0:0:
213,226,83853,1,0,0:0:0:0:
212,279,83947,1,2,3:2:0:0:
237,324,84041,1,0,0:0:0:0:
283,351,84135,5,2,0:0:0:0:
405,211,84322,1,2,0:0:0:0:
183,122,84510,1,2,3:2:0:0:
471,309,84697,1,0,0:0:0:0:
453,268,84790,1,0,0:0:0:0:
444,225,84884,5,2,0:0:0:0:
411,254,84978,1,0,0:0:0:0:
371,270,85072,1,0,0:0:0:0:
327,270,85166,1,0,0:0:0:0:
286,254,85260,1,2,0:0:0:0:
268,303,85354,1,0,0:0:0:0:
236,344,85448,1,0,0:0:0:0:
191,370,85542,1,0,0:0:0:0:
138,378,85636,5,2,0:0:0:0:
82,44,86010,2,0,P|104:81|109:124,1,88,2|0,3:2|0:0,0:0:0:0:
100,160,86291,1,0,0:0:0:0:
80,195,86385,5,2,0:0:0:0:
115,191,86478,1,0,0:0:0:0:
151,197,86572,1,0,0:0:0:0:
184,212,86666,1,0,0:0:0:0:
212,235,86760,1,2,0:0:0:0:
246,210,86853,1,0,0:0:0:0:
286,195,86947,1,2,3:2:0:0:
330,190,87041,1,0,0:0:0:0:
372,198,87135,5,2,0:0:0:0:
306,326,87322,1,0,0:0:0:0:
273,350,87416,1,0,0:0:0:0:
242,378,87510,2,0,L|148:306,1,88,2|0,3:2|0:0,0:0:0:0:
59,345,87791,1,0,0:0:0:0:
47,366,87885,5,2,0:0:0:0:
21,328,87978,1,0,0:0:0:0:
6,286,88072,1,2,3:2:0:0:
2,241,88166,1,0,0:0:0:0:
14,197,88260,1,2,0:0:0:0:
79,229,88354,1,0,0:0:0:0:
154,229,88447,2,0,P|177:214|203:208,1,55,0|0,0:0|0:0,0:0:0:0:
378,125,88635,5,0,1:0:0:0:
326,115,88729,1,0,0:0:0:0:
273,105,88823,1,0,0:0:0:0:
220,95,88917,1,0,0:0:0:0:
168,86,89010,1,2,3:2:0:0:
370,384,89197,5,0,0:0:0:0:
352,334,89291,1,0,0:0:0:0:
335,283,89385,1,0,0:0:0:0:
317,232,89479,1,0,0:0:0:0:
299,183,89572,1,2,3:2:0:0:
472,149,89760,6,0,L|459:230,1,82.5,4|0,0:0|0:0,0:0:0:0:
437,369,90135,6,0,P|373:308|178:264,1,263.99999194336,0|8,1:0|0:0,0:0:0:0:
89,384,90697,2,0,P|234:348|314:221,1,307.999990600586,0|0,1:0|0:0,0:0:0:0:
40,149,91260,6,0,L|52:230,1,82.5,4|0,0:0|0:0,0:0:0:0:
34,117,91635,5,0,1:0:0:0:
155,214,91822,1,0,0:0:0:0:
155,214,91916,1,0,0:0:0:0:
155,214,92010,1,2,0:0:0:0:
188,195,92103,1,0,0:0:0:0:
226,192,92197,1,0,0:0:0:0:
263,201,92291,1,0,0:0:0:0:
294,223,92385,5,8,0:0:0:0:
363,369,92572,1,0,0:0:0:0:
395,160,92760,5,2,0:0:0:0:
369,352,92947,1,2,0:0:0:0:
192,306,93135,5,0,1:0:0:0:
172,95,93322,1,2,0:0:0:0:
34,247,93510,2,0,L|-2:170,1,82.5000031471254,2|2,0:0|0:0,0:0:0:0:
37,74,93791,1,0,0:0:0:0:
34,104,93885,5,8,0:0:0:0:
164,40,94072,1,2,0:0:0:0:
101,163,94260,5,2,0:0:0:0:
89,0,94447,1,2,0:0:0:0:
246,230,94635,5,0,1:0:0:0:
246,230,94822,1,0,0:0:0:0:
363,191,95010,2,0,P|362:146|332:84,1,82.5000031471254,2|0,0:0|0:0,0:0:0:0:
237,336,95385,5,8,0:0:0:0:
237,336,95572,1,0,0:0:0:0:
120,297,95760,1,2,0:0:0:0:
120,297,95853,1,0,0:0:0:0:
120,297,95947,1,0,0:0:0:0:
120,297,96041,1,0,0:0:0:0:
120,297,96135,1,0,1:0:0:0:
223,212,96322,1,0,0:0:0:0:
142,56,96510,5,2,0:0:0:0:
142,56,96603,1,0,0:0:0:0:
142,56,96697,1,0,0:0:0:0:
142,56,96791,1,0,1:0:0:0:
142,56,96885,5,8,0:0:0:0:
212,75,96978,1,0,1:0:0:0:
283,94,97072,1,0,1:0:0:0:
355,112,97166,1,0,1:0:0:0:
426,132,97260,1,8,0:0:0:0:
142,56,97447,1,0,1:0:0:0:
212,320,97635,6,0,L|137:194,1,123.750004720688,0|0,1:0|0:0,0:0:0:0:
78,189,98010,1,2,0:0:0:0:
114,189,98103,1,0,0:0:0:0:
151,190,98197,1,0,0:0:0:0:
188,191,98291,1,0,0:0:0:0:
225,192,98385,5,8,0:0:0:0:
454,253,98572,1,2,0:0:0:0:
288,293,98760,5,2,0:0:0:0:
441,258,98947,1,2,0:0:0:0:
436,31,99135,5,0,1:0:0:0:
345,156,99322,1,2,0:0:0:0:
507,94,99510,5,2,0:0:0:0:
282,91,99697,1,2,0:0:0:0:
282,91,99791,1,0,0:0:0:0:
282,91,99885,2,0,P|239:91|175:112,1,82.5000031471254,8|2,0:0|0:0,0:0:0:0:
126,295,100260,5,2,0:0:0:0:
61,144,100447,1,2,0:0:0:0:
10,324,100635,6,0,L|29:221,1,82.5000031471254,0|2,1:0|0:0,0:0:0:0:
215,360,101010,1,2,0:0:0:0:
373,204,101197,2,0,L|360:102,1,82.5000031471254,2|8,0:0|0:0,0:0:0:0:
207,253,101572,1,2,0:0:0:0:
34,75,101760,1,2,0:0:0:0:
34,75,101853,1,0,0:0:0:0:
34,75,101947,1,0,0:0:0:0:
34,75,102041,1,0,0:0:0:0:
34,75,102135,5,4,0:0:0:0:
260,77,102322,1,0,0:0:0:0:
140,149,102510,1,8,0:0:0:0:
372,149,102697,5,0,1:0:0:0:
146,42,102885,1,0,0:0:0:0:
146,42,102978,1,0,0:0:0:0:
146,42,103072,1,8,0:0:0:0:
134,262,103260,5,0,1:0:0:0:
260,77,103447,1,0,0:0:0:0:
369,264,103635,1,8,0:0:0:0:
127,365,103822,5,0,1:0:0:0:
253,180,104010,1,0,0:0:0:0:
253,180,104103,1,0,0:0:0:0:
253,180,104197,1,8,0:0:0:0:
376,382,104385,1,0,1:0:0:0:
376,382,104478,1,0,0:0:0:0:
376,382,104572,1,0,0:0:0:0:
376,382,104666,1,0,0:0:0:0:
376,382,104760,6,0,L|464:376,1,82.5,4|0,0:0|0:0,0:0:0:0:
510,298,105135,5,2,0:0:0:0:
154,93,105510,5,2,3:2:0:0:
243,162,105697,1,0,0:0:0:0:
98,142,105885,1,2,0:0:0:0:
114,30,106072,1,0,0:0:0:0:
310,177,106260,1,2,0:0:0:0:
205,219,106447,1,2,3:2:0:0:
317,89,106635,6,0,B|390:95|385:166|457:164,1,165,2|0,0:0|0:0,0:0:0:0:
453,81,107010,2,0,P|407:137|413:242,1,165,2|0,3:2|0:0,0:0:0:0:
488,342,107385,2,0,P|409:304|284:305,1,165,2|0,0:0|0:0,0:0:0:0:
255,314,107760,1,2,0:0:0:0:
121,195,107947,1,2,3:2:0:0:
116,212,108041,1,0,0:0:0:0:
110,229,108135,5,2,0:0:0:0:
193,248,108322,1,0,0:0:0:0:
180,58,108510,1,2,3:2:0:0:
35,168,108697,1,0,0:0:0:0:
250,181,108885,5,2,0:0:0:0:
246,106,109072,1,0,0:0:0:0:
64,67,109260,1,2,0:0:0:0:
113,262,109447,1,2,3:2:0:0:
140,68,109635,5,2,0:0:0:0:
33,140,109822,1,2,0:0:0:0:
254,234,110010,1,2,3:2:0:0:
246,106,110197,1,0,0:0:0:0:
195,302,110385,5,2,0:0:0:0:
216,318,110478,1,0,0:0:0:0:
242,327,110572,1,0,0:0:0:0:
270,326,110666,1,0,0:0:0:0:
295,317,110760,5,2,0:0:0:0:
335,350,110853,1,0,0:0:0:0:
408,356,110947,1,2,3:2:0:0:
480,293,111041,1,0,0:0:0:0:
472,185,111135,5,2,0:0:0:0:
80,162,111510,5,2,3:2:0:0:
238,193,111697,1,0,0:0:0:0:
127,92,111885,1,2,0:0:0:0:
122,273,112072,1,0,0:0:0:0:
220,102,112260,1,2,0:0:0:0:
42,87,112447,1,2,3:2:0:0:
211,271,112635,6,0,P|276:308|374:276,1,165,2|0,0:0|0:0,0:0:0:0:
390,184,113010,2,0,P|360:263|380:353,1,165,2|0,3:2|0:0,0:0:0:0:
474,92,113385,2,0,P|504:171|484:261,1,165,2|0,0:0|0:0,0:0:0:0:
437,316,113760,1,2,0:0:0:0:
298,351,113947,1,0,0:0:0:0:
181,258,114135,5,2,0:0:0:0:
158,212,114228,1,0,0:0:0:0:
163,160,114322,1,2,0:0:0:0:
271,270,114510,1,2,3:2:0:0:
70,344,114697,2,0,P|87:280|86:214,1,131.99999597168,2|2,0:0|0:0,0:0:0:0:
144,33,115072,1,2,3:2:0:0:
88,71,115166,1,0,0:0:0:0:
21,85,115260,6,0,L|106:108,1,82.5,4|0,0:0|0:0,0:0:0:0:
279,74,115635,6,0,B|340:173|204:208|274:318,1,247.500009441376,0|0,1:0|0:0,0:0:0:0:
417,225,116010,2,0,L|330:253,1,82.5000031471254,8|0,0:0|0:0,0:0:0:0:
124,343,116197,2,0,B|246:368|229:218|363:256,1,247.500009441376,0|0,1:0|0:0,0:0:0:0:
135,182,116572,2,0,L|155:270,1,82.5000031471254,8|0,0:0|0:0,0:0:0:0:
207,125,116760,1,0,1:0:0:0:
175,99,116853,1,0,0:0:0:0:
135,89,116947,1,0,0:0:0:0:
95,98,117041,1,0,0:0:0:0:
62,122,117135,6,0,P|164:79|315:81,1,247.500009441376,0|0,1:0|0:0,0:0:0:0:
417,166,117510,2,0,P|380:151|339:149,1,82.5000031471254,8|0,0:0|0:0,0:0:0:0:
124,287,117697,2,0,P|246:287|361:242,1,247.500009441376,0|0,1:0|0:0,0:0:0:0:
304,67,118072,2,0,P|271:92|249:126,1,82.5000031471254,8|0,0:0|0:0,0:0:0:0:
448,265,118260,1,0,1:0:0:0:
442,224,118353,1,0,0:0:0:0:
443,183,118447,1,0,0:0:0:0:
451,142,118541,1,0,0:0:0:0:
466,104,118635,6,0,L|375:147,1,82.5000031471254,0|0,1:0|0:0,0:0:0:0:
378,31,118822,2,0,L|287:74,1,82.5000031471254,0|0,0:0|0:0,0:0:0:0:
429,210,119010,2,0,L|338:253,1,82.5000031471254,8|0,0:0|0:0,0:0:0:0:
229,38,119197,2,0,L|138:81,1,82.5000031471254,0|0,1:0|0:0,0:0:0:0:
364,323,119385,2,0,L|273:366,1,82.5000031471254,0|0,0:0|0:0,0:0:0:0:
77,56,119572,2,0,L|-14:99,1,82.5000031471254,8|0,0:0|0:0,0:0:0:0:
107,318,119760,5,0,1:0:0:0:
177,338,119853,1,0,0:0:0:0:
231,288,119947,1,0,0:0:0:0:
216,216,120041,1,0,0:0:0:0:
251,149,120135,5,0,0:0:0:0:
184,123,121635,6,0,B|148:123|115:100|115:100|162:167|193:344|81:353|-4:293|-23:212|53:147|105:158|168:191|228:209|250:237|272:257|272:257|368:312|464:274|475:215|455:147|366:107|272:187|264:251|259:314,1,1100,2|0,0:0|0:0,0:0:0:0:
