osu file format v14

[General]
AudioFilename: audio.mp3
AudioLeadIn: 0
PreviewTime: 12316
Countdown: 0
SampleSet: Normal
StackLeniency: 0.7
Mode: 0
LetterboxInBreaks: 0
WidescreenStoryboard: 1

[Editor]
Bookmarks: 12316,24316,37816,54316,78316,90316,103816,118816,123316
DistanceSpacing: 2.7
BeatDivisor: 4
GridSize: 4
TimelineZoom: 2.000001

[Metadata]
Title:PandorA
TitleUnicode:PandorA
Artist:M2U
ArtistUnicode:M2U
Creator:Kawa
Version:Insane
Source:HIGH5
Tags:
BeatmapID:1209065
BeatmapSetID:570388

[Difficulty]
HPDrainRate:5
CircleSize:4
OverallDifficulty:6
ApproachRate:9
SliderMultiplier:1.9
SliderTickRate:1

[Events]
//Background and Video events
0,0,"58615824_p0.jpg",0,0
//Break Periods
//Storyboard Layer 0 (Background)
//Storyboard Layer 1 (Fail)
//Storyboard Layer 2 (Pass)
//Storyboard Layer 3 (Foreground)
//Storyboard Sound Samples

[TimingPoints]
316.493825224987,375,4,1,1,65,1,0
9316,-66.6666666666667,4,1,1,65,0,0
9503,-100,4,1,1,65,0,0
10816,-142.857142857143,4,1,1,65,0,0
11378,-100,4,1,1,65,0,0
12316,-125,4,2,1,45,0,0
17566,-125,4,3,1,35,0,0
18316,-125,4,2,1,45,0,0
21316,-100,4,1,1,65,0,0
23941,-142.857142857143,4,1,1,65,0,0
24222,-100,4,1,1,65,0,0
24316,-100,4,2,2,40,0,0
29472,-100,4,1,1,50,0,0
30316,-100,4,2,2,40,0,0
34816,-100,4,1,1,50,0,0
37816,-125,4,2,1,45,0,0
41566,-111.111111111111,4,2,1,50,0,0
42316,-100,4,2,1,55,0,0
43066,-125,4,3,1,35,0,0
43816,-125,4,2,1,45,0,0
45316,-125,4,2,27,100,0,0
45503,-125,4,2,1,45,0,0
45691,-125,4,2,37,100,0,0
45878,-125,4,2,1,45,0,0
46066,-125,4,2,40,100,0,0
46253,-125,4,2,1,45,0,0
46816,-125,4,1,1,50,0,0
47941,-83.3333333333333,4,3,2,65,0,0
48128,-125,4,1,1,60,0,0
52816,-100,4,1,1,40,0,0
53378,-125,4,1,1,40,0,0
53753,-100,4,1,1,40,0,0
53941,-100,4,3,2,65,0,0
54128,-100,4,1,1,40,0,0
54316,-66.6666666666667,4,1,2,55,0,1
54691,-66.6666666666667,4,1,3,55,0,1
55066,-66.6666666666667,4,1,4,55,0,1
55253,-83.3333333333333,4,1,4,55,0,1
57316,-66.6666666666667,4,1,2,55,0,1
57691,-66.6666666666667,4,1,3,55,0,1
58066,-66.6666666666667,4,1,4,55,0,1
58253,-83.3333333333333,4,1,4,55,0,1
59941,-133.333333333333,4,1,4,55,0,1
60316,-66.6666666666667,4,1,2,55,0,1
60691,-66.6666666666667,4,1,3,55,0,1
61066,-66.6666666666667,4,1,4,55,0,1
61628,-153.846153846154,4,1,4,55,0,1
61910,-66.6666666666667,4,1,4,55,0,1
63316,-66.6666666666667,4,1,2,55,0,1
63691,-83.3333333333333,4,1,3,55,0,1
63878,-66.6666666666667,4,1,4,55,0,1
64066,-83.3333333333333,4,1,3,55,0,1
64253,-66.6666666666667,4,1,4,55,0,1
65003,-100,4,1,4,55,0,1
65285,-66.6666666666667,4,1,4,55,0,1
65941,-100,4,1,3,55,0,1
66316,-66.6666666666667,4,1,2,55,0,1
66691,-66.6666666666667,4,1,3,55,0,1
67066,-66.6666666666667,4,1,4,55,0,1
67253,-83.3333333333333,4,1,4,55,0,1
69316,-66.6666666666667,4,1,2,55,0,1
69691,-66.6666666666667,4,1,3,55,0,1
70066,-125,4,1,4,55,0,1
70253,-66.6666666666667,4,1,4,55,0,1
70816,-83.3333333333333,4,1,4,55,0,1
71941,-133.333333333333,4,1,4,55,0,1
72316,-66.6666666666667,4,1,2,55,0,1
72691,-66.6666666666667,4,1,3,55,0,1
73066,-66.6666666666667,4,1,4,55,0,1
73816,-100,4,1,4,55,0,1
74191,-66.6666666666667,4,1,4,55,0,1
74753,-83.3333333333333,4,1,4,55,0,1
74941,-66.6666666666667,4,1,4,55,0,1
75316,-66.6666666666667,4,1,2,55,0,1
75691,-100,4,1,3,55,0,1
75878,-66.6666666666667,4,1,4,55,0,1
77753,-83.3333333333333,4,1,4,55,0,1
77941,-133.333333333333,4,1,4,55,0,1
78316,-125,4,2,1,45,0,0
83566,-125,4,3,1,35,0,0
84316,-125,4,2,1,45,0,0
87316,-100,4,1,1,50,0,0
89941,-142.857142857143,4,1,1,65,0,0
90222,-100,4,1,1,65,0,0
90316,-100,4,2,2,40,0,0
95472,-100,4,1,1,50,0,0
96316,-100,4,2,2,40,0,0
100816,-100,4,1,1,50,0,0
103816,-125,4,2,1,45,0,0
107566,-111.111111111111,4,2,1,45,0,0
108316,-100,4,2,1,45,0,0
109066,-100,4,3,1,35,0,0
109816,-125,4,2,1,45,0,0
111316,-125,4,2,28,100,0,0
111503,-125,4,2,1,45,0,0
111691,-125,4,2,27,100,0,0
111878,-125,4,2,1,45,0,0
112066,-125,4,2,29,100,0,0
112253,-125,4,2,1,45,0,0
112816,-125,4,1,1,45,0,0
113941,-83.3333333333333,4,3,2,65,0,0
114128,-125,4,1,1,50,0,0
120316,-200,4,2,1,20,0,0

[Colours]
Combo1 : 148,148,148
Combo2 : 255,213,149
Combo3 : 255,176,13
Combo4 : 255,155,155
Combo5 : 255,89,89
Combo6 : 209,165,165
Combo7 : 185,115,115
Combo8 : 192,192,192

[HitObjects]
232,96,316,38,0,L|308:32,1,95,2|0,0:0|0:0,0:0:0:0:
304,148,691,1,8,0:0:0:0:
164,52,878,2,0,L|120:84,1,47.5,2|0,0:0|0:0,0:0:0:0:
68,200,1066,2,0,L|112:168,1,47.5
200,168,1253,1,8,0:0:0:0:
396,256,1441,2,0,P|368:304|332:328,1,95,2|4,0:0|0:0,0:0:0:0:
188,328,1722,1,0,0:0:0:0:
176,312,1816,6,0,P|200:272|248:236,1,95,2|0,0:0|0:0,0:0:0:0:
244,120,2191,1,8,0:0:0:0:
144,184,2378,1,2,0:0:0:0:
121,199,2472,1,0,0:0:0:0:
99,215,2566,1,0,0:0:0:0:
76,231,2660,1,0,0:0:0:0:
54,247,2753,1,8,0:0:0:0:
236,328,2941,2,0,L|184:240,1,95,6|0,0:0|0:0,0:0:0:0:
184,92,3316,102,0,L|244:184,1,95,2|0,0:0|0:0,0:0:0:0:
244,284,3691,1,8,0:0:0:0:
392,176,3878,1,2,0:0:0:0:
392,176,3972,1,0,0:0:0:0:
392,176,4066,2,0,L|304:240,1,95,0|8,0:0|0:0,0:0:0:0:
328,80,4441,2,0,P|400:56|476:96,1,142.5,2|0,0:0|0:0,0:0:0:0:
448,224,4816,6,0,L|392:136,1,95,8|2,0:0|0:0,0:0:0:0:
396,143,5097,1,0,0:0:0:0:
396,143,5191,1,4,0:0:0:0:
296,248,5378,1,8,0:0:0:0:
192,84,5566,1,2,0:0:0:0:
184,92,5660,1,0,0:0:0:0:
176,100,5753,2,0,L|144:148,1,47.5,4|0,0:0|0:0,0:0:0:0:
168,252,5941,2,0,L|200:208,1,47.5,2|0,0:0|0:0,0:0:0:0:
152,4,6128,2,0,L|112:52,1,47.5,0|0,0:0|0:0,0:0:0:0:
80,200,6316,101,2,0:0:0:0:
316,132,6503,1,0,0:0:0:0:
328,123,6597,1,0,0:0:0:0:
342,113,6691,2,0,L|385:81,2,47.5,8|0|2,0:0|0:0|0:0,0:0:0:0:
168,56,7066,2,0,L|144:8,2,47.5,0|0|8,0:0|0:0|0:0,0:0:0:0:
136,228,7441,1,2,0:0:0:0:
154,264,7535,1,0,0:0:0:0:
188,289,7628,1,4,0:0:0:0:
229,295,7722,1,0,0:0:0:0:
268,300,7816,6,0,L|292:344,3,47.5,2|0|0|0,0:0|0:0|0:0|0:0,0:0:0:0:
260,208,8191,2,0,L|232:160,3,47.5,8|0|0|0,0:0|0:0|0:0|0:0,0:0:0:0:
288,217,8566,1,2,0:0:0:0:
329,207,8660,1,0,0:0:0:0:
371,214,8753,1,8,0:0:0:0:
408,236,8847,1,0,0:0:0:0:
428,264,8941,2,0,L|388:316,1,47.5,4|0,0:0|0:0,0:0:0:0:
320,148,9128,2,0,L|352:104,1,47.5,0|0,0:0|0:0,0:0:0:0:
444,188,9316,102,0,B|404:184|376:208|376:208|344:236|292:228,1,142.500005435944,2|0,0:0|0:0,0:0:0:0:
280,228,9597,1,0,0:0:0:0:
256,212,9691,1,8,0:0:0:0:
104,92,9878,1,2,0:0:0:0:
264,56,10066,1,0,0:0:0:0:
303,64,10160,1,0,0:0:0:0:
337,85,10253,1,8,0:0:0:0:
362,117,10347,1,0,0:0:0:0:
380,148,10441,1,2,0:0:0:0:
345,173,10535,1,0,0:0:0:0:
326,206,10628,1,0,0:0:0:0:
326,248,10722,1,0,0:0:0:0:
336,280,10816,6,0,P|323:182|223:167,1,199.499993911743,8|8,0:0|0:0,0:0:0:0:
256,316,11472,1,0,0:0:0:0:
256,332,11566,2,0,L|360:376,1,95,2|4,0:0|0:0,0:0:0:0:
180,244,11941,1,8,0:0:0:0:
80,44,12316,70,0,P|156:28|236:68,1,152,0|8,0:0|0:0,0:0:0:0:
232,176,12878,2,0,L|268:192,2,38
112,220,13253,2,0,B|152:292|152:292|224:320,1,152,4|8,0:0|0:0,0:0:0:0:
240,308,13722,1,0,0:0:0:0:
240,308,13816,5,0,0:0:0:0:
360,220,14003,1,0,0:0:0:0:
452,368,14191,1,8,0:0:0:0:
256,228,14378,1,0,0:0:0:0:
256,208,14472,1,0,0:0:0:0:
260,188,14566,2,0,B|280:152|280:152|276:104,1,76,0|8,0:0|0:0,0:0:0:0:
180,56,14847,1,0,0:0:0:0:
168,48,14941,2,0,L|116:24,1,38
16,48,15128,2,0,L|64:72,1,38,8|0,0:0|0:0,0:0:0:0:
128,164,15316,101,0,0:0:0:0:
128,164,15503,2,0,B|120:200|120:200|100:236,1,76,0|8,0:0|0:0,0:0:0:0:
16,348,15878,1,0,0:0:0:0:
36,168,16066,1,0,0:0:0:0:
180,308,16253,2,0,B|340:296,1,152,4|8,0:0|0:0,0:0:0:0:
352,316,16722,1,0,0:0:0:0:
352,316,16816,5,0,0:0:0:0:
340,160,17003,2,0,B|300:184|300:184|280:216,1,76,0|8,0:0|0:0,0:0:0:0:
460,248,17378,1,0,0:0:0:0:
392,88,17566,1,2,2:3:0:0:
368,70,17660,1,0,2:3:0:0:
339,64,17753,1,8,2:3:0:0:
310,70,17847,1,0,2:3:0:0:
286,87,17941,1,2,2:3:0:0:
255,110,18035,1,0,2:3:0:0:
218,118,18128,1,4,2:3:0:0:
181,110,18222,1,0,2:3:0:0:
156,80,18316,102,0,P|204:152|172:220,1,152,0|8,0:0|0:0,0:0:0:0:
104,248,18878,2,0,L|60:248,2,38
224,336,19253,2,0,P|308:336|380:288,1,152,4|8,0:0|0:0,0:0:0:0:
364,280,19722,1,0,0:0:0:0:
364,280,19816,5,0,0:0:0:0:
272,212,20003,1,0,0:0:0:0:
468,224,20191,1,8,0:0:0:0:
448,96,20378,1,0,0:0:0:0:
440,80,20472,1,0,0:0:0:0:
432,64,20566,2,0,L|364:108,1,76,0|8,0:0|0:0,0:0:0:0:
268,92,20847,1,0,0:0:0:0:
252,80,20941,1,0,0:0:0:0:
236,68,21035,2,0,L|200:28,2,38,0|0|0,0:0|0:0|0:0,0:0:0:0:
184,196,21316,6,0,L|140:252,1,47.5,2|0,0:0|0:0,0:0:0:0:
64,340,21503,2,0,L|16:396,2,47.5,0|0|8,0:0|0:0|0:0,0:0:0:0:
292,304,21878,1,0,0:0:0:0:
304,300,21972,1,0,0:0:0:0:
316,292,22066,2,0,L|372:264,1,47.5
448,156,22253,2,0,L|396:184,1,47.5,8|0,0:0|0:0,0:0:0:0:
280,176,22441,1,4,0:0:0:0:
255,146,22535,1,0,0:0:0:0:
246,108,22628,1,0,0:0:0:0:
256,70,22722,1,0,0:0:0:0:
282,42,22816,6,0,B|328:76|328:76|356:116,1,95,2|0,0:0|0:0,0:0:0:0:
448,272,23191,1,8,0:0:0:0:
280,360,23378,2,0,B|248:324|248:324|232:264,1,95,2|0,0:0|0:0,0:0:0:0:
188,92,23753,1,8,0:0:0:0:
180,84,23847,1,0,0:0:0:0:
172,76,23941,2,0,L|152:184,1,99.7499969558717,2|0,0:0|0:0,0:0:0:0:
160,304,24316,5,2,0:0:0:0:
184,332,24503,1,0,0:0:0:0:
216,344,24691,1,0,0:0:0:0:
256,336,24878,1,0,0:0:0:0:
324,172,25066,5,8,0:0:0:0:
352,152,25253,1,0,0:0:0:0:
392,152,25441,1,0,0:0:0:0:
424,176,25628,1,0,0:0:0:0:
284,68,25816,101,2,0:0:0:0:
260,52,26003,1,0,0:0:0:0:
232,40,26191,1,0,0:0:0:0:
200,52,26378,1,0,0:0:0:0:
88,176,26566,5,8,0:0:0:0:
108,204,26753,1,0,0:0:0:0:
128,232,26941,1,0,0:0:0:0:
144,256,27128,1,0,0:0:0:0:
288,344,27316,101,2,0:0:0:0:
308,316,27503,1,0,0:0:0:0:
300,280,27691,1,0,0:0:0:0:
320,252,27878,1,0,0:0:0:0:
228,116,28066,5,8,0:0:0:0:
200,96,28253,1,0,0:0:0:0:
176,124,28441,1,0,0:0:0:0:
208,144,28628,1,0,0:0:0:0:
360,216,28816,101,2,0:0:0:0:
400,204,29003,1,0,0:0:0:0:
428,172,29191,1,0,0:0:0:0:
428,132,29378,1,0,0:0:0:0:
384,52,29472,6,0,L|332:20,2,47.5,8|0|8,0:0|0:0|0:0,0:0:0:0:
208,64,29753,2,0,L|260:96,1,47.5,2|0,0:0|0:0,0:0:0:0:
344,144,29941,2,0,B|304:188|304:188|248:220,1,95,8|6,0:0|0:0,0:0:0:0:
72,212,30316,101,2,0:0:0:0:
52,188,30503,1,0,0:0:0:0:
44,156,30691,1,0,0:0:0:0:
52,124,30878,1,0,0:0:0:0:
216,140,31066,5,8,0:0:0:0:
236,164,31253,1,0,0:0:0:0:
256,188,31441,1,0,0:0:0:0:
280,212,31628,1,0,0:0:0:0:
396,324,31816,101,2,0:0:0:0:
424,300,32003,1,0,0:0:0:0:
392,276,32191,1,0,0:0:0:0:
368,300,32378,1,0,0:0:0:0:
200,308,32566,5,8,0:0:0:0:
172,288,32753,1,0,0:0:0:0:
152,260,32941,1,0,0:0:0:0:
144,228,33128,1,0,0:0:0:0:
320,212,33316,101,2,0:0:0:0:
368,201,33503,1,0,0:0:0:0:
413,179,33691,1,0,0:0:0:0:
434,131,33878,1,0,0:0:0:0:
272,48,34066,5,8,0:0:0:0:
192,60,34253,1,0,0:0:0:0:
140,120,34441,1,0,0:0:0:0:
152,200,34628,1,0,0:0:0:0:
252,240,34816,70,0,L|304:196,1,47.5,2|0,0:0|0:0,0:0:0:0:
200,352,35003,2,0,L|156:392,1,47.5
48,296,35191,1,8,0:0:0:0:
88,120,35378,2,0,L|64:60,1,47.5,2|0,0:0|0:0,0:0:0:0:
216,140,35566,2,0,P|196:188|160:220,1,95,0|8,0:0|0:0,0:0:0:0:
164,60,35847,1,0,0:0:0:0:
172,44,35941,2,0,B|228:44|228:44|288:64,1,95,2|0,0:0|0:0,0:0:0:0:
372,168,36316,5,8,0:0:0:0:
264,280,36503,2,0,B|304:316|304:316|364:328,1,95,2|0,0:0|0:0,0:0:0:0:
276,176,36878,1,8,0:0:0:0:
260,164,36972,1,0,0:0:0:0:
244,152,37066,2,0,L|184:192,1,47.5,2|0,0:0|0:0,0:0:0:0:
136,316,37253,2,0,L|184:280,1,47.5,4|0,0:0|0:0,0:0:0:0:
340,244,37441,1,8,0:0:0:0:
356,24,37816,70,0,P|424:58|460:134,1,152,0|8,0:0|0:0,0:0:0:0:
376,228,38378,1,0,0:0:0:0:
376,228,38472,1,0,0:0:0:0:
376,228,38566,2,0,L|292:240,1,76,0|4,0:0|0:0,0:0:0:0:
232,152,38941,2,0,L|324:140,1,76,0|8,0:0|0:0,0:0:0:0:
464,216,39316,6,0,P|432:300|356:316,1,152,0|8,0:0|0:0,0:0:0:0:
296,260,39878,1,0,0:0:0:0:
216,320,40066,2,0,L|132:284,1,76,0|8,0:0|0:0,0:0:0:0:
104,160,40441,1,0,0:0:0:0:
131,133,40535,1,0,0:0:0:0:
165,118,40628,1,8,0:0:0:0:
203,115,40722,1,0,0:0:0:0:
239,126,40816,102,0,P|280:144|328:140,1,76
440,96,41191,1,8,0:0:0:0:
296,48,41378,1,0,0:0:0:0:
144,152,41566,2,0,P|168:192|219:219,1,85.4999973907472
228,220,41847,1,0,0:0:0:0:
228,220,41941,1,0,0:0:0:0:
296,48,42128,1,12,0:0:0:0:
108,72,42316,6,0,P|68:108|56:168,1,95
84,296,42691,2,0,B|136:312|136:312|184:296,1,95,8|0,0:0|0:0,0:0:0:0:
244,204,43066,1,2,2:3:0:0:
262,185,43160,1,0,2:3:0:0:
286,174,43253,1,8,2:3:0:0:
312,172,43347,1,0,2:3:0:0:
337,178,43441,1,2,2:3:0:0:
367,155,43535,1,0,2:3:0:0:
388,123,43628,1,4,2:3:0:0:
399,87,43722,1,0,2:3:0:0:
398,49,43816,102,0,B|352:42|352:42|296:48,1,76,2|0,0:0|0:0,0:0:0:0:
208,104,44191,1,8,0:0:0:0:
337,178,44378,1,0,0:0:0:0:
192,208,44566,2,0,L|232:284,1,76
348,348,44941,2,0,L|308:268,1,76,0|8,0:0|0:0,0:0:0:0:
136,276,45316,5,0,0:0:0:0:
256,356,45503,1,0,0:0:0:0:
384,276,45691,1,0,0:0:0:0:
256,344,45878,1,0,0:0:0:0:
256,168,46066,2,0,L|256:252,1,76
328,104,46441,1,0,0:0:0:0:
272,36,46628,1,0,0:0:0:0:
132,48,46816,102,0,B|96:76|96:76|84:108,1,76,2|0,0:0|0:0,0:0:0:0:
136,232,47191,1,8,0:0:0:0:
136,232,47285,1,0,0:0:0:0:
136,232,47378,2,0,P|173:195|168:112,1,114
179,135,47753,1,2,0:0:0:0:
52,308,47941,2,0,P|88:336|154:341,1,113.999996520996,2|0,0:0|0:0,0:0:0:0:
348,280,48316,22,0,P|312:216|232:196,1,152,2|8,0:0|0:0,0:0:0:0:
276,352,48878,1,2,0:0:0:0:
307,372,48972,1,0,0:0:0:0:
344,380,49066,1,0,0:0:0:0:
382,375,49160,1,0,0:0:0:0:
415,356,49253,1,8,0:0:0:0:
496,180,49441,2,0,B|456:172|456:172|408:180,1,76,2|4,0:0|0:0,0:0:0:0:
348,280,49816,5,2,0:0:0:0:
220,240,50003,2,0,B|188:204|188:204|172:160,1,76,0|8,0:0|0:0,0:0:0:0:
204,44,50378,2,0,L|180:4,2,38,2|0|0,0:0|0:0|0:0,0:0:0:0:
252,64,50660,1,0,0:0:0:0:
252,64,50753,1,8,0:0:0:0:
384,212,50941,1,2,0:0:0:0:
372,40,51128,1,4,0:0:0:0:
496,184,51316,102,0,P|492:264|436:320,1,152,2|8,0:0|0:0,0:0:0:0:
280,276,51878,1,2,0:0:0:0:
292,243,51972,1,0,0:0:0:0:
317,219,52066,1,0,0:0:0:0:
351,207,52160,1,0,0:0:0:0:
385,211,52253,1,8,0:0:0:0:
324,360,52441,2,0,B|288:376|288:376|228:376,1,76,2|4,0:0|0:0,0:0:0:0:
18,262,52816,54,0,L|68:222,1,47.5
125,177,53003,1,0,0:0:0:0:
240,192,53097,2,0,L|264:236,2,47.5
280,100,53378,2,0,B|356:76|356:76|432:96,1,152
504,272,53941,1,2,0:0:0:0:
360,164,54128,1,0,0:0:0:0:
216,304,54316,70,0,P|144:308|192:284,1,213.750008153916,2|0,0:0|0:0,0:0:0:0:
368,324,54691,2,0,L|396:356,4,35.625001358986,4|0|0|0|0,0:0|0:0|0:0|0:0|0:0,0:0:0:0:
280,44,55066,38,0,B|239:46|239:46|198:69,1,71.2500027179719,8|0,0:0|0:0,0:0:0:0:
184,172,55253,2,0,L|236:212,1,56.9999982604981
416,256,55441,2,0,L|356:216,1,56.9999982604981
228,164,55628,2,0,L|288:160,1,56.9999982604981
376,276,55816,2,0,L|316:280,1,56.9999982604981
264,132,56003,2,0,L|308:84,1,56.9999982604981,2|0,0:0|0:0,0:0:0:0:
352,316,56191,5,4,0:0:0:0:
352,316,56285,1,0,0:0:0:0:
352,316,56378,2,0,L|304:360,1,56.9999982604981,2|2,0:0|0:0,0:0:0:0:
160,330,56566,2,0,B|130:280|130:280|122:211,1,113.999996520996,8|2,0:0|0:0,0:0:0:0:
119,142,56847,1,0,0:0:0:0:
144,72,56941,2,0,B|163:51|163:51|213:52,1,56.9999982604981,8|0,0:0|0:0,0:0:0:0:
55,187,57128,2,0,B|26:201|26:201|-1:193,1,56.9999982604981,2|0,0:0|0:0,0:0:0:0:
144,72,57316,54,0,P|160:56|340:104,1,213.750008153916,2|0,0:0|0:0,0:0:0:0:
220,180,57691,2,0,P|226:102|257:174,1,213.750008153916,4|0,0:0|0:0,0:0:0:0:
180,288,58066,38,0,B|220:308|220:308|268:312,1,71.2500027179719,8|0,0:0|0:0,0:0:0:0:
392,276,58253,2,0,L|460:252,1,56.9999982604981
392,240,58441,2,0,L|456:216,1,56.9999982604981
460,124,58628,2,0,L|476:84,2,28.4999991302491
220,180,58816,6,0,L|164:132,1,56.9999982604981,2|0,0:0|0:0,0:0:0:0:
24,52,59003,2,0,L|68:92,1,56.9999982604981,2|0,0:0|0:0,0:0:0:0:
276,172,59191,2,0,L|220:124,1,56.9999982604981,4|0,0:0|0:0,0:0:0:0:
24,112,59378,2,0,L|80:160,1,56.9999982604981,0|4,0:0|0:0,0:0:0:0:
160,260,59566,102,0,L|132:304,2,28.4999991302491,8|0|0,0:0|0:0|0:0,0:0:0:0:
176,252,59753,2,0,L|240:252,1,56.9999982604981,2|0,0:0|0:0,0:0:0:0:
440,240,59941,2,0,L|344:304,1,106.875004076958,8|0,0:0|0:0,0:0:0:0:
351,299,60316,70,0,P|336:232|356:252,1,213.750008153916,2|0,0:0|0:0,0:0:0:0:
260,372,60691,2,0,P|224:344|208:320,1,71.2500027179719,4|0,0:0|0:0,0:0:0:0:
148,176,60878,2,0,L|140:136,2,35.625001358986,2|0|0,0:0|0:0|0:0,0:0:0:0:
88,300,61066,38,0,L|32:348,1,71.2500027179719,8|0,0:0|0:0,0:0:0:0:
260,160,61253,1,2,0:0:0:0:
260,160,61347,1,2,0:0:0:0:
260,160,61441,2,0,L|320:104,1,71.2500027179719,8|0,0:0|0:0,0:0:0:0:
456,52,61628,6,0,L|384:124,1,92.6249957599642,8|0,0:0|0:0,0:0:0:0:
400,204,62003,2,0,L|420:240,2,35.625001358986,2|0|2,0:0|0:0|0:0,0:0:0:0:
312,111,62191,2,0,P|224:100|188:168,1,142.500005435944,8|2,0:0|0:0,0:0:0:0:
88,312,62566,102,0,L|80:224,1,71.2500027179719,4|0,0:0|0:0,0:0:0:0:
104,112,62753,2,0,L|100:68,2,35.625001358986,2|0|2,0:0|0:0|0:0,0:0:0:0:
168,196,62941,1,8,0:0:0:0:
176,204,63035,2,0,L|196:124,2,71.2500027179719,0|4|0,0:0|0:0|0:0,0:0:0:0:
336,356,63316,70,0,P|441:329|476:236,1,213.750008153916,2|0,0:0|0:0,0:0:0:0:
414,40,63691,2,0,L|400:96,1,56.9999982604981,8|0,0:0|0:0,0:0:0:0:
352,216,63878,2,0,L|368:252,2,35.625001358986,2|0|0,0:0|0:0|0:0,0:0:0:0:
364,68,64066,38,0,L|380:8,2,56.9999982604981,0|0|2,0:0|0:0|0:0,0:0:0:0:
296,168,64347,1,2,0:0:0:0:
276,172,64441,2,0,L|224:124,1,71.2500027179719,8|0,0:0|0:0,0:0:0:0:
396,144,64628,2,0,B|424:172|424:172|436:216,1,71.2500027179719,2|0,0:0|0:0,0:0:0:0:
288,356,64816,6,0,B|268:316|268:316|264:272,1,71.2500027179719,2|0,0:0|0:0,0:0:0:0:
296,168,65003,2,0,B|308:120,2,47.5,0|0|8,0:0|0:0|0:0,0:0:0:0:
176,276,65285,1,0,0:0:0:0:
168,284,65378,1,4,0:0:0:0:
160,292,65472,1,0,0:0:0:0:
120,188,65566,102,0,B|110:152|110:152|85:115,1,71.2500027179719,8|0,0:0|0:0,0:0:0:0:
0,0,65753,1,2,0:0:0:0:
292,64,65941,2,0,L|324:76,6,23.75,2|0|0|0|0|0|0,0:0|0:0|0:0|0:0|0:0|0:0|0:0,0:0:0:0:
360,200,66316,70,0,P|352:248|348:188,1,213.750008153916,2|0,0:0|0:0,0:0:0:0:
460,340,66691,2,0,L|496:368,4,35.625001358986,8|0|0|0|0,0:0|0:0|0:0|0:0|0:0,0:0:0:0:
80,236,67066,38,0,B|64:276|64:276|76:324,1,71.2500027179719,2|0,0:0|0:0,0:0:0:0:
252,372,67253,2,0,L|268:316,1,56.9999982604981,4|0,0:0|0:0,0:0:0:0:
212,96,67441,2,0,L|188:168,1,56.9999982604981,8|0,0:0|0:0,0:0:0:0:
267,317,67628,2,0,L|320:288,1,56.9999982604981,4|0,0:0|0:0,0:0:0:0:
193,150,67816,2,0,L|133:166,1,56.9999982604981,2|0,0:0|0:0,0:0:0:0:
317,289,68003,2,0,L|372:324,1,56.9999982604981,4|0,0:0|0:0,0:0:0:0:
137,164,68191,6,0,L|80:136,2,56.9999982604981,8|0|4,0:0|0:0|0:0,0:0:0:0:
288,219,68472,1,0,0:0:0:0:
288,219,68566,2,0,B|324:175|324:175|324:111,1,113.999996520996,2|4,0:0|0:0,0:0:0:0:
291,38,68847,1,0,0:0:0:0:
214,9,68941,2,0,B|177:9|177:9|143:25,1,56.9999982604981,8|0,0:0|0:0,0:0:0:0:
324,117,69128,2,0,B|366:113|366:113|397:90,1,56.9999982604981,4|0,0:0|0:0,0:0:0:0:
392,184,69316,54,0,P|415:290|345:364,1,213.750008153916,2|0,0:0|0:0,0:0:0:0:
275,237,69691,2,0,P|308:218|269:260,1,213.750008153916,8|0,0:0|0:0,0:0:0:0:
400,96,70066,38,0,L|432:52,1,38,2|0,0:0|0:0,0:0:0:0:
408,112,70253,1,4,0:0:0:0:
460,240,70441,2,0,B|464:280|464:280|444:324,1,71.2500027179719,8|0,0:0|0:0,0:0:0:0:
304,336,70628,2,0,L|296:384,2,35.625001358986,4|0|0,0:0|0:0|0:0,0:0:0:0:
212,216,70816,6,0,L|240:156,1,56.9999982604981,2|0,0:0|0:0,0:0:0:0:
304,0,71003,2,0,L|280:64,1,56.9999982604981,4|0,0:0|0:0,0:0:0:0:
160,232,71191,2,0,L|192:168,1,56.9999982604981,8|0,0:0|0:0,0:0:0:0:
332,44,71378,2,0,L|308:108,1,56.9999982604981,4|0,0:0|0:0,0:0:0:0:
124,120,71566,102,0,L|100:104,2,28.4999991302491,2|0|0,0:0|0:0|0:0,0:0:0:0:
216,100,71753,2,0,L|272:152,1,56.9999982604981,4|0,0:0|0:0,0:0:0:0:
356,224,71941,2,0,L|336:112,1,106.875004076958,8|0,0:0|0:0,0:0:0:0:
337,118,72316,70,0,P|360:84|340:132,1,213.750008153916,2|0,0:0|0:0,0:0:0:0:
460,36,72691,2,0,P|484:72|496:116,1,71.2500027179719,8|0,0:0|0:0,0:0:0:0:
404,280,72878,2,0,L|384:332,2,35.625001358986,4|0|0,0:0|0:0|0:0,0:0:0:0:
248,204,73066,38,0,B|208:200|208:200|156:176,1,71.2500027179719,2|0,0:0|0:0,0:0:0:0:
32,120,73253,2,0,B|68:124|68:124|104:144,1,71.2500027179719,4|0,0:0|0:0,0:0:0:0:
140,256,73441,2,0,L|120:292,2,35.625001358986,8|0|0,0:0|0:0|0:0,0:0:0:0:
232,124,73628,1,4,0:0:0:0:
232,124,73722,1,0,0:0:0:0:
252,104,73816,6,0,L|312:116,1,47.5,2|0,0:0|0:0,0:0:0:0:
440,144,74003,2,0,L|480:152,2,23.75,4|0|0,0:0|0:0|0:0,0:0:0:0:
332,188,74191,2,0,B|324:204|324:204|336:276,1,71.2500027179719,8|0,0:0|0:0,0:0:0:0:
360,368,74378,1,4,0:0:0:0:
173,244,74566,102,0,L|137:256,2,35.625001358986,2|0|0,0:0|0:0|0:0,0:0:0:0:
277,205,74753,2,0,L|341:185,1,56.9999982604981,4|0,0:0|0:0,0:0:0:0:
128,144,74941,1,8,0:0:0:0:
108,132,75035,2,0,L|36:92,2,71.2500027179719,0|4|0,0:0|0:0|0:0,0:0:0:0:
196,92,75316,70,0,B|240:80|264:52|264:52|300:72|300:72|344:44|400:76,1,213.750008153916,2|0,0:0|0:0,0:0:0:0:
440,224,75691,2,0,P|452:248|460:292,1,47.5,8|0,0:0|0:0,0:0:0:0:
344,132,75878,2,0,L|324:100,2,35.625001358986,4|0|0,0:0|0:0|0:0,0:0:0:0:
312,288,76066,37,2,0:0:0:0:
304,300,76160,1,0,0:0:0:0:
296,308,76253,2,0,B|260:316|260:316|204:316,2,71.2500027179719,4|0|8,0:0|0:0|0:0,0:0:0:0:
392,252,76535,1,0,0:0:0:0:
408,256,76628,2,0,P|424:300|428:348,1,71.2500027179719,4|0,0:0|0:0,0:0:0:0:
408,76,76816,6,0,P|489:61|433:105,1,213.750008153916,2|0,0:0|0:0,0:0:0:0:
264,52,77191,2,0,L|200:16,2,71.2500027179719,8|0|4,0:0|0:0|0:0,0:0:0:0:
248,264,77472,1,0,0:0:0:0:
246,276,77566,102,0,L|247:320,2,35.625001358986,2|0|2,0:0|0:0|0:0,0:0:0:0:
188,116,77753,2,0,B|160:108|160:108|120:104,1,56.9999982604981,2|0,0:0|0:0,0:0:0:0:
296,152,77941,2,0,P|344:112|364:56,1,106.875004076958,8|0,0:0|0:0,0:0:0:0:
376,48,78316,22,0,P|448:88|460:172,1,152,0|8,0:0|0:0,0:0:0:0:
428,264,78878,2,0,L|456:292,2,38
300,192,79253,2,0,B|285:273|285:273|315:352,1,152,4|8,0:0|0:0,0:0:0:0:
337,351,79722,1,0,0:0:0:0:
337,351,79816,5,0,0:0:0:0:
428,264,80003,1,0,0:0:0:0:
260,240,80191,1,8,0:0:0:0:
164,312,80378,1,0,0:0:0:0:
152,320,80472,1,0,0:0:0:0:
140,328,80566,2,0,P|96:328|56:300,1,76,0|8,0:0|0:0,0:0:0:0:
40,176,80847,1,0,0:0:0:0:
32,160,80941,2,0,L|4:120,3,38,0|0|8|0,0:0|0:0|0:0|0:0,0:0:0:0:
124,236,81316,101,0,0:0:0:0:
248,132,81503,2,0,B|240:168|240:168|208:204,1,76,0|8,0:0|0:0,0:0:0:0:
148,80,81878,1,0,0:0:0:0:
256,28,82066,1,0,0:0:0:0:
372,64,82253,2,0,B|380:104|368:132|368:132|352:180|372:212,1,152,4|8,0:0|0:0,0:0:0:0:
356,228,82722,1,0,0:0:0:0:
356,228,82816,5,0,0:0:0:0:
440,312,83003,2,0,B|428:352|428:352|400:376,1,76,0|8,0:0|0:0,0:0:0:0:
272,348,83378,1,0,0:0:0:0:
172,228,83566,1,2,2:3:0:0:
183,200,83660,1,0,2:3:0:0:
205,181,83753,1,8,2:3:0:0:
234,172,83847,1,0,2:3:0:0:
263,175,83941,1,2,2:3:0:0:
302,180,84035,1,0,2:3:0:0:
338,170,84128,1,4,2:3:0:0:
366,145,84222,1,0,2:3:0:0:
384,112,84316,102,0,P|372:48|300:0,1,152,2|8,0:0|0:0,0:0:0:0:
152,24,84878,2,0,L|100:0,2,38
224,164,85253,2,0,P|148:172|100:116,1,152,4|8,0:0|0:0,0:0:0:0:
112,104,85722,1,0,0:0:0:0:
112,104,85816,5,0,0:0:0:0:
292,88,86003,1,0,0:0:0:0:
248,256,86191,1,8,0:0:0:0:
440,244,86378,1,0,0:0:0:0:
440,244,86472,1,0,0:0:0:0:
440,244,86566,2,0,B|456:204|456:204|456:168,1,76,0|8,0:0|0:0,0:0:0:0:
388,64,86847,2,0,L|412:20,2,38,0|0|0,0:0|0:0|0:0,0:0:0:0:
252,88,87128,1,8,0:0:0:0:
244,96,87222,1,0,0:0:0:0:
236,104,87316,6,0,L|192:148,1,47.5,2|0,0:0|0:0,0:0:0:0:
123,218,87503,2,0,L|72:268,2,47.5,0|0|8,0:0|0:0|0:0,0:0:0:0:
272,244,87878,1,0,0:0:0:0:
272,244,87972,1,0,0:0:0:0:
272,244,88066,2,0,L|336:244,1,47.5
480,176,88253,2,0,L|428:176,1,47.5,8|0,0:0|0:0,0:0:0:0:
268,128,88441,1,4,0:0:0:0:
284,92,88535,1,0,0:0:0:0:
315,68,88628,1,0,0:0:0:0:
353,61,88722,1,0,0:0:0:0:
390,73,88816,6,0,B|378:129|378:129|354:171,1,95,2|0,0:0|0:0,0:0:0:0:
228,288,89191,1,8,0:0:0:0:
88,124,89378,2,0,B|117:86|117:86|180:80,1,95,2|0,0:0|0:0,0:0:0:0:
340,212,89753,1,8,0:0:0:0:
352,224,89847,1,0,0:0:0:0:
364,236,89941,2,0,P|327:282|279:293,1,99.7499969558717,2|0,0:0|0:0,0:0:0:0:
128,272,90316,5,2,0:0:0:0:
112,248,90503,1,0,0:0:0:0:
104,216,90691,1,0,0:0:0:0:
108,180,90878,1,0,0:0:0:0:
276,180,91066,5,8,0:0:0:0:
304,167,91253,1,0,0:0:0:0:
334,150,91441,1,0,0:0:0:0:
363,137,91628,1,0,0:0:0:0:
244,32,91816,101,2,0:0:0:0:
212,24,92003,1,0,0:0:0:0:
184,32,92191,1,0,0:0:0:0:
156,44,92378,1,0,0:0:0:0:
224,200,92566,5,8,0:0:0:0:
252,220,92753,1,0,0:0:0:0:
260,252,92941,1,0,0:0:0:0:
292,264,93128,1,0,0:0:0:0:
460,252,93316,101,2,0:0:0:0:
484,220,93503,1,0,0:0:0:0:
452,196,93691,1,0,0:0:0:0:
424,224,93878,1,0,0:0:0:0:
252,132,94066,5,8,0:0:0:0:
268,96,94253,1,0,0:0:0:0:
308,84,94441,1,0,0:0:0:0:
348,100,94628,1,0,0:0:0:0:
368,272,94816,101,2,0:0:0:0:
328,316,95003,1,0,0:0:0:0:
272,332,95191,1,0,0:0:0:0:
216,312,95378,1,0,0:0:0:0:
128,276,95472,6,0,L|64:292,2,47.5,8|0|8,0:0|0:0|0:0,0:0:0:0:
220,188,95753,2,0,L|284:168,1,47.5,2|0,0:0|0:0,0:0:0:0:
104,172,95941,2,0,B|100:124|100:124|124:80,1,95,8|6,0:0|0:0,0:0:0:0:
264,68,96316,101,2,0:0:0:0:
288,92,96503,1,0,0:0:0:0:
312,116,96691,1,0,0:0:0:0:
336,140,96878,1,0,0:0:0:0:
288,308,97066,5,8,0:0:0:0:
256,320,97253,1,0,0:0:0:0:
220,312,97441,1,0,0:0:0:0:
196,288,97628,1,0,0:0:0:0:
182,118,97816,101,2,0:0:0:0:
154,94,98003,1,0,0:0:0:0:
122,82,98191,1,0,0:0:0:0:
86,82,98378,1,0,0:0:0:0:
72,260,98566,5,8,0:0:0:0:
100,284,98753,1,0,0:0:0:0:
132,260,98941,1,0,0:0:0:0:
104,228,99128,1,0,0:0:0:0:
264,148,99316,101,2,0:0:0:0:
296,116,99503,1,0,0:0:0:0:
336,96,99691,1,0,0:0:0:0:
384,92,99878,1,0,0:0:0:0:
432,264,100066,5,8,0:0:0:0:
376,324,100253,1,0,0:0:0:0:
292,332,100441,1,0,0:0:0:0:
220,288,100628,1,0,0:0:0:0:
200,192,100816,70,0,L|264:176,1,47.5,2|0,0:0|0:0,0:0:0:0:
368,68,101003,2,0,L|304:88,1,47.5
168,56,101191,1,8,0:0:0:0:
393,235,101378,2,0,L|453:279,1,47.5,2|0,0:0|0:0,0:0:0:0:
276,232,101566,2,0,P|290:181|321:145,1,95,0|8,0:0|0:0,0:0:0:0:
328,332,101847,1,0,0:0:0:0:
325,340,101941,2,0,B|272:359|207:330,1,95,2|0,0:0|0:0,0:0:0:0:
88,200,102316,5,8,0:0:0:0:
236,68,102503,2,0,B|284:96|284:96|304:152,1,95,2|0,0:0|0:0,0:0:0:0:
304,280,102878,1,8,0:0:0:0:
304,280,102972,1,0,0:0:0:0:
304,280,103066,2,0,L|248:244,1,47.5,2|0,0:0|0:0,0:0:0:0:
164,116,103253,2,0,L|224:152,1,47.5,4|0,0:0|0:0,0:0:0:0:
368,180,103441,1,8,0:0:0:0:
200,16,103816,70,0,P|120:24|64:76,1,152,0|8,0:0|0:0,0:0:0:0:
80,204,104378,1,0,0:0:0:0:
80,204,104472,1,0,0:0:0:0:
80,204,104566,2,0,P|108:236|156:252,1,76,0|4,0:0|0:0,0:0:0:0:
260,208,104941,2,0,P|228:180|176:168,1,76,0|8,0:0|0:0,0:0:0:0:
88,328,105316,6,0,P|180:332|224:288,1,152,0|8,0:0|0:0,0:0:0:0:
312,284,105878,1,0,0:0:0:0:
400,328,106066,2,0,P|430:299|441:258,1,76,0|8,0:0|0:0,0:0:0:0:
304,144,106441,1,0,0:0:0:0:
323,120,106535,1,0,0:0:0:0:
350,106,106628,1,8,0:0:0:0:
381,104,106722,1,0,0:0:0:0:
409,115,106816,102,0,L|376:200,1,76
304,300,107191,1,8,0:0:0:0:
224,128,107378,1,0,0:0:0:0:
428,176,107566,2,0,L|392:264,1,85.4999973907472,0|4,0:0|0:0,0:0:0:0:
364,260,107847,1,0,0:0:0:0:
364,260,107941,1,0,0:0:0:0:
252,136,108128,1,8,0:0:0:0:
448,244,108316,6,0,L|412:340,1,95
252,368,108691,2,0,B|292:272,1,95,8|0,0:0|0:0,0:0:0:0:
320,88,109066,1,2,2:3:0:0:
293,64,109160,1,0,2:3:0:0:
261,52,109253,1,8,2:3:0:0:
226,54,109347,1,0,2:3:0:0:
194,69,109441,1,2,2:3:0:0:
209,113,109535,1,0,2:3:0:0:
209,160,109628,1,4,2:3:0:0:
193,205,109722,1,0,2:3:0:0:
162,241,109816,102,0,P|124:232|88:200,1,76,2|0,0:0|0:0,0:0:0:0:
88,60,110191,1,8,0:0:0:0:
252,136,110378,1,0,0:0:0:0:
224,304,110566,2,0,P|188:324|144:328,1,76,0|4,0:0|0:0,0:0:0:0:
296,228,110941,2,0,P|333:215|384:227,1,76,0|8,0:0|0:0,0:0:0:0:
488,272,111316,5,0,0:0:0:0:
340,328,111503,1,0,0:0:0:0:
212,220,111691,1,0,0:0:0:0:
340,316,111878,1,0,0:0:0:0:
370,144,112066,2,0,P|374:188|366:227,1,76
300,76,112441,1,0,0:0:0:0:
384,32,112628,1,0,0:0:0:0:
272,168,112816,102,0,B|228:148|208:116,1,76
72,40,113191,1,0,0:0:0:0:
72,40,113285,1,0,0:0:0:0:
72,40,113378,2,0,P|112:88|104:160,1,114
132,156,113753,1,0,0:0:0:0:
48,300,113941,2,0,P|100:336|160:336,1,113.999996520996,2|0,0:0|0:0,0:0:0:0:
340,232,114316,22,0,P|264:224|201:266,1,152,2|8,0:0|0:0,0:0:0:0:
368,340,114878,1,2,0:0:0:0:
402,327,114972,1,0,0:0:0:0:
431,302,115066,1,0,0:0:0:0:
450,269,115160,1,0,0:0:0:0:
454,231,115253,1,8,0:0:0:0:
396,60,115441,2,0,B|336:116,1,76,2|4,0:0|0:0,0:0:0:0:
216,216,115816,5,2,0:0:0:0:
32,128,116003,2,0,B|37:80|37:80|59:38,1,76,0|8,0:0|0:0,0:0:0:0:
232,68,116378,2,0,L|264:32,2,38,2|0|0,0:0|0:0|0:0,0:0:0:0:
220,100,116660,1,0,0:0:0:0:
220,100,116753,1,8,0:0:0:0:
168,296,116941,2,0,P|121:318|91:323,1,76,2|4,0:0|0:0,0:0:0:0:
308,184,117316,102,0,P|346:172|388:172,2,76,2|0|8,0:0|0:0|0:0,0:0:0:0:
484,248,117878,1,2,0:0:0:0:
503,215,117972,1,0,0:0:0:0:
510,178,118066,1,0,0:0:0:0:
505,141,118160,1,0,0:0:0:0:
487,107,118253,1,8,0:0:0:0:
268,48,118441,2,0,L|296:120,1,76,2|4,0:0|0:0,0:0:0:0:
92,250,120316,54,0,B|152:238|196:286|196:286|241:252|241:252|253:273|274:298|301:304|328:310|351:307|372:302|389:287|401:276|417:252|424:225|423:200|417:172|396:150|374:131|344:122|311:120|279:129|279:129|252:145|232:170|232:170|281:167|330:222,1,760
