osu file format v14

[General]
AudioFilename: audio.mp3
AudioLeadIn: 0
PreviewTime: 12316
Countdown: 0
SampleSet: Normal
StackLeniency: 0.7
Mode: 0
LetterboxInBreaks: 0
WidescreenStoryboard: 1

[Editor]
Bookmarks: 24316,37816,54316,78316,90316,103816,118816,123316
DistanceSpacing: 0.2
BeatDivisor: 4
GridSize: 4
TimelineZoom: 1.800001

[Metadata]
Title:PandorA
TitleUnicode:PandorA
Artist:M2U
ArtistUnicode:M2U
Creator:Kawa
Version:Extra
Source:HIGH5
Tags:
BeatmapID:1607282
BeatmapSetID:570388

[Difficulty]
HPDrainRate:6
CircleSize:4.5
OverallDifficulty:7.5
ApproachRate:9.4
SliderMultiplier:1.9
SliderTickRate:1

[Events]
//Background and Video events
0,0,"58615824_p0.jpg",0,0
//Break Periods
//Storyboard Layer 0 (Background)
//Storyboard Layer 1 (Fail)
//Storyboard Layer 2 (Pass)
//Storyboard Layer 3 (Foreground)
//Storyboard Sound Samples

[TimingPoints]
316,375,4,1,1,65,1,0
1816,-76.9230769230769,4,1,1,65,0,0
2191,-100,4,1,1,65,0,0
2941,-200,4,1,1,65,0,0
3316,-100,4,1,1,65,0,0
5941,-66.6666666666667,4,1,1,65,0,0
6316,-100,4,1,1,65,0,0
8566,-66.6666666666667,4,1,1,65,0,0
8941,-100,4,1,1,65,0,0
10253,-66.6666666666667,4,1,1,65,0,0
11941,-50,4,1,1,65,0,0
12316,-125,4,2,1,45,0,0
17566,-125,4,3,1,35,0,0
18316,-125,4,2,1,45,0,0
21128,-50,4,2,1,45,0,0
21316,-50,4,1,1,65,0,0
21691,-66.6666666666667,4,1,1,65,0,0
22066,-76.9230769230769,4,1,1,65,0,0
22441,-50,4,1,1,65,0,0
22816,-76.9230769230769,4,1,1,65,0,0
23941,-50,4,1,1,65,0,0
24316,-100,4,2,2,40,0,0
28816,-200,4,2,2,40,0,0
29472,-200,4,1,1,50,0,0
29566,-66.6666666666667,4,1,1,50,0,0
29941,-100,4,1,1,50,0,0
30316,-100,4,2,2,40,0,0
34816,-58.8235294117647,4,1,1,50,0,0
36878,-66.6666666666667,4,1,1,50,0,0
37441,-50,4,1,1,50,0,0
37816,-100,4,2,1,45,0,0
39316,-133.333333333333,4,2,1,45,0,0
39691,-88.8888888888889,4,2,1,45,0,0
40441,-100,4,2,1,45,0,0
41566,-83.3333333333333,4,2,1,50,0,0
42316,-71.4285714285714,4,2,1,55,0,0
43066,-100,4,3,1,35,0,0
43441,-66.6666666666667,4,3,1,35,0,0
43816,-100,4,2,1,45,0,0
45316,-133.333333333333,4,2,27,100,0,0
45503,-133.333333333333,4,2,1,45,0,0
45597,-133.333333333333,4,2,1,45,0,0
45691,-88.8888888888889,4,2,37,100,0,0
45878,-88.8888888888889,4,2,1,45,0,0
45972,-88.8888888888889,4,2,1,45,0,0
46066,-100,4,2,40,100,0,0
46253,-100,4,2,1,45,0,0
46816,-100,4,1,1,50,0,0
47941,-50,4,3,2,65,0,0
48128,-100,4,1,1,60,0,0
52816,-200,4,1,1,40,0,0
53941,-50,4,3,2,65,0,0
54128,-100,4,1,1,40,0,0
54316,-133.333333333333,4,1,2,55,0,1
54691,-66.6666666666667,4,1,3,55,0,1
55066,-50,4,1,4,55,0,1
57316,-133.333333333333,4,1,2,55,0,1
57691,-66.6666666666667,4,1,3,55,0,1
58066,-50,4,1,4,55,0,1
60316,-133.333333333333,4,1,2,55,0,1
60691,-66.6666666666667,4,1,3,55,0,1
61066,-66.6666666666667,4,1,4,55,0,1
62191,-76.9230769230769,4,1,4,55,0,1
62941,-50,4,1,4,55,0,1
63316,-133.333333333333,4,1,2,55,0,1
63691,-66.6666666666667,4,1,3,55,0,1
63878,-66.6666666666667,4,1,4,55,0,1
64066,-66.6666666666667,4,1,3,55,0,1
64253,-50,4,1,4,55,0,1
65941,-50,4,1,3,55,0,1
66316,-133.333333333333,4,1,2,55,0,1
66691,-66.6666666666667,4,1,3,55,0,1
67066,-50,4,1,4,55,0,1
69316,-133.333333333333,4,1,2,55,0,1
69691,-66.6666666666667,4,1,3,55,0,1
70066,-50,4,1,4,55,0,1
72316,-133.333333333333,4,1,2,55,0,1
72691,-66.6666666666667,4,1,3,55,0,1
73066,-50,4,1,4,55,0,1
75316,-133.333333333333,4,1,2,55,0,1
75691,-66.6666666666667,4,1,3,55,0,1
75878,-66.6666666666667,4,1,4,55,0,1
76066,-66.6666666666667,4,1,3,55,0,1
76441,-50,4,1,4,55,0,1
78316,-125,4,2,1,45,0,0
83566,-125,4,3,1,35,0,0
84316,-125,4,2,1,45,0,0
87128,-50,4,2,1,45,0,0
87316,-50,4,1,1,50,0,0
87691,-66.6666666666667,4,1,1,50,0,0
88066,-76.9230769230769,4,1,1,50,0,0
88441,-50,4,1,1,50,0,0
88816,-76.9230769230769,4,1,1,50,0,0
89941,-50,4,1,1,65,0,0
90316,-100,4,2,2,40,0,0
94816,-200,4,2,2,40,0,0
95472,-66.6666666666667,4,1,1,50,0,0
95941,-100,4,1,1,50,0,0
96316,-100,4,2,2,40,0,0
100816,-58.8235294117647,4,1,1,50,0,0
102878,-66.6666666666667,4,1,1,50,0,0
103441,-50,4,1,1,50,0,0
103816,-100,4,2,1,45,0,0
105316,-133.333333333333,4,2,1,45,0,0
105691,-88.8888888888889,4,2,1,45,0,0
106816,-100,4,2,1,45,0,0
107753,-83.3333333333333,4,2,1,45,0,0
108316,-71.4285714285714,4,2,1,45,0,0
109066,-66.6666666666667,4,3,1,35,0,0
109816,-100,4,2,1,45,0,0
111316,-133.333333333333,4,2,28,100,0,0
111503,-133.333333333333,4,2,1,45,0,0
111597,-133.333333333333,4,2,1,45,0,0
111691,-88.8888888888889,4,2,27,100,0,0
111878,-88.8888888888889,4,2,1,45,0,0
112066,-125,4,2,29,100,0,0
112253,-100,4,2,1,45,0,0
112816,-100,4,1,1,45,0,0
113941,-50,4,3,2,65,0,0
114128,-100,4,1,1,50,0,0
120316,-200,4,2,1,20,0,0

[Colours]
Combo1 : 148,148,148
Combo2 : 255,213,149
Combo3 : 255,176,13
Combo4 : 255,155,155
Combo5 : 255,89,89
Combo6 : 209,165,165
Combo7 : 185,115,115
Combo8 : 192,192,192

[HitObjects]
164,92,316,38,0,B|172:140|172:140|164:200,1,95,2|0,0:0|0:0,0:0:0:0:
40,256,691,1,8,0:0:0:0:
165,185,878,1,2,0:0:0:0:
199,200,971,1,0,0:0:0:0:
235,217,1065,1,0,0:0:0:0:
270,234,1159,1,0,0:0:0:0:
282,267,1253,1,8,0:0:0:0:
412,136,1441,1,2,0:0:0:0:
284,156,1628,1,4,0:0:0:0:
444,16,1816,6,0,B|464:84,1,61.7499971733095,2|0,0:0|0:0,0:0:0:0:
394,195,2003,2,0,B|412:136,1,61.7499971733095
448,348,2191,2,0,B|472:300|444:248,1,95,8|2,0:0|0:0,0:0:0:0:
380,304,2472,1,0,0:0:0:0:
380,304,2566,2,0,L|284:300,1,95,0|8,0:0|0:0,0:0:0:0:
144,336,2941,38,0,L|232:340,1,71.25,6|0,0:0|0:0,0:0:0:0:
308,184,3316,54,0,B|320:136|320:136|312:88,1,95,2|0,0:0|0:0,0:0:0:0:
308,68,3597,1,0,0:0:0:0:
308,68,3691,1,8,0:0:0:0:
108,212,3878,1,2,0:0:0:0:
135,224,3971,1,0,0:0:0:0:
163,237,4065,1,0,0:0:0:0:
194,233,4159,1,0,0:0:0:0:
224,227,4253,1,8,0:0:0:0:
440,256,4441,2,0,L|330:276,1,95,2|0,0:0|0:0,0:0:0:0:
136,312,4816,5,8,0:0:0:0:
212,369,5003,2,0,L|116:297,1,95,2|4,0:0|0:0,0:0:0:0:
0,212,5378,1,8,0:0:0:0:
184,184,5566,1,2,0:0:0:0:
207,149,5659,1,0,0:0:0:0:
212,107,5753,1,4,0:0:0:0:
197,68,5847,1,0,0:0:0:0:
166,40,5941,2,0,L|248:8,1,71.2500027179719,2|0,0:0|0:0,0:0:0:0:
312,84,6128,2,0,L|404:84,1,71.2500027179719,0|0,0:0|0:0,0:0:0:0:
512,161,6316,101,2,0:0:0:0:
311,326,6503,1,0,0:0:0:0:
304,292,6596,1,0,0:0:0:0:
298,257,6691,2,0,L|288:196,2,47.5,8|0|2,0:0|0:0|0:0,0:0:0:0:
68,348,7066,2,0,L|4:380,2,47.5,0|0|8,0:0|0:0|0:0,0:0:0:0:
304,292,7441,1,2,0:0:0:0:
128,268,7628,2,0,L|188:276,1,47.5,4|0,0:0|0:0,0:0:0:0:
304,292,7816,5,2,0:0:0:0:
329,273,7909,1,0,0:0:0:0:
355,256,8003,1,0,0:0:0:0:
381,238,8097,1,0,0:0:0:0:
392,160,8191,1,8,0:0:0:0:
417,142,8284,1,0,0:0:0:0:
443,125,8378,1,0,0:0:0:0:
470,106,8472,1,0,0:0:0:0:
508,80,8566,38,0,L|428:100,1,71.2500027179719,2|0,0:0|0:0,0:0:0:0:
188,104,8753,2,0,L|108:84,1,71.2500027179719,8|0,0:0|0:0,0:0:0:0:
324,16,8941,1,4,0:0:0:0:
188,104,9128,1,0,0:0:0:0:
304,292,9316,54,0,B|336:312|336:312|376:320|376:320|416:344,1,95,2|0,0:0|0:0,0:0:0:0:
408,344,9597,1,0,0:0:0:0:
408,344,9691,1,8,0:0:0:0:
212,320,9878,1,2,0:0:0:0:
209,280,9971,1,0,0:0:0:0:
222,243,10065,1,0,0:0:0:0:
250,216,10159,1,0,0:0:0:0:
274,185,10253,2,0,B|264:144|264:144|234:103,1,71.2500027179719,8|0,0:0|0:0,0:0:0:0:
168,0,10441,2,0,B|177:40|177:40|207:81,1,71.2500027179719,2|0,0:0|0:0,0:0:0:0:
320,88,10628,1,0,0:0:0:0:
128,312,10816,5,8,0:0:0:0:
107,170,11003,2,0,L|130:331,1,142.500005435944,0|0,0:0|0:0,0:0:0:0:
208,20,11378,1,8,0:0:0:0:
160,84,11472,1,0,0:0:0:0:
192,152,11566,2,0,P|232:168|280:156,1,71.2500027179719,2|0,0:0|0:0,0:0:0:0:
236,92,11753,1,4,0:0:0:0:
308,348,11941,38,0,L|258:163,1,190,8|0,0:0|0:0,0:0:0:0:
328,135,12316,22,0,L|352:227,1,76
176,300,12691,1,8,0:0:0:0:
236,228,12878,1,0,0:0:0:0:
236,228,12972,1,0,0:0:0:0:
236,228,13066,1,0,0:0:0:0:
128,372,13253,2,0,P|92:316|120:232,1,152,4|8,0:0|0:0,0:0:0:0:
172,96,13816,6,0,B|176:139|176:139|161:187,1,76
336,244,14191,1,8,0:0:0:0:
304,136,14378,1,0,0:0:0:0:
304,136,14472,1,0,0:0:0:0:
304,136,14566,2,0,B|324:164|324:164|332:216,1,76,0|8,0:0|0:0,0:0:0:0:
256,304,14847,1,0,0:0:0:0:
244,320,14941,2,0,L|236:380,3,38,0|0|8|0,0:0|0:0|0:0|0:0,0:0:0:0:
356,360,15316,102,0,P|400:344|424:300,1,76
440,104,15691,2,0,L|421:190,1,76,8|0,0:0|0:0,0:0:0:0:
424,177,15972,1,0,0:0:0:0:
424,177,16066,1,0,0:0:0:0:
483,26,16253,2,0,P|416:19|356:83,1,152,4|8,0:0|0:0,0:0:0:0:
324,216,16816,6,0,B|324:176|324:176|307:137,1,76,0|0,0:0|0:0,0:0:0:0:
372,328,17191,1,8,0:0:0:0:
232,252,17378,1,0,0:0:0:0:
195,264,17471,1,0,0:0:0:0:
165,285,17566,2,0,L|191:335,1,38,2|0,2:3|2:3,0:0:0:0:
215,382,17753,2,0,L|188:331,1,38,8|0,2:3|2:3,0:0:0:0:
118,201,17941,1,2,2:3:0:0:
100,171,18034,1,0,2:3:0:0:
89,151,18128,1,4,2:3:0:0:
82,138,18222,1,0,2:3:0:0:
77,128,18316,102,0,B|56:84|56:84|88:96,1,76
284,192,18691,1,8,0:0:0:0:
320,296,18878,1,0,0:0:0:0:
320,296,18972,1,0,0:0:0:0:
320,296,19066,1,0,0:0:0:0:
224,128,19253,2,0,P|287:107|361:155,1,152,4|8,0:0|0:0,0:0:0:0:
420,288,19816,6,0,B|403:246|403:246|403:196,1,76,0|0,0:0|0:0,0:0:0:0:
444,24,20191,1,8,0:0:0:0:
298,84,20378,1,0,0:0:0:0:
328,72,20472,1,0,0:0:0:0:
358,59,20565,1,0,0:0:0:0:
328,180,20753,1,8,0:0:0:0:
296,191,20846,1,0,0:0:0:0:
263,190,20940,1,0,0:0:0:0:
232,177,21034,1,0,0:0:0:0:
209,153,21128,6,0,L|188:260,1,95
160,312,21316,2,0,L|180:212,1,95,2|0,0:0|0:0,0:0:0:0:
280,116,21503,1,0,0:0:0:0:
296,191,21597,1,0,0:0:0:0:
312,272,21691,6,0,B|280:292|280:292|232:288,1,71.2500027179719,8|0,0:0|0:0,0:0:0:0:
100,204,21879,1,0,0:0:0:0:
108,160,21972,1,0,0:0:0:0:
116,117,22066,2,0,L|128:52,2,61.7499971733095,0|0|8,0:0|0:0|0:0,0:0:0:0:
104,352,22441,38,0,L|144:148,1,190,4|0,0:0|0:0,0:0:0:0:
272,1,22816,54,0,B|288:40|288:40|272:128,1,123.499994346619,2|0,0:0|0:0,0:0:0:0:
396,0,23191,1,8,0:0:0:0:
348,236,23378,1,2,0:0:0:0:
357,190,23471,1,0,0:0:0:0:
366,145,23565,1,0,0:0:0:0:
376,99,23659,1,0,0:0:0:0:
420,84,23753,1,8,0:0:0:0:
383,270,23941,54,0,L|423:66,1,190,2|0,0:0|0:0,0:0:0:0:
244,224,24316,85,2,0:0:0:0:
231,243,24503,1,0,0:0:0:0:
251,254,24691,1,0,0:0:0:0:
262,234,24878,1,0,0:0:0:0:
140,48,25066,5,8,0:0:0:0:
168,140,25253,1,0,0:0:0:0:
132,228,25441,1,0,0:0:0:0:
160,320,25628,1,0,0:0:0:0:
269,117,25816,101,2,0:0:0:0:
243,111,26002,1,0,0:0:0:0:
218,105,26191,1,0,0:0:0:0:
193,100,26378,2,0,L|165:143,1,47.5,0|0,0:0|0:0,0:0:0:0:
160,320,26566,5,8,0:0:0:0:
252,347,26753,1,0,0:0:0:0:
340,311,26941,1,0,0:0:0:0:
432,339,27128,1,0,0:0:0:0:
248,248,27316,101,2,0:0:0:0:
248,248,27503,1,0,0:0:0:0:
248,248,27691,1,0,0:0:0:0:
248,248,27878,1,0,0:0:0:0:
406,58,28066,5,8,0:0:0:0:
462,133,28253,1,0,0:0:0:0:
387,189,28441,1,0,0:0:0:0:
330,114,28629,1,0,0:0:0:0:
148,12,28816,102,0,P|148:48|160:4,1,142.5,2|0,0:0|0:0,0:0:0:0:
108,80,29472,5,8,0:0:0:0:
96,100,29566,2,0,L|60:172,1,71.2500027179719,0|8,0:0|0:0,0:0:0:0:
168,320,29753,2,0,L|204:392,1,71.2500027179719,2|0,0:0|0:0,0:0:0:0:
168,220,29941,2,0,P|120:232|80:280,1,95,8|6,0:0|0:0,0:0:0:0:
340,280,30316,101,2,0:0:0:0:
375,279,30503,1,0,0:0:0:0:
410,278,30691,1,0,0:0:0:0:
445,277,30878,1,0,0:0:0:0:
224,144,31066,5,8,0:0:0:0:
167,220,31253,1,0,0:0:0:0:
242,276,31441,1,0,0:0:0:0:
301,201,31629,1,0,0:0:0:0:
136,48,31816,101,2,0:0:0:0:
136,48,32003,1,0,0:0:0:0:
136,48,32191,1,0,0:0:0:0:
136,48,32378,2,0,L|96:112,1,47.5,0|0,0:0|0:0,0:0:0:0:
71,226,32566,5,8,0:0:0:0:
167,220,32753,1,0,0:0:0:0:
242,276,32941,1,0,0:0:0:0:
339,271,33128,1,0,0:0:0:0:
112,312,33316,101,2,0:0:0:0:
92,326,33503,1,0,0:0:0:0:
107,344,33691,1,0,0:0:0:0:
126,329,33878,1,0,0:0:0:0:
268,152,34066,5,8,0:0:0:0:
360,176,34253,1,0,0:0:0:0:
260,124,34441,2,0,L|192:100,1,47.5,0|0,0:0|0:0,0:0:0:0:
384,160,34628,2,0,L|428:175,1,47.5,0|0,0:0|0:0,0:0:0:0:
308,44,34816,70,0,B|364:20|436:36|436:36|408:72,1,161.500003080368,2|0,0:0|0:0,0:0:0:0:
416,60,35097,1,0,0:0:0:0:
416,60,35191,1,8,0:0:0:0:
264,272,35378,2,0,P|336:272|296:216,1,161.500003080368,2|0,0:0|0:0,0:0:0:0:
224,204,35659,1,0,0:0:0:0:
184,272,35753,1,8,0:0:0:0:
440,356,35941,6,0,B|448:312|448:312|432:228|432:228|440:192,1,161.500003080368,2|0,0:0|0:0,0:0:0:0:
438,197,36222,1,0,0:0:0:0:
438,197,36316,1,8,0:0:0:0:
184,272,36503,2,0,B|128:259|76:216|76:216|124:212,1,161.500003080368,2|0,0:0|0:0,0:0:0:0:
224,204,36784,1,0,0:0:0:0:
240,200,36878,102,0,L|332:188,1,71.2500027179719,8|0,0:0|0:0,0:0:0:0:
472,128,37066,2,0,L|380:116,1,71.2500027179719,2|0,0:0|0:0,0:0:0:0:
240,56,37253,2,0,L|332:44,1,71.2500027179719,4|0,0:0|0:0,0:0:0:0:
499,23,37441,54,0,L|310:46,1,190,8|0,0:0|0:0,0:0:0:0:
60,196,37816,22,0,P|104:216|156:204,1,95
128,16,38191,1,8,0:0:0:0:
68,68,38378,1,0,0:0:0:0:
112,136,38566,1,0,0:0:0:0:
60,196,38753,2,0,B|84:244|84:244|72:304,1,95,4|0,0:0|0:0,0:0:0:0:
112,136,39128,1,8,0:0:0:0:
104,352,39316,6,0,L|124:240,1,106.875004076958,0|0,0:0|0:0,0:0:0:0:
180,192,39691,2,0,L|161:297,1,106.875004076958,8|0,0:0|0:0,0:0:0:0:
288,192,40066,1,0,0:0:0:0:
180,192,40253,1,8,0:0:0:0:
352,128,40441,1,0,0:0:0:0:
373,158,40534,1,0,0:0:0:0:
380,194,40628,1,8,0:0:0:0:
371,231,40722,1,0,0:0:0:0:
348,260,40816,102,0,P|388:296|440:304,1,95
288,192,41191,1,8,0:0:0:0:
288,192,41378,1,0,0:0:0:0:
312,340,41566,1,0,0:0:0:0:
199,324,41753,2,0,L|318:340,1,113.999996520996,0|0,0:0|0:0,0:0:0:0:
136,260,42128,1,12,0:0:0:0:
128,116,42316,6,0,P|56:104|0:164,1,132.999995941162,0|0,0:0|0:0,0:0:0:0:
144,136,42691,2,0,L|280:120,1,132.999995941162,8|0,0:0|0:0,0:0:0:0:
476,164,43066,1,2,2:3:0:0:
439,168,43159,1,0,2:3:0:0:
402,173,43253,1,8,2:3:0:0:
365,178,43347,1,0,2:3:0:0:
328,183,43441,2,0,L|242:194,1,71.2500027179719,2|0,2:3|2:3,0:0:0:0:
136,260,43628,2,0,L|206:269,1,71.2500027179719,4|0,2:3|2:3,0:0:0:0:
404,208,43816,102,0,P|404:156|373:118,1,95,2|0,0:0|0:0,0:0:0:0:
344,303,44191,1,8,0:0:0:0:
284,251,44378,1,0,0:0:0:0:
328,183,44566,1,0,0:0:0:0:
276,123,44753,2,0,B|300:75|300:75|288:15,1,95,0|0,0:0|0:0,0:0:0:0:
328,183,45128,1,8,0:0:0:0:
200,304,45316,6,0,P|184:248|208:184,1,106.875004076958,0|0,0:0|0:0,0:0:0:0:
164,88,45691,2,0,P|180:144|156:208,1,106.875004076958,0|0,0:0|0:0,0:0:0:0:
32,304,46066,1,0,0:0:0:0:
84,144,46253,1,0,0:0:0:0:
84,144,46347,1,0,0:0:0:0:
84,144,46441,2,0,B|60:172|60:172|64:248,1,95,0|0,0:0|0:0,0:0:0:0:
216,320,46816,102,0,L|324:304,1,95,2|0,0:0|0:0,0:0:0:0:
484,324,47191,1,8,0:0:0:0:
473,303,47284,1,0,0:0:0:0:
454,292,47378,1,0,0:0:0:0:
432,291,47472,1,0,0:0:0:0:
413,302,47566,1,0,0:0:0:0:
387,261,47659,1,0,0:0:0:0:
362,221,47753,1,2,0:0:0:0:
260,60,47941,86,0,L|364:225,1,190,2|0,0:0|0:0,0:0:0:0:
208,296,48316,54,0,P|209:252|250:209,1,95,2|0,0:0|0:0,0:0:0:0:
280,280,48597,1,0,0:0:0:0:
257,352,48691,1,8,0:0:0:0:
124,156,48878,1,2,0:0:0:0:
124,156,48972,1,0,0:0:0:0:
124,156,49066,2,0,B|116:96|116:96|132:48,1,95,0|8,0:0|0:0,0:0:0:0:
56,240,49441,1,2,0:0:0:0:
126,63,49628,1,4,0:0:0:0:
152,312,49816,5,2,0:0:0:0:
152,312,50003,1,0,0:0:0:0:
288,164,50191,2,0,P|331:165|374:206,1,95,8|2,0:0|0:0,0:0:0:0:
303,235,50472,1,0,0:0:0:0:
231,212,50566,1,0,0:0:0:0:
492,152,50753,1,8,0:0:0:0:
220,136,50941,1,2,0:0:0:0:
492,152,51128,1,4,0:0:0:0:
455,358,51316,102,0,B|461:293|461:293|451:242,1,95,2|0,0:0|0:0,0:0:0:0:
332,56,51691,1,8,0:0:0:0:
391,168,51878,1,2,0:0:0:0:
391,168,51972,1,0,0:0:0:0:
391,168,52066,1,0,0:0:0:0:
508,0,52253,1,8,0:0:0:0:
224,250,52441,1,2,0:0:0:0:
224,250,52816,6,0,L|267:230,2,47.5,0|0|0,0:0|0:0|0:0,0:0:0:0:
124,304,53284,1,0,0:0:0:0:
144,312,53378,2,0,L|248:348,1,95,0|0,0:0|0:0,0:0:0:0:
233,343,53941,38,0,P|198:239|243:272,1,285,2|0,0:0|0:0,0:0:0:0:
316,340,54316,70,0,B|316:312|296:288|296:288|312:260|300:212,1,106.875004076958,2|0,0:0|0:0,0:0:0:0:
256,172,54691,2,0,B|317:217|401:202|401:202|392:160|356:124,1,213.750008153916,4|0,0:0|0:0,0:0:0:0:
233,7,55066,38,0,P|209:51|213:103,1,95,8|0,0:0|0:0,0:0:0:0:
256,172,55253,2,0,P|241:123|202:89,1,95,0|0,0:0|0:0,0:0:0:0:
122,71,55441,2,0,P|165:95|217:91,1,95,0|0,0:0|0:0,0:0:0:0:
287,47,55628,2,0,P|238:61|204:100,1,95,0|0,0:0|0:0,0:0:0:0:
187,181,55816,2,0,P|211:137|207:85,1,95,0|0,0:0|0:0,0:0:0:0:
163,15,56003,2,0,P|177:63|216:97,1,95,2|0,0:0|0:0,0:0:0:0:
308,132,56191,6,0,L|400:100,1,95,4|0,0:0|0:0,0:0:0:0:
493,104,56378,2,0,L|404:136,1,95,2|2,0:0|0:0,0:0:0:0:
366,210,56566,2,0,B|407:235|457:202,1,95,8|0,0:0|0:0,0:0:0:0:
493,104,56753,1,2,0:0:0:0:
206,259,56941,2,0,B|175:278|158:308|158:308|223:349|275:304,1,190,8|2,0:0|0:0,0:0:0:0:
96,276,57316,54,0,P|97:340|132:373,1,106.875004076958,2|0,0:0|0:0,0:0:0:0:
189,157,57691,2,0,B|202:72|149:12|149:12|126:75,1,213.750008153916,4|0,0:0|0:0,0:0:0:0:
240,242,58066,38,0,P|275:208|291:147,1,95,8|0,0:0|0:0,0:0:0:0:
273,80,58253,1,0,0:0:0:0:
129,66,58441,1,0,0:0:0:0:
273,80,58628,1,0,0:0:0:0:
342,86,58721,1,0,0:0:0:0:
413,92,58816,6,0,B|457:68|457:68|414:46,1,95,2|0,0:0|0:0,0:0:0:0:
273,80,59003,2,0,B|229:104|229:104|272:126,1,95,2|0,0:0|0:0,0:0:0:0:
448,191,59191,2,0,P|474:292|344:257,1,285,4|4,0:0|0:0,0:0:0:0:
416,253,59566,2,0,L|421:372,2,95,8|0|2,0:0|0:0|0:0,0:0:0:0:
358,81,59941,2,0,B|348:131|348:131|354:182|354:182|341:235|341:235|349:289,1,190,8|0,0:0|0:0,0:0:0:0:
317,17,60316,54,0,P|369:9|417:32,1,106.875004076958,2|0,0:0|0:0,0:0:0:0:
501,130,60691,2,0,B|465:118|465:118|419:110,1,71.2500027179719,4|0,0:0|0:0,0:0:0:0:
349,136,60878,1,2,0:0:0:0:
188,225,61066,38,0,P|109:207|77:150,1,142.500005435944,8|2,0:0|0:0,0:0:0:0:
165,55,61347,1,2,0:0:0:0:
172,69,61441,2,0,L|165:147,1,71.2500027179719,8|0,0:0|0:0,0:0:0:0:
155,331,61628,6,0,P|28:251|82:155,1,285.000010871888,8|2,0:0|0:0,0:0:0:0:
129,240,62097,1,2,0:0:0:0:
129,240,62191,2,0,L|251:222,1,123.499994346619,8|2,0:0|0:0,0:0:0:0:
400,272,62566,101,4,0:0:0:0:
388,260,62659,1,0,0:0:0:0:
400,248,62753,1,2,0:0:0:0:
412,260,62847,1,2,0:0:0:0:
398,257,62941,2,0,P|370:209|378:170,1,95,8|0,0:0|0:0,0:0:0:0:
466,30,63128,2,0,P|494:78|486:117,1,95,4|0,0:0|0:0,0:0:0:0:
340,315,63316,70,0,P|394:342|445:329,1,106.875004076958,2|0,0:0|0:0,0:0:0:0:
450,204,63691,1,8,0:0:0:0:
224,176,63878,2,0,B|152:254|209:347|209:347|264:312|256:259,1,285.000010871888,2|2,0:0|0:0,0:0:0:0:
112,240,64347,37,2,0:0:0:0:
112,240,64441,2,0,P|112:300|124:340,1,95,8|0,0:0|0:0,0:0:0:0:
296,368,64628,2,0,P|316:336|328:264,1,95,2|0,0:0|0:0,0:0:0:0:
224,81,64816,6,0,B|218:130|218:130|224:185,1,95,2|0,0:0|0:0,0:0:0:0:
257,267,65003,1,0,0:0:0:0:
332,32,65191,1,8,0:0:0:0:
332,79,65284,1,0,0:0:0:0:
308,120,65378,1,4,0:0:0:0:
308,168,65471,1,0,0:0:0:0:
332,208,65566,2,0,L|428:204,1,95,8|0,0:0|0:0,0:0:0:0:
500,152,65753,1,2,0:0:0:0:
154,250,65941,102,0,B|189:235|189:235|305:231|305:231|341:199,1,190,2|0,0:0|0:0,0:0:0:0:
180,52,66316,70,0,B|180:84|180:84|200:124|200:124|200:180,1,106.875004076958,2|0,0:0|0:0,0:0:0:0:
156,248,66691,2,0,P|72:184|144:148,1,213.750008153916,8|0,0:0|0:0,0:0:0:0:
240,228,67066,37,2,0:0:0:0:
227,274,67159,1,0,0:0:0:0:
213,319,67253,2,0,L|239:227,1,95,4|0,0:0|0:0,0:0:0:0:
289,146,67441,2,0,L|239:226,1,95,8|0,0:0|0:0,0:0:0:0:
170,292,67628,2,0,L|238:226,1,95,4|0,0:0|0:0,0:0:0:0:
322,181,67816,2,0,L|238:226,1,95,2|0,0:0|0:0,0:0:0:0:
146,248,68003,2,0,L|238:225,1,95,4|0,0:0|0:0,0:0:0:0:
420,244,68191,6,0,L|325:268,1,95,8|0,0:0|0:0,0:0:0:0:
250,322,68378,2,0,L|341:298,1,95,4|0,0:0|0:0,0:0:0:0:
414,340,68566,2,0,B|393:383|334:384,1,95,2|0,0:0|0:0,0:0:0:0:
250,322,68753,1,4,0:0:0:0:
394,56,68941,1,8,0:0:0:0:
400,103,69034,1,0,0:0:0:0:
406,150,69128,1,4,0:0:0:0:
413,197,69222,1,0,0:0:0:0:
420,244,69316,54,0,P|360:236|308:188,1,106.875004076958,2|0,0:0|0:0,0:0:0:0:
216,76,69691,2,0,P|114:58|84:174,1,213.750008153916,8|0,0:0|0:0,0:0:0:0:
296,104,70066,38,0,P|295:59|269:11,1,95,2|0,0:0|0:0,0:0:0:0:
176,12,70253,1,4,0:0:0:0:
320,212,70441,1,8,0:0:0:0:
192,232,70628,1,4,0:0:0:0:
115,243,70721,1,0,0:0:0:0:
39,255,70816,6,0,B|0:280|0:280|52:304,1,95,2|0,0:0|0:0,0:0:0:0:
103,167,71003,2,0,B|78:128|78:128|55:180,1,95,4|0,0:0|0:0,0:0:0:0:
192,232,71191,2,0,B|231:207|231:207|186:186,1,95,8|0,0:0|0:0,0:0:0:0:
126,319,71378,2,0,B|151:359|151:359|172:314,1,95,4|0,0:0|0:0,0:0:0:0:
160,112,71566,2,0,L|108:16,2,95,2|0|4,0:0|0:0|0:0,0:0:0:0:
308,384,71940,102,0,B|288:320|288:320|252:276|252:276|284:260|304:216,1,190,8|0,0:0|0:0,0:0:0:0:
364,16,72316,70,0,P|356:72|388:128,1,106.875004076958,2|0,0:0|0:0,0:0:0:0:
480,240,72691,2,0,P|443:218|400:215,1,71.2500027179719,8|0,0:0|0:0,0:0:0:0:
297,229,72878,1,4,0:0:0:0:
100,288,73066,38,0,B|72:233|77:153|77:153|112:168|136:192,1,190,2|4,0:0|0:0,0:0:0:0:
8,212,73347,1,0,0:0:0:0:
8,136,73441,2,0,P|46:90|107:88,1,95,8|0,0:0|0:0,0:0:0:0:
176,140,73628,2,0,P|191:192|148:244,1,95,4|0,0:0|0:0,0:0:0:0:
100,288,73816,6,0,P|204:256|256:336,1,190,2|4,0:0|0:0,0:0:0:0:
296,216,74097,1,0,0:0:0:0:
337,284,74191,2,0,P|310:360|250:306,1,190,8|4,0:0|0:0,0:0:0:0:
208,168,74566,101,2,0:0:0:0:
209,184,74659,1,0,0:0:0:0:
210,200,74753,1,4,0:0:0:0:
212,216,74847,1,0,0:0:0:0:
212,232,74941,2,0,L|204:116,1,95,8|0,0:0|0:0,0:0:0:0:
264,0,75128,2,0,L|270:94,1,95,4|0,0:0|0:0,0:0:0:0:
380,292,75316,70,0,P|396:240|356:176,1,106.875004076958,2|0,0:0|0:0,0:0:0:0:
324,356,75691,1,8,0:0:0:0:
205,137,75878,2,0,B|115:193|146:298|146:298|208:278|214:225,1,285.000010871888,4|4,0:0|0:0,0:0:0:0:
152,84,76347,37,0,0:0:0:0:
128,96,76441,2,0,P|96:136|68:192,1,95,8|0,0:0|0:0,0:0:0:0:
284,140,76628,2,0,P|268:92|212:56,1,95,4|0,0:0|0:0,0:0:0:0:
147,296,76815,6,0,P|190:275|212:234,1,95,2|0,0:0|0:0,0:0:0:0:
235,63,77003,1,0,0:0:0:0:
304,240,77191,1,8,0:0:0:0:
304,240,77284,1,0,0:0:0:0:
304,240,77378,1,4,0:0:0:0:
304,240,77472,1,0,0:0:0:0:
304,240,77566,2,0,L|420:232,1,95,2|2,0:0|0:0,0:0:0:0:
496,191,77753,2,0,P|448:179|384:207,1,95,2|0,0:0|0:0,0:0:0:0:
404,303,77941,2,0,P|503:271|395:236,1,285,8|0,0:0|0:0,0:0:0:0:
280,336,78316,6,0,P|236:352|192:344,1,76
125,303,78691,1,8,0:0:0:0:
232,272,78878,1,0,0:0:0:0:
232,272,78972,1,0,0:0:0:0:
232,272,79066,1,0,0:0:0:0:
72,376,79253,2,0,P|36:320|64:236,1,152,4|8,0:0|0:0,0:0:0:0:
104,92,79816,6,0,B|108:135|108:135|93:183,1,76,0|0,0:0|0:0,0:0:0:0:
168,16,80191,1,8,0:0:0:0:
211,107,80378,1,0,0:0:0:0:
226,141,80471,1,0,0:0:0:0:
242,176,80566,2,0,P|280:168|320:184,1,76,0|8,0:0|0:0,0:0:0:0:
380,256,80847,1,0,0:0:0:0:
400,256,80941,2,0,L|456:256,3,38,0|0|8|0,0:0|0:0|0:0|0:0,0:0:0:0:
260,332,81316,102,0,L|162:302,1,76
84,202,81691,2,0,L|156:223,1,76,8|0,0:0|0:0,0:0:0:0:
156,223,81972,1,0,0:0:0:0:
156,223,82066,1,0,0:0:0:0:
2,253,82253,2,0,P|-12:186|53:112,1,152,4|8,0:0|0:0,0:0:0:0:
184,72,82816,6,0,B|144:80|144:80|105:70,1,76,0|0,0:0|0:0,0:0:0:0:
256,132,83191,1,8,0:0:0:0:
384,32,83378,1,0,0:0:0:0:
384,32,83472,1,0,0:0:0:0:
384,32,83566,2,0,L|384:88,1,38,2|0,2:3|2:3,0:0:0:0:
400,144,83753,2,0,L|400:184,1,38,8|0,2:3|2:3,0:0:0:0:
368,264,83941,1,2,2:3:0:0:
368,300,84034,1,0,2:3:0:0:
367,321,84128,1,4,2:3:0:0:
366,336,84222,1,0,2:3:0:0:
366,348,84316,102,0,B|365:396|365:396|346:375,1,76,2|0,0:0|0:0,0:0:0:0:
232,232,84691,1,8,0:0:0:0:
148,292,84878,1,0,0:0:0:0:
148,292,84972,1,0,0:0:0:0:
148,292,85066,1,0,0:0:0:0:
268,148,85253,2,0,P|316:193|308:281,1,152,4|8,0:0|0:0,0:0:0:0:
148,292,85816,6,0,B|121:254|121:254|110:206,1,76,0|0,0:0|0:0,0:0:0:0:
40,356,86191,1,8,0:0:0:0:
212,336,86378,1,0,0:0:0:0:
243,329,86472,1,0,0:0:0:0:
275,322,86565,1,0,0:0:0:0:
192,192,86753,1,8,0:0:0:0:
182,159,86846,1,0,0:0:0:0:
187,125,86940,1,0,0:0:0:0:
202,96,87034,1,0,0:0:0:0:
228,75,87128,6,0,L|319:101,1,95,8|0,0:0|0:0,0:0:0:0:
408,156,87316,2,0,L|316:129,1,95,2|0,0:0|0:0,0:0:0:0:
296,16,87503,1,0,0:0:0:0:
369,36,87597,1,0,0:0:0:0:
448,60,87691,6,0,B|450:97|450:97|424:138,1,71.2500027179719,8|0,0:0|0:0,0:0:0:0:
266,187,87879,1,0,0:0:0:0:
223,172,87972,1,0,0:0:0:0:
182,159,88066,2,0,L|119:138,2,61.7499971733095,0|0|8,0:0|0:0|0:0,0:0:0:0:
464,284,88441,38,0,L|260:216,1,190,4|0,0:0|0:0,0:0:0:0:
96,164,88816,54,0,B|82:203|82:203|102:290,1,123.499994346619,2|0,0:0|0:0,0:0:0:0:
0,216,89191,1,8,0:0:0:0:
192,352,89378,1,2,0:0:0:0:
179,306,89471,1,0,0:0:0:0:
168,262,89565,1,0,0:0:0:0:
157,216,89659,1,0,0:0:0:0:
190,183,89753,1,8,0:0:0:0:
238,367,89941,54,0,L|184:166,1,190,2|0,0:0|0:0,0:0:0:0:
284,16,90316,85,2,0:0:0:0:
297,35,90503,1,0,0:0:0:0:
277,46,90691,1,0,0:0:0:0:
266,26,90878,1,0,0:0:0:0:
504,88,91066,5,8,0:0:0:0:
458,172,91253,1,0,0:0:0:0:
371,209,91441,1,0,0:0:0:0:
325,294,91628,1,0,0:0:0:0:
128,340,91816,101,2,0:0:0:0:
106,324,92002,1,0,0:0:0:0:
84,310,92191,1,0,0:0:0:0:
64,294,92378,2,0,L|88:248,1,47.5,0|0,0:0|0:0,0:0:0:0:
184,80,92566,5,8,0:0:0:0:
211,171,92753,1,0,0:0:0:0:
176,258,92941,1,0,0:0:0:0:
203,350,93128,1,0,0:0:0:0:
112,156,93316,101,2,0:0:0:0:
112,156,93503,1,0,0:0:0:0:
112,156,93691,1,0,0:0:0:0:
112,156,93878,1,0,0:0:0:0:
356,80,94066,5,8,0:0:0:0:
386,168,94253,1,0,0:0:0:0:
297,198,94441,1,0,0:0:0:0:
266,109,94629,1,0,0:0:0:0:
460,248,94816,102,0,P|460:284|448:240,1,142.5,2|0,0:0|0:0,0:0:0:0:
408,321,95472,5,8,0:0:0:0:
385,326,95566,2,0,L|308:351,1,71.2500027179719,0|8,0:0|0:0,0:0:0:0:
120,276,95753,2,0,L|187:253,1,71.2500027179719,2|0,0:0|0:0,0:0:0:0:
88,376,95941,2,0,P|44:357|16:320,1,95,8|6,0:0|0:0,0:0:0:0:
123,175,96316,101,2,0:0:0:0:
144,147,96503,1,0,0:0:0:0:
166,120,96691,1,0,0:0:0:0:
188,92,96878,1,0,0:0:0:0:
432,156,97066,5,8,0:0:0:0:
377,233,97253,1,0,0:0:0:0:
300,179,97441,1,0,0:0:0:0:
353,100,97629,1,0,0:0:0:0:
376,348,97816,101,2,0:0:0:0:
376,348,98003,1,0,0:0:0:0:
376,348,98191,1,0,0:0:0:0:
376,348,98378,2,0,L|316:336,1,47.5,0|0,0:0|0:0,0:0:0:0:
160,289,98566,5,8,0:0:0:0:
211,207,98753,1,0,0:0:0:0:
300,179,98941,1,0,0:0:0:0:
353,98,99128,1,0,0:0:0:0:
135,32,99316,101,2,0:0:0:0:
125,55,99503,1,0,0:0:0:0:
147,62,99691,1,0,0:0:0:0:
156,40,99878,1,0,0:0:0:0:
294,197,100066,5,8,0:0:0:0:
389,203,100253,1,0,0:0:0:0:
269,221,100441,2,0,L|184:239,1,47.5,0|0,0:0|0:0,0:0:0:0:
417,179,100628,2,0,L|471:166,1,47.5,0|0,0:0|0:0,0:0:0:0:
228,152,100816,70,0,P|213:76|268:92,1,161.500003080368,2|0,0:0|0:0,0:0:0:0:
310,151,101097,1,0,0:0:0:0:
269,221,101191,1,8,0:0:0:0:
64,260,101378,2,0,B|124:261|185:219|185:219|146:196,1,161.500003080368,2|0,0:0|0:0,0:0:0:0:
157,204,101659,1,0,0:0:0:0:
157,204,101753,1,8,0:0:0:0:
288,348,101941,6,0,B|344:364|380:344|380:344|388:300|436:280,1,161.500003080368,2|0,0:0|0:0,0:0:0:0:
456,360,102222,1,0,0:0:0:0:
456,360,102316,1,8,0:0:0:0:
360,192,102503,2,0,B|405:157|472:145|472:145|444:184,1,161.500003080368,2|0,0:0|0:0,0:0:0:0:
304,260,102784,1,0,0:0:0:0:
287,257,102878,102,0,L|197:232,1,71.2500027179719,8|0,0:0|0:0,0:0:0:0:
48,192,103066,2,0,L|137:167,1,71.2500027179719,2|0,0:0|0:0,0:0:0:0:
287,127,103253,2,0,L|197:102,1,71.2500027179719,4|0,0:0|0:0,0:0:0:0:
35,57,103441,54,0,L|219:108,1,190,8|0,0:0|0:0,0:0:0:0:
492,129,103816,22,0,P|464:89|413:72,1,95
257,54,104191,1,8,0:0:0:0:
287,127,104378,1,0,0:0:0:0:
217,167,104566,1,0,0:0:0:0:
235,244,104753,2,0,B|220:296|220:296|175:334,1,95,4|0,0:0|0:0,0:0:0:0:
217,167,105128,1,8,0:0:0:0:
356,280,105316,6,0,L|466:307,1,106.875004076958,0|0,0:0|0:0,0:0:0:0:
510,367,105691,2,0,L|406:340,1,106.875004076958,8|0,0:0|0:0,0:0:0:0:
235,244,106066,1,0,0:0:0:0:
300,340,106253,1,8,0:0:0:0:
256,163,106441,1,0,0:0:0:0:
217,167,106534,1,0,0:0:0:0:
185,183,106628,1,8,0:0:0:0:
163,216,106722,1,0,0:0:0:0:
155,252,106816,102,0,P|101:245|61:211,1,95
235,244,107191,1,8,0:0:0:0:
235,244,107378,1,0,0:0:0:0:
175,73,107566,1,0,0:0:0:0:
136,180,107753,2,0,L|176:72,1,113.999996520996,4|0,0:0|0:0,0:0:0:0:
69,221,108128,1,8,0:0:0:0:
192,316,108316,6,0,P|256:323|305:282,1,132.999995941162,0|0,0:0|0:0,0:0:0:0:
344,192,108691,2,0,P|393:150|457:158,1,132.999995941162,8|0,0:0|0:0,0:0:0:0:
436,332,109066,1,2,2:3:0:0:
430,295,109159,1,0,2:3:0:0:
423,258,109253,1,8,2:3:0:0:
416,221,109347,1,0,2:3:0:0:
409,185,109441,2,0,L|393:99,1,71.2500027179719,2|0,2:3|2:3,0:0:0:0:
290,27,109628,2,0,L|277:97,1,71.2500027179719,4|0,2:3|2:3,0:0:0:0:
164,296,109816,102,0,P|135:252|140:203,1,95,2|0,0:0|0:0,0:0:0:0:
284,268,110191,1,8,0:0:0:0:
210,237,110378,1,0,0:0:0:0:
231,158,110566,1,0,0:0:0:0:
163,117,110753,2,0,B|132:68|132:68|141:10,1,95,4|0,0:0|0:0,0:0:0:0:
137,211,111128,1,8,0:0:0:0:
272,84,111316,6,0,P|307:129|309:198,1,106.875004076958,0|0,0:0|0:0,0:0:0:0:
385,270,111691,2,0,P|349:224|347:155,1,106.875004076958,0|0,0:0|0:0,0:0:0:0:
384,56,112066,1,0,0:0:0:0:
231,158,112253,1,0,0:0:0:0:
231,158,112347,1,0,0:0:0:0:
231,158,112441,2,0,B|184:192|184:192|124:200,1,95,0|0,0:0|0:0,0:0:0:0:
0,288,112816,102,0,L|112:272,1,95
248,240,113191,1,0,0:0:0:0:
272,265,113284,1,0,0:0:0:0:
272,300,113378,1,0,0:0:0:0:
249,327,113472,1,0,0:0:0:0:
212,330,113566,1,0,0:0:0:0:
184,308,113659,1,0,0:0:0:0:
179,272,113753,1,0,0:0:0:0:
292,119,113941,86,0,L|176:275,1,190,2|0,0:0|0:0,0:0:0:0:
392,168,114316,54,0,P|444:168|485:209,1,95,2|0,0:0|0:0,0:0:0:0:
412,244,114597,1,0,0:0:0:0:
336,220,114691,1,8,0:0:0:0:
124,156,114878,1,2,0:0:0:0:
124,156,114972,1,0,0:0:0:0:
124,156,115066,2,0,B|148:112|148:112|188:76,1,95,0|8,0:0|0:0,0:0:0:0:
152,280,115441,1,2,0:0:0:0:
181,81,115628,1,4,0:0:0:0:
48,240,115816,5,2,0:0:0:0:
48,240,116003,1,0,0:0:0:0:
308,324,116191,2,0,P|345:302|364:246,1,95,8|2,0:0|0:0,0:0:0:0:
287,254,116472,1,0,0:0:0:0:
234,307,116566,1,0,0:0:0:0:
500,332,116753,1,8,0:0:0:0:
328,192,116941,1,2,0:0:0:0:
500,332,117128,1,4,0:0:0:0:
234,307,117316,102,0,B|200:342|200:342|253:342,1,95,2|0,0:0|0:0,0:0:0:0:
288,104,117691,1,8,0:0:0:0:
188,200,117878,1,2,0:0:0:0:
188,200,117972,1,0,0:0:0:0:
188,200,118066,1,0,0:0:0:0:
476,164,118253,1,8,0:0:0:0:
200,76,118441,2,0,L|144:56,1,47.5,2|0,0:0|0:0,0:0:0:0:
152,136,120316,54,0,B|144:200|264:192|252:128|236:48|156:12|96:32|8:100|56:196|128:292|248:216|248:216|312:212|364:240|364:240|416:216|440:176,1,760
