osu file format v14

[General]
AudioFilename: audio.mp3
AudioLeadIn: 0
PreviewTime: 56343
Countdown: 0
SampleSet: None
StackLeniency: 0.4
Mode: 0
LetterboxInBreaks: 0
WidescreenStoryboard: 0

[Editor]
Bookmarks: 57403
DistanceSpacing: 0.8
BeatDivisor: 4
GridSize: 8
TimelineZoom: 1

[Metadata]
Title:POP/STARS
TitleUnicode:POP/STARS
Artist:M2U
ArtistUnicode:M2U
Creator:Minorsonek
Version:BEST ARTIST EUNE
Source:
Tags:Apo11o SquareTude RVMathew Seulgij M2Usonek Ambrew League of Legends Riot Games K/DA
BeatmapID:1969029
BeatmapSetID:942875

[Difficulty]
HPDrainRate:6
CircleSize:4.4
OverallDifficulty:8.8
ApproachRate:9.4
SliderMultiplier:2.1
SliderTickRate:1

[Events]
//Background and Video events
0,0,"unknown.png",0,0
//Break Periods
//Storyboard Layer 0 (Background)
//Storyboard Layer 1 (Fail)
//Storyboard Layer 2 (Pass)
//Storyboard Layer 3 (Foreground)
//Storyboard Sound Samples

[TimingPoints]
932,352.941176470588,4,3,1,40,1,0
932,-83.3333333333333,4,3,1,40,0,0
1285,-100,4,3,1,40,0,0
3932,-76.9230769230769,4,3,1,40,0,0
4109,-66.6666666666667,4,3,1,40,0,0
4285,-58.8235294117647,4,3,1,40,0,0
4462,-100,4,3,1,40,0,0
5874,-50,4,3,1,40,0,0
6580,-55.5555555555556,4,3,1,40,0,0
7285,-133.333333333333,4,3,1,40,0,0
7991,-62.5,4,3,1,40,0,0
8697,-83.3333333333333,4,3,1,40,0,0
9756,-62.5,4,3,1,40,0,0
10462,-50,4,3,1,40,0,0
10815,-285.714285714286,4,3,1,40,0,0
11167,-285.714285714286,4,3,1,30,0,0
11343,-285.714285714286,4,3,1,20,0,0
11520,-285.714285714286,4,3,12,30,0,0
11521,-35.7142857142857,4,3,12,30,0,0
11873,-35.7142857142857,4,3,12,40,0,0
11874,-45.4545454545455,4,3,12,40,0,0
12226,-45.4545454545455,4,3,2,55,0,0
12227,-100,4,3,2,55,0,0
13285,-66.6666666666667,4,3,2,55,0,0
13638,-83.3333333333333,4,3,2,55,0,0
15050,-71.4285714285714,4,3,2,55,0,0
15403,-83.3333333333333,4,3,2,55,0,0
15756,-55.5555555555556,4,3,2,55,0,0
16109,-66.6666666666667,4,3,2,55,0,0
16462,-50,4,3,2,55,0,0
17168,-40,4,3,2,55,0,0
17521,-100,4,3,2,55,0,0
17874,-100,4,3,2,55,0,0
18932,-62.5,4,3,2,55,0,0
19285,-83.3333333333333,4,3,2,55,0,0
20697,-55.5555555555556,4,3,2,55,0,0
21050,-71.4285714285714,4,3,2,55,0,0
21403,-83.3333333333333,4,3,2,55,0,0
21756,-55.5555555555556,4,3,2,55,0,0
22109,-50,4,3,2,55,0,0
22815,-40,4,3,2,55,0,0
23521,-62.5,4,3,2,55,0,0
24227,-50,4,3,2,55,0,0
24580,-62.5,4,3,2,55,0,0
25285,-66.6666666666667,4,3,2,55,0,0
25638,-83.3333333333333,4,3,2,55,0,0
26344,-62.5,4,3,2,55,0,0
27050,-50,4,3,2,55,0,0
27403,-62.5,4,3,2,55,0,0
28109,-66.6666666666667,4,3,2,55,0,0
28462,-40,4,3,2,55,0,0
29168,-66.6666666666667,4,3,2,55,0,0
30227,-45.4545454545455,4,3,2,55,0,0
30580,-50,4,3,2,55,0,0
31285,-62.5,4,3,2,55,0,0
31991,-45.4545454545455,4,3,2,55,0,0
32344,-62.5,4,3,2,55,0,0
33050,-50,4,3,2,55,0,0
34109,-40,4,3,2,55,0,0
34284,-40,4,3,0,55,0,0
34462,-55.5555555555556,4,3,0,55,0,0
34814,-55.5555555555556,4,3,11,55,0,0
34815,-133.333333333333,4,3,11,55,0,0
34990,-133.333333333333,4,2,0,45,0,0
43285,-100,4,2,0,45,0,0
43815,-76.9230769230769,4,2,0,45,0,0
45403,-100,4,2,0,45,0,0
46108,-100,4,3,1,50,0,0
51756,-83.3333333333333,4,3,1,50,0,0
54579,-83.3333333333333,4,3,1,55,0,0
55903,-100,4,3,1,55,0,0
55990,-100,4,3,1,40,0,0
56343,-100,4,3,7,70,0,0
57402,-100,4,3,12,75,0,0
57403,-66.6666666666667,4,3,12,75,0,0
58108,-66.6666666666667,4,3,99,75,0,0
58109,-40,4,3,99,75,0,0
58461,-40,4,3,12,75,0,0
58462,-50,4,3,12,75,0,0
58991,-35.7142857142857,4,3,12,75,0,0
59168,-45.4545454545455,4,3,12,75,0,0
59521,-40,4,3,12,75,0,0
59874,-100,4,3,12,75,0,0
60227,-50,4,3,12,75,0,0
60932,-40,4,3,12,75,0,0
61285,-45.4545454545455,4,3,12,75,0,0
61638,-66.6666666666667,4,3,12,75,0,0
61991,-50,4,3,12,75,0,0
63226,-50,4,3,14,75,0,0
63403,-66.6666666666667,4,3,14,75,0,0
63579,-66.6666666666667,4,3,12,75,0,0
63755,-66.6666666666667,4,3,99,75,0,0
63756,-40,4,3,99,75,0,0
64108,-40,4,3,12,75,0,0
64109,-50,4,3,12,75,0,0
64637,-35.7142857142857,4,3,12,75,0,0
64814,-45.4545454545455,4,3,12,75,0,0
65167,-40,4,3,12,75,0,0
65520,-66.6666666666667,4,3,12,75,0,0
65873,-45.4545454545455,4,3,12,75,0,0
66226,-41.6666666666667,4,3,12,75,0,0
66931,-50,4,3,12,75,0,0
67637,-43.4782608695652,4,3,12,75,0,0
67814,-43.4782608695652,4,3,14,75,0,0
68343,-100,4,3,12,75,0,0
68431,-100,4,3,14,75,0,0
68696,-38.4615384615385,4,3,12,75,0,1
69402,-40,4,3,12,75,0,1
69755,-50,4,3,12,75,0,1
71167,-100,4,3,12,75,0,0
71520,-35.7142857142857,4,3,12,75,0,1
72226,-40,4,3,12,75,0,1
72579,-50,4,3,12,75,0,1
73814,-100,4,3,12,75,0,0
74343,-50,4,3,12,75,0,1
74520,-50,4,3,14,75,0,1
75049,-45.4545454545455,4,3,99,75,0,1
75402,-45.4545454545455,4,3,12,75,0,1
78931,-100,4,3,12,75,0,0
79284,-125,4,3,12,75,0,0
79637,-166.666666666667,4,3,12,75,0,0
79990,-166.666666666667,4,2,0,75,0,0

[Colours]
Combo1 : 128,0,255
Combo2 : 0,128,255
Combo3 : 128,128,255
Combo4 : 0,255,255

[HitObjects]
58,101,932,6,0,B|102:77|154:98|131:151|196:168|238:139,1,188.999994232178,2|0,0:2|0:0,0:0:0:0:
257,146,1285,6,0,P|222:159|205:189,1,52.5,8|0,0:3|0:0,0:0:0:0:
181,283,1462,1,0,2:0:0:0:
274,375,1638,1,0,0:0:0:0:
354,376,1814,2,0,P|377:364|394:344,1,52.5,8|0,2:3|0:0,0:0:0:0:
440,215,1991,1,0,0:0:0:0:
387,123,2168,1,2,0:0:0:0:
310,82,2344,2,0,P|284:77|260:86,1,52.5,8|0,2:3|0:0,0:0:0:0:
155,210,2521,1,0,0:0:0:0:
173,316,2697,1,8,0:0:0:0:
244,367,2874,1,0,2:0:0:0:
319,361,3050,5,2,0:0:0:0:
420,244,3227,1,0,0:0:0:0:
370,76,3403,1,8,2:3:0:0:
192,32,3580,1,0,0:0:0:0:
28,241,3756,5,2,2:3:0:0:
113,333,3932,2,0,P|112:304|122:255,1,68.2499968757631,0|0,2:0|0:0,0:0:0:0:
253,224,4109,2,0,P|268:266|291:306,1,78.7500030040742,2|0,0:3|0:0,0:0:0:0:
429,352,4285,2,0,P|451:313|479:279,1,89.2500017023087,2|0,0:3|0:0,0:0:0:0:
454,115,4462,6,0,P|458:140|451:165,1,52.5,8|0,2:3|0:0,0:0:0:0:
363,306,4638,1,0,2:0:0:0:
224,332,4815,1,2,0:0:0:0:
147,277,4991,2,0,P|130:256|123:231,1,52.5,8|0,2:3|0:0,0:0:0:0:
136,84,5168,1,0,2:0:0:0:
230,22,5344,1,0,2:0:0:0:
317,48,5521,1,8,0:3:0:0:
359,109,5697,1,0,2:0:0:0:
326,179,5874,6,0,B|266:145|291:63|291:63|387:109|387:109|409:97|409:97|325:145|351:264,1,420,4|8,0:3|0:0,0:0:0:0:
365,300,6344,5,0,0:0:0:0:
278,260,6462,5,0,0:0:0:0:
174,251,6580,6,0,B|94:269|143:320|75:349|75:349|228:316|228:316|268:336|268:336|355:317|355:317|356:335|356:335|502:300,1,566.999982696534,2|0,0:0|0:0,0:0:0:0:
50,280,7285,2,0,P|32:207|20:113,1,157.500006008148,8|0,0:3|0:0,0:0:0:0:
20,125,7815,1,0,0:0:0:0:
182,38,7991,6,0,B|163:5|128:19|128:19|149:79|214:70,1,168,2|0,0:0|2:0,0:0:0:0:
314,202,8344,2,0,B|350:200|356:164|356:164|293:152|267:212,1,168,2|0,0:0|2:0,0:0:0:0:
100,373,8697,6,0,B|227:394|198:258|330:286,1,251.999992309571,8|0,0:3|0:0,0:0:0:0:
477,363,9227,1,0,0:0:0:0:
314,265,9403,5,2,0:0:0:0:
285,223,9491,1,0,0:0:0:0:
280,172,9580,1,0,2:0:0:0:
298,125,9668,1,0,0:0:0:0:
330,86,9756,6,0,L|431:72,1,84,2|0,0:0|0:0,0:0:0:0:
143,114,9932,2,0,L|244:126,1,84,0|0,2:0|0:0,0:0:0:0:
37,10,10109,5,8,0:3:0:0:
16,39,10197,1,0,0:0:0:0:
41,23,10285,1,0,0:0:0:0:
20,52,10373,1,0,0:0:0:0:
0,133,10462,6,0,B|63:164|151:117|94:8|201:-25|278:35,1,315,8|0,0:3|0:0,0:0:0:0:
385,165,10815,6,0,L|378:145,1,18.3749994392395,2|0,0:0|0:0,0:0:0:0:
260,129,10991,6,0,L|254:112,1,18.3749994392395,2|0,0:0|0:0,0:0:0:0:
309,190,11168,6,0,L|298:205,1,18.3749994392395,2|0,0:0|0:0,0:0:0:0:
341,72,11344,6,0,L|328:85,1,18.3749994392395,2|0,0:0|0:0,0:0:0:0:
192,313,11521,6,0,B|286:377|320:269|372:223|434:232|485:275|485:275|417:250|359:276|347:359,1,440.999986541749,4|0,0:3|0:0,0:0:0:0:
371,308,11874,2,0,B|432:256|508:300|508:300|452:252|436:172|488:114,1,346.500010574341,4|0,0:3|0:0,0:0:0:0:
502,94,12227,5,6,0:0:0:0:
479,1,12403,1,0,0:0:0:0:
389,214,12580,5,0,0:0:0:0:
220,260,12756,1,0,0:0:0:0:
105,109,12932,2,0,P|80:100|54:101,1,52.5,8|0,0:3|0:0,0:0:0:0:
213,165,13109,2,0,P|186:165|162:157,1,52.5,0|0,0:0|0:0,0:0:0:0:
374,146,13285,6,0,B|438:120|438:120|326:97|326:97|248:127,1,236.250009012223,6|0,0:0|0:0,0:0:0:0:
225,63,13638,2,0,L|286:39,1,62.9999980773926,0|0,0:0|0:0,0:0:0:0:
506,147,13815,1,2,0:0:0:0:
347,344,13991,5,6,0:0:0:0:
262,229,14168,1,0,0:0:0:0:
395,53,14344,5,8,0:3:0:0:
491,229,14521,1,6,0:0:0:0:
322,374,14697,1,0,0:0:0:0:
160,341,14874,1,0,0:0:0:0:
85,223,15050,6,0,B|168:195|206:279|206:279|172:254|129:270,1,220.499993270874,6|0,0:0|0:0,0:0:0:0:
253,335,15403,2,0,P|273:310|281:280,1,62.9999980773926,0|0,0:0|0:0,0:0:0:0:
18,373,15580,1,0,0:0:0:0:
17,191,15756,6,0,B|47:155|47:155|99:146,1,94.499997116089,8|0,0:3|0:0,0:0:0:0:
309,209,15932,1,0,0:0:0:0:
93,146,16109,2,0,P|201:191|318:197,1,236.250009012223,6|0,0:0|0:0,0:0:0:0:
394,177,16462,6,0,B|445:160|445:160|385:95|293:126,1,210,0|0,0:0|0:0,0:0:0:0:
98,310,16815,2,0,B|87:362|87:362|173:343|192:248,1,210,6|0,0:0|0:0,0:0:0:0:
121,43,17168,2,0,B|89:10|33:42|33:42|42:101|100:147|184:116,1,262.5,8|0,0:3|0:0,0:0:0:0:
156,123,17521,6,0,L|-18:144,1,157.5,0|0,0:0|0:0,0:0:0:0:
23,208,17874,5,2,0:0:0:0:
0,327,18050,1,0,0:0:0:0:
210,384,18227,5,0,0:0:0:0:
392,327,18403,1,0,0:0:0:0:
195,261,18580,2,0,P|185:285|184:311,1,52.5,8|0,0:3|0:0,0:0:0:0:
238,142,18756,2,0,P|237:168|227:192,1,52.5,0|0,0:0|0:0,0:0:0:0:
187,38,18932,6,0,B|122:23|122:23|191:80|191:80|285:58,1,252,6|0,0:0|0:0,0:0:0:0:
371,112,19285,2,0,L|282:132,1,62.9999980773926,0|0,0:0|0:0,0:0:0:0:
57,57,19462,1,2,0:0:0:0:
37,320,19638,5,6,0:0:0:0:
121,187,19815,1,0,0:0:0:0:
358,365,19991,5,8,0:3:0:0:
174,341,20168,1,2,0:0:0:0:
106,166,20344,1,0,0:0:0:0:
215,40,20521,1,0,0:0:0:0:
340,66,20697,6,0,P|281:69|148:21,1,188.999994232178,6|0,0:0|0:0,0:0:0:0:
272,97,20962,1,0,0:0:0:0:
272,97,21050,2,0,P|317:99|364:89,1,73.4999977569581,0|0,0:0|0:0,0:0:0:0:
91,6,21227,1,0,0:0:0:0:
107,140,21403,2,0,P|110:106|105:72,1,62.9999980773926,8|0,0:3|0:0,0:0:0:0:
90,271,21580,2,0,P|84:237|88:203,1,62.9999980773926,0|0,0:0|0:0,0:0:0:0:
80,363,21756,6,0,B|7:333|7:333|134:307|134:307|223:341,1,283.499991348267,6|0,0:0|0:0,0:0:0:0:
288,309,22109,6,0,B|301:364|204:404|151:304|212:196,1,210,0|0,0:0|0:0,0:0:0:0:
372,77,22462,2,0,B|413:38|496:102|436:198|312:199,1,210,6|0,0:0|0:0,0:0:0:0:
34,117,22815,2,0,B|92:94|92:94|155:120|155:120|118:56|118:56|133:0,1,262.5,8|0,0:3|0:0,0:0:0:0:
302,379,23168,2,0,B|253:339|253:339|244:272|244:272|207:336|207:336|151:351,1,262.5,2|0,0:0|0:0,0:0:0:0:
457,297,23521,6,0,B|408:281|382:239|397:186|397:186|338:177|338:177|338:165|338:165|334:176|334:176|272:166|272:166|227:161|184:212|184:212|247:166|308:212,1,504,6|0,0:0|0:0,0:0:0:0:
478,208,24227,2,0,P|476:99|395:31,1,210,8|0,0:3|0:0,0:0:0:0:
126,61,24580,6,0,B|86:57|61:79|75:116|58:141|12:156|12:156|127:130|141:138|170:142|195:105|205:78|205:78|265:70|265:70|273:60|273:60|366:48,1,504,6|0,0:0|0:0,0:0:0:0:
0,79,25285,2,0,P|42:16|126:-11,1,157.500006008148,6|0,0:0|0:0,0:0:0:0:
200,270,25638,6,0,P|151:361|131:211,1,377.999988464356,8|0,0:3|0:0,0:0:0:0:
428,369,26344,6,0,B|381:356|366:311|366:311|400:232|400:232|383:177|332:169|332:169|193:198|193:198|247:196|271:248,1,504,6|0,0:0|0:0,0:0:0:0:
446,299,27050,2,0,B|475:229|475:229|419:106,1,210,8|0,0:3|0:0,0:0:0:0:
117,149,27403,6,0,B|163:149|194:112|198:81|179:48|198:16|243:-8|287:-23|332:-3|365:28|360:40|345:34|345:34|349:69|322:106|274:124|239:113|216:105|194:82,1,504,6|0,0:0|0:0,0:0:0:0:
54,191,28109,2,0,P|61:99|127:76,1,157.500006008148,6|0,0:0|0:0,0:0:0:0:
76,332,28462,6,0,B|27:316|58:277|9:256|9:256|104:283|104:283|117:273|117:273|200:296,1,262.5,8|0,0:3|0:0,0:0:0:0:
299,384,28815,2,0,B|249:368|280:329|231:308|231:308|326:335|326:335|339:325|339:325|422:348,1,262.5,0|0,0:0|0:0,0:0:0:0:
490,357,29168,5,2,0:0:0:0:
467,228,29344,1,0,0:0:0:0:
295,41,29521,5,0,0:0:0:0:
155,152,29697,1,0,0:0:0:0:
212,333,29874,2,0,B|250:353|250:353|285:348,1,78.7500030040742,8|0,0:3|0:0,0:0:0:0:
429,221,30050,2,0,B|449:183|449:183|444:147,1,78.7500030040742,0|0,0:0|0:0,0:0:0:0:
271,43,30227,6,0,B|209:61|156:24|156:24|188:80|149:159,1,231.000007049561,6|0,0:0|0:0,0:0:0:0:
426,373,30580,2,0,L|229:109,1,315,0|0,0:0|0:0,0:0:0:0:
156,24,30932,5,6,0:0:0:0:
353,88,31109,1,0,0:0:0:0:
196,333,31285,2,0,B|155:339|155:339|117:319,1,84,8|0,0:3|0:0,0:0:0:0:
40,177,31462,2,0,B|33:136|33:136|53:98,1,84,2|0,0:0|0:0,0:0:0:0:
262,17,31638,2,0,B|300:32|300:32|323:68,1,84,0|0,0:0|0:0,0:0:0:0:
339,250,31815,2,0,B|323:288|323:288|287:311,1,84,0|0,0:0|0:0,0:0:0:0:
173,178,31991,6,0,B|127:112|127:112|283:132|283:132|198:272,1,346.500010574341,6|0,0:0|0:0,0:0:0:0:
161,345,32344,1,0,0:0:0:0:
161,345,32432,1,0,0:0:0:0:
161,345,32521,1,0,0:0:0:0:
86,173,32697,2,0,B|42:180|42:180|4:166,1,84,8|0,0:3|0:0,0:0:0:0:
293,61,32874,2,0,B|255:47|255:47|211:54,1,84,0|0,0:0|0:0,0:0:0:0:
431,193,33050,6,0,B|520:215|520:215|476:126|476:126|349:90,1,315,6|0,0:0|0:0,0:0:0:0:
293,61,33403,5,0,0:0:0:0:
512,27,33580,1,2,0:0:0:0:
245,153,33756,5,6,0:0:0:0:
48,45,33931,1,0,0:0:0:0:
365,269,34109,6,0,B|414:253|383:214|432:193|432:193|337:220|337:220|324:210|324:210|241:233,1,262.5,8|0,0:3|0:0,0:0:0:0:
5,101,34462,2,0,P|97:97|168:156,1,188.999994232178,8|0,0:0|0:0,0:0:0:0:
267,359,34726,1,0,0:0:0:0:
267,359,34815,6,0,B|194:223|302:84|302:84|372:170|369:241|369:241|372:170|441:85|441:85|544:229|466:380,1,945.000036048891,12|0,0:0|0:0,0:0:0:0:
159,154,37638,2,0,B|137:59|210:-13|328:10|366:56|376:102|366:154|330:233|295:275|266:331|166:361|184:348|184:348|191:365|76:324|209:234|250:323|246:368|306:383|344:386|394:369|424:321,1,945.000036048891,2|2,0:2|0:0,0:0:0:0:
22,27,40462,2,0,B|-19:151|-18:310|4:387|138:403|220:373|280:314|269:242|262:145|253:93|234:23,1,787.500030040742,2|0,0:0|0:0,0:0:0:0:
252,324,42580,2,0,P|308:346|402:321,1,157.500006008148,2|0,0:0|0:0,0:0:0:0:
461,61,43285,6,0,L|357:76,1,105,2|8,0:0|0:0,0:0:0:0:
357,76,43638,1,0,0:0:0:0:
272,311,43815,6,0,B|385:228|385:228|272:139,1,272.999987503052,8|0,0:0|0:0,0:0:0:0:
193,344,44344,2,0,B|126:352|67:320|77:217|149:207|190:209|190:209|149:207|88:192|77:139|93:85|138:55|191:55|232:104,1,545.999975006105,8|8,0:0|0:0,0:0:0:0:
221,92,45227,1,0,0:0:0:0:
326,39,45403,2,0,L|450:25,1,105,10|0,0:0|0:0,0:0:0:0:
107,21,45756,2,0,L|-17:7,1,105,8|0,0:0|0:0,0:0:0:0:
191,209,46109,6,0,P|297:225|390:302,1,210,4|0,0:0|0:0,0:0:0:0:
311,28,46638,2,0,P|210:65|135:160,1,210,8|0,0:0|0:0,0:0:0:0:
402,358,47168,2,0,L|506:343,1,105,8|0,0:0|0:0,0:0:0:0:
254,251,47521,6,0,P|158:210|54:215,1,210,8|0,0:0|0:0,0:0:0:0:
54,215,48050,1,0,0:0:0:0:
242,130,48227,2,0,L|259:13,1,105,8|0,0:0|0:0,0:0:0:0:
439,190,48580,2,0,L|423:86,1,105,8|0,0:0|0:0,0:0:0:0:
391,361,48843,1,0,0:0:0:0:
391,361,48932,6,0,B|454:373|478:311|436:255|401:244|343:308|316:331|285:352|234:341,1,315,4|8,0:0|0:0,0:0:0:0:
193,269,49638,1,0,0:0:0:0:
278,373,49815,1,0,0:0:0:0:
109,364,49991,2,0,L|96:243,1,105,8|0,0:0|0:0,0:0:0:0:
180,101,50344,6,0,P|179:154|155:200,1,105,8|0,0:0|0:0,0:0:0:0:
256,177,50697,2,0,P|299:148|327:104,1,105,0|8,0:0|0:0,0:0:0:0:
452,178,51050,2,0,P|406:203|354:206,1,105,0|0,0:0|0:0,0:0:0:0:
332,292,51403,1,8,0:0:0:0:
507,256,51580,1,0,0:0:0:0:
261,355,51756,6,0,B|135:367|135:367|-2:304,1,251.999992309571,4|8,0:0|0:0,0:0:0:0:
155,251,52285,1,0,0:0:0:0:
39,163,52462,2,0,B|119:158|119:158|196:99|196:99|270:95,1,251.999992309571,8|8,0:0|0:0,0:0:0:0:
168,27,52991,1,0,0:0:0:0:
334,150,53168,6,0,P|354:91|328:35,1,125.999996154785,4|0,0:0|0:0,0:0:0:0:
322,237,53521,2,0,P|382:224|417:173,1,125.999996154785,8|0,0:0|0:0,0:0:0:0:
250,291,53874,6,0,P|230:232|256:176,1,125.999996154785,8|0,0:0|0:0,0:0:0:0:
262,377,54227,2,0,P|201:364|166:313,1,125.999996154785,8|0,0:0|0:0,0:0:0:0:
492,196,54580,5,4,0:0:0:0:
411,367,54756,1,8,0:0:0:0:
349,67,54932,5,4,0:0:0:0:
355,309,55109,1,8,0:0:0:0:
212,53,55285,5,4,0:0:0:0:
238,87,55374,1,0,0:0:0:0:
238,139,55462,1,8,0:0:0:0:
207,206,55550,1,0,0:0:0:0:
119,227,55638,1,4,0:0:0:0:
47,155,55727,1,0,0:0:0:0:
60,54,55815,1,8,0:0:0:0:
163,9,55903,2,0,P|188:6|212:17,1,52.5,0|0,0:0|0:0,0:0:0:0:
302,353,56344,5,4,0:1:0:0:
469,288,56521,1,0,0:0:0:0:
208,298,56697,5,0,0:0:0:0:
0,161,56874,1,0,0:0:0:0:
305,237,57050,5,0,0:0:0:0:
512,25,57227,1,0,0:0:0:0:
206,188,57403,6,0,B|122:139|136:33|136:33|131:101|189:130|189:130|64:141|97:268,1,472.500018024445,4|0,0:3|0:0,0:0:0:0:
392,336,58109,2,0,B|476:313|476:313|143:261,1,393.75,6|0,0:1|0:0,0:0:0:0:
219,51,58462,6,0,B|298:8|387:33|387:33|413:131|413:131|342:59|233:121,1,420,6|0,0:0|0:0,0:0:0:0:
279,100,58991,2,0,P|338:92|420:138,1,146.999995513916,2|0,0:0|0:0,0:0:0:0:
150,362,59168,6,0,B|124:224|23:187|23:187|-1:259|44:308,1,346.500010574341,6|0,0:0|0:0,0:0:0:0:
37,300,59521,2,0,B|305:226|305:226|432:289,1,393.75,8|0,0:0|0:0,0:0:0:0:
477,287,59874,6,0,P|481:335|434:345,1,105,0|0,0:0|0:0,0:0:0:0:
496,53,60227,6,0,B|428:20|352:72|322:118|383:178|383:178|448:153|457:93|410:49|334:13|334:13|268:69|280:152,1,630,6|0,0:0|0:0,0:0:0:0:
49,326,60932,2,0,B|161:383|161:383|56:89,1,393.75,8|0,0:0|0:0,0:0:0:0:
272,347,61285,6,0,B|352:387|463:357|480:283|480:283|418:244|361:289,1,346.500010574341,6|0,0:0|0:0,0:0:0:0:
384,274,61638,2,0,P|402:235|390:181,1,78.7500030040742,0|0,0:0|0:0,0:0:0:0:
339,100,61815,1,2,0:0:0:0:
72,23,61991,5,6,0:0:0:0:
25,276,62168,1,0,0:0:0:0:
256,376,62344,2,0,P|342:350|364:321,1,105,8|0,0:0|0:0,0:0:0:0:
220,114,62521,2,0,P|224:165|202:213,1,105,0|0,0:0|0:0,0:0:0:0:
25,276,62697,2,0,P|4:188|18:154,1,105,2|0,0:0|0:0,0:0:0:0:
205,17,62874,2,0,P|158:39|127:81,1,105,0|0,0:0|0:0,0:0:0:0:
383,144,63050,6,0,B|335:64|270:50|270:50|308:82|301:133,1,210,2|0,0:0|0:0,0:0:0:0:
171,210,63403,6,0,B|228:204|254:152|254:152|274:171|309:170,1,157.500006008148,2|2,0:0|0:0,0:0:0:0:
52,321,63756,2,0,B|-4:367|-4:367|325:315,1,393.75,4|0,0:1|0:0,0:0:0:0:
170,121,64109,6,0,B|87:34|-17:31|-26:80|-19:131|-4:175|76:167|92:129|74:89|101:46|173:48,1,420,6|0,0:0|0:0,0:0:0:0:
156,48,64637,2,0,B|100:52|84:115|66:147|37:140|13:133,1,146.999995513916,2|0,0:0|0:0,0:0:0:0:
326,161,64814,6,0,B|431:134|361:39|400:-28|503:-10|534:48|523:103|454:134|422:132,1,346.500010574341,6|0,0:0|0:0,0:0:0:0:
452,125,65167,2,0,B|356:100|356:100|97:262,1,393.75,8|0,0:0|0:0,0:0:0:0:
34,257,65520,6,0,P|0:313|65:319,1,157.500006008148,0|0,0:0|0:0,0:0:0:0:
429,331,65873,6,0,B|382:318|373:271|451:218|379:188|379:188|302:192|354:267|318:308|261:301,1,346.500010574341,6|0,0:0|0:0,0:0:0:0:
463,78,66226,2,0,B|401:92|384:167|384:167|399:90|340:44,1,251.999992309571,0|0,0:0|0:0,0:0:0:0:
17,175,66579,2,0,B|259:26|259:26|349:51,1,377.999988464356,8|0,0:0|0:0,0:0:0:0:
301,161,66931,6,0,P|294:107|244:124,1,105,6|0,0:0|0:0,0:0:0:0:
79,330,67108,2,0,B|10:360|-34:266|13:240|79:201|153:239|168:276|166:320|186:355|250:364|299:333,1,420,0|2,0:0|0:0,0:0:0:0:
414,45,67637,6,0,B|444:98|444:98|432:156,1,120.750002303124,2|0,0:0|0:0,0:0:0:0:
217,217,67814,2,0,B|262:256|262:256|323:256,1,120.750002303124,2|2,0:0|0:0,0:0:0:0:
273,0,67990,6,0,B|216:19|216:19|185:72,1,120.750002303124,2|0,0:0|0:0,0:0:0:0:
157,292,68167,2,0,B|127:239|127:239|139:181,1,120.750002303124,0|0,0:0|0:0,0:0:0:0:
457,364,68343,6,0,B|499:328|531:263|450:204|350:190|406:239|389:304|331:326|235:297|188:215|185:163|212:106|231:54|313:8|409:33|446:81|470:164|438:237|349:256|437:329,1,157.5,2|2,0:0|0:0,0:0:0:0:
457,364,68696,6,0,B|499:328|531:263|450:204|350:190|406:239|389:304|331:326|235:297|188:215|185:163|212:106|231:54|313:8|409:33|446:81|470:164|438:237|349:256|437:329,1,818.999962509157,6|0,0:1|0:0,0:0:0:0:
333,169,69402,2,0,B|474:11|474:11|536:123|536:123|463:111,1,393.75,8|0,0:0|0:0,0:0:0:0:
331,62,69755,6,0,B|274:62|241:113|241:113|228:58|171:44,1,210,6|0,0:0|0:0,0:0:0:0:
28,340,70108,5,0,0:0:0:0:
158,122,70284,1,2,0:0:0:0:
68,19,70461,1,6,0:0:0:0:
106,373,70637,5,0,0:0:0:0:
70,104,70813,1,8,0:0:0:0:
320,208,70990,1,2,0:0:0:0:
175,327,71167,6,0,B|75:307|102:184|184:166|268:192|288:251|277:309|260:379|352:401|540:358|563:279|573:217|550:73|486:29|388:19|315:45|275:74|247:173,1,157.5,0|0,0:0|0:0,0:0:0:0:
175,327,71520,6,0,B|75:307|102:184|184:166|268:192|288:251|277:309|260:379|352:401|540:358|563:279|573:217|550:73|486:29|388:19|315:45|275:74|247:173,1,881.999973083497,6|0,0:0|0:0,0:0:0:0:
374,188,72226,2,0,B|296:81|296:81|22:34,1,393.75,8|0,0:0|0:0,0:0:0:0:
66,191,72579,6,0,P|110:109|31:35,1,210,6|0,0:0|0:0,0:0:0:0:
145,382,72931,5,0,0:0:0:0:
31,117,73108,1,2,0:0:0:0:
156,23,73284,1,6,0:0:0:0:
28,380,73461,5,0,0:0:0:0:
306,186,73637,1,8,0:0:0:0:
0,42,73814,1,0,0:0:0:0:
167,130,73990,1,0,0:0:0:0:
7,230,74167,1,0,0:0:0:0:
76,0,74343,5,2,0:0:0:0:
116,223,74520,1,0,0:0:0:0:
74,157,74608,1,0,0:0:0:0:
88,82,74696,1,0,0:0:0:0:
149,35,74784,1,0,0:0:0:0:
226,41,74872,1,0,0:0:0:0:
511,138,75049,6,0,B|470:96|470:96|468:23,1,115.50000352478,4|0,0:1|0:0,0:0:0:0:
331,242,75226,2,0,B|387:227|387:227|452:262,1,115.50000352478,0|0,0:0|0:0,0:0:0:0:
174,333,75402,2,0,P|46:296|160:178,1,346.500010574341,6|0,0:0|0:0,0:0:0:0:
125,259,75755,5,0,0:0:0:0:
345,74,75931,1,2,0:0:0:0:
506,122,76108,1,6,0:0:0:0:
468,384,76284,5,0,0:0:0:0:
257,165,76461,1,8,0:0:0:0:
0,236,76637,1,0,0:0:0:0:
307,382,76814,5,0,0:0:0:0:
71,32,76990,1,0,0:0:0:0:
131,384,77167,5,6,0:0:0:0:
136,326,77255,1,0,0:0:0:0:
142,269,77343,1,0,0:0:0:0:
148,211,77431,1,0,0:0:0:0:
154,154,77520,5,0,0:0:0:0:
0,63,77696,1,0,0:0:0:0:
232,236,77873,5,8,0:0:0:0:
144,0,78049,1,0,0:0:0:0:
257,346,78226,5,6,0:0:0:0:
364,16,78402,1,0,0:0:0:0:
32,167,78579,5,0,0:0:0:0:
475,105,78755,1,2,0:0:0:0:
410,314,78931,6,0,L|386:204,1,105,2|0,0:0|0:0,0:0:0:0:
269,279,79284,2,0,L|251:196,1,84,8|0,0:0|0:0,0:0:0:0:
128,244,79637,2,0,L|110:161,1,62.9999980773926,8|0,0:0|0:0,0:0:0:0:
35,293,79990,5,2,0:0:0:0:
