osu file format v14

[General]
AudioFilename: nemesis desu.mp3
AudioLeadIn: 0
PreviewTime: 30099
Countdown: 0
SampleSet: Soft
StackLeniency: 0.7
Mode: 3
LetterboxInBreaks: 0
SpecialStyle: 0
WidescreenStoryboard: 0

[Editor]
DistanceSpacing: 1
BeatDivisor: 4
GridSize: 8
TimelineZoom: 1.3

[Metadata]
Title:Nemesis
TitleUnicode:Nemesis
Artist:M2U
ArtistUnicode:M2U
Creator:Ryu Sei
Version:Advanced
Source:Pump It Up Prime
Tags:2015 PIU
BeatmapID:694046
BeatmapSetID:310547

[Difficulty]
HPDrainRate:7
CircleSize:4
OverallDifficulty:7
ApproachRate:5
SliderMultiplier:1.4
SliderTickRate:1

[Events]
//Background and Video events
0,0,"P_20150128_104946.jpg",0,0
//Break Periods
//Storyboard Layer 0 (Background)
//Storyboard Layer 1 (Fail)
//Storyboard Layer 2 (Pass)
//Storyboard Layer 3 (Foreground)
//Storyboard Layer 4 (Overlay)
//Storyboard Sound Samples

[TimingPoints]
99,375,4,2,1,58,1,0
30099,-99.009900990099,4,2,1,58,0,1
42099,-100,4,2,1,58,0,0
54099,-100,4,2,2,62,0,1
66099,-100,4,2,1,58,0,1
78099,-100,4,2,1,58,0,0
90099,-99.009900990099,4,2,1,58,0,1
102099,-100,4,2,1,58,0,1
102849,-100,4,2,1,58,0,0

[HitObjects]
448,192,99,5,0,0:0:0:0:
64,192,99,1,4,0:0:0:0:
192,192,286,1,0,0:0:0:0:
64,192,380,1,0,0:0:0:0:
320,192,474,1,0,0:0:0:0:
192,192,567,1,0,0:0:0:0:
320,192,661,1,0,0:0:0:0:
448,192,755,1,0,0:0:0:0:
320,192,849,1,0,0:0:0:0:
64,192,1036,1,0,0:0:0:0:
192,192,1130,1,0,0:0:0:0:
448,192,1224,1,0,0:0:0:0:
320,192,1317,1,0,0:0:0:0:
192,192,1411,1,0,0:0:0:0:
64,192,1505,1,0,0:0:0:0:
192,192,1599,1,0,0:0:0:0:
448,192,1786,1,0,0:0:0:0:
320,192,1880,1,0,0:0:0:0:
192,192,1974,1,0,0:0:0:0:
64,192,2067,1,0,0:0:0:0:
192,192,2161,1,0,0:0:0:0:
320,192,2255,1,0,0:0:0:0:
448,192,2349,1,0,0:0:0:0:
320,192,2536,1,0,0:0:0:0:
192,192,2724,1,0,0:0:0:0:
64,192,2911,1,0,0:0:0:0:
192,192,3099,1,0,0:0:0:0:
320,192,3286,1,0,0:0:0:0:
64,192,3380,1,0,0:0:0:0:
192,192,3474,1,0,0:0:0:0:
320,192,3567,1,0,0:0:0:0:
448,192,3661,1,0,0:0:0:0:
320,192,3755,1,0,0:0:0:0:
64,192,3849,1,0,0:0:0:0:
448,192,4036,1,0,0:0:0:0:
320,192,4130,1,0,0:0:0:0:
192,192,4224,1,0,0:0:0:0:
64,192,4317,1,0,0:0:0:0:
192,192,4411,1,0,0:0:0:0:
320,192,4505,1,0,0:0:0:0:
448,192,4599,1,0,0:0:0:0:
192,192,4692,1,0,0:0:0:0:
320,192,4786,1,0,0:0:0:0:
448,192,4880,1,0,0:0:0:0:
320,192,4974,1,0,0:0:0:0:
192,192,5067,1,0,0:0:0:0:
64,192,5161,1,0,0:0:0:0:
192,192,5255,1,0,0:0:0:0:
448,192,5349,1,0,0:0:0:0:
320,192,5442,1,0,0:0:0:0:
192,192,5536,1,0,0:0:0:0:
320,192,5630,1,0,0:0:0:0:
64,192,5724,1,0,0:0:0:0:
320,192,5911,1,0,0:0:0:0:
64,192,6099,1,0,0:0:2:70:
448,192,6099,1,0,0:0:0:0:
320,192,6286,1,0,0:0:0:0:
192,192,6380,1,0,0:0:0:0:
64,192,6474,1,0,0:0:0:0:
192,192,6567,1,0,0:0:0:0:
320,192,6661,1,0,0:0:0:0:
448,192,6755,1,0,0:0:0:0:
64,192,6849,1,0,0:0:2:70:
320,192,6849,1,0,0:0:0:0:
448,192,7036,1,0,0:0:0:0:
320,192,7130,1,0,0:0:0:0:
192,192,7224,1,0,0:0:0:0:
64,192,7317,1,0,0:0:0:0:
192,192,7411,1,0,0:0:0:0:
320,192,7505,1,0,0:0:0:0:
448,192,7599,1,0,0:0:0:0:
64,192,7599,1,0,0:0:2:70:
320,192,7786,1,0,0:0:0:0:
192,192,7880,1,0,0:0:0:0:
64,192,7974,1,0,0:0:0:0:
192,192,8067,1,0,0:0:0:0:
320,192,8161,1,0,0:0:0:0:
192,192,8255,1,0,0:0:0:0:
448,192,8349,1,0,0:0:2:70:
64,192,8349,1,0,0:0:0:0:
192,192,8536,1,0,0:0:0:0:
320,192,8724,1,0,0:0:2:70:
448,192,8724,1,0,0:0:0:0:
64,192,8911,1,0,0:0:0:0:
192,192,9099,1,0,0:0:2:70:
448,192,9099,1,0,0:0:0:0:
64,192,9286,1,0,0:0:0:0:
320,192,9380,1,0,0:0:0:0:
192,192,9474,1,0,0:0:0:0:
320,192,9567,1,0,0:0:0:0:
448,192,9661,1,0,0:0:0:0:
320,192,9755,1,0,0:0:0:0:
448,192,9849,1,0,0:0:2:70:
64,192,9849,1,0,0:0:0:0:
448,192,10036,1,0,0:0:0:0:
320,192,10130,1,0,0:0:0:0:
192,192,10224,1,0,0:0:0:0:
64,192,10317,1,0,0:0:0:0:
320,192,10411,1,0,0:0:0:0:
448,192,10505,1,0,0:0:0:0:
64,192,10599,1,0,0:0:2:70:
320,192,10599,1,0,0:0:0:0:
192,192,10692,1,0,0:0:0:0:
320,192,10786,1,0,0:0:0:0:
64,192,10880,1,0,0:0:0:0:
448,192,10974,1,0,0:0:2:70:
192,192,10974,1,0,0:0:0:0:
320,192,11067,1,0,0:0:0:0:
448,192,11161,1,0,0:0:0:0:
320,192,11255,1,0,0:0:0:0:
192,192,11349,1,0,0:0:2:70:
64,192,11349,1,0,0:0:0:0:
448,192,11442,1,0,0:0:0:0:
320,192,11536,1,0,0:0:0:0:
192,192,11630,1,0,0:0:0:0:
320,192,11724,1,0,0:0:2:70:
64,192,11724,1,0,0:0:0:0:
64,192,11911,1,0,0:0:2:70:
448,192,11911,1,0,0:0:0:0:
448,192,12099,1,4,0:0:0:0:
320,192,12099,1,0,0:0:0:0:
64,192,12286,1,0,0:0:0:0:
320,192,12380,1,0,0:0:0:0:
192,192,12567,1,0,0:0:0:0:
448,192,12661,1,0,0:0:0:0:
320,192,12755,1,0,0:0:0:0:
64,192,12849,1,0,0:0:0:0:
192,192,12942,1,0,0:0:0:0:
320,192,13036,1,0,0:0:0:0:
448,192,13130,1,0,0:0:0:0:
192,192,13224,1,0,0:0:0:0:
64,192,13317,1,0,0:0:0:0:
448,192,13411,1,0,0:0:0:0:
320,192,13505,1,0,0:0:0:0:
192,192,13599,1,0,0:0:0:0:
64,192,13786,1,0,0:0:0:0:
192,192,13880,1,0,0:0:0:0:
448,192,13974,1,0,0:0:0:0:
320,192,14067,1,0,0:0:0:0:
192,192,14161,1,0,0:0:0:0:
64,192,14255,1,0,0:0:0:0:
320,192,14349,1,0,0:0:0:0:
448,192,14442,1,0,0:0:0:0:
192,192,14536,1,0,0:0:0:0:
320,192,14630,1,0,0:0:0:0:
64,192,14724,1,0,0:0:0:0:
192,192,14817,1,0,0:0:0:0:
320,192,14911,1,0,0:0:0:0:
192,192,15005,1,0,0:0:0:0:
64,192,15099,1,0,0:0:0:0:
320,192,15192,1,0,0:0:0:0:
192,192,15286,1,0,0:0:0:0:
448,192,15380,1,0,0:0:0:0:
320,192,15474,1,0,0:0:0:0:
192,192,15567,1,0,0:0:0:0:
64,192,15661,1,0,0:0:0:0:
448,192,15755,1,0,0:0:0:0:
320,192,15849,1,0,0:0:0:0:
192,192,15942,1,0,0:0:0:0:
64,192,16036,1,0,0:0:0:0:
192,192,16130,1,0,0:0:0:0:
320,192,16224,1,0,0:0:0:0:
448,192,16317,1,0,0:0:0:0:
64,192,16411,1,0,0:0:0:0:
192,192,16505,1,0,0:0:0:0:
448,192,16599,1,0,0:0:0:0:
320,192,17349,128,0,18099:0:0:0:0:
448,192,18099,1,4,0:2:0:0:
64,192,18099,1,0,0:0:0:0:
192,192,18380,1,0,0:0:0:0:
320,192,18474,1,0,0:0:0:0:
192,192,18567,1,0,0:0:0:0:
64,192,18661,1,0,0:0:0:0:
192,192,18755,1,0,0:0:0:0:
448,192,18849,1,0,0:0:0:0:
320,192,18942,1,0,0:0:0:0:
192,192,19036,1,0,0:0:0:0:
64,192,19130,1,0,0:0:0:0:
320,192,19224,1,0,0:0:0:0:
192,192,19317,1,0,0:0:0:0:
64,192,19411,1,0,0:0:0:0:
192,192,19505,1,0,0:0:0:0:
320,192,19599,1,0,0:0:0:0:
320,192,19786,1,0,0:0:0:0:
64,192,19880,1,0,0:0:0:0:
448,192,19974,1,0,0:0:0:0:
320,192,20067,1,0,0:0:0:0:
192,192,20161,1,0,0:0:0:0:
64,192,20255,1,0,0:0:0:0:
320,192,20349,1,0,0:0:0:0:
192,192,20442,1,0,0:0:0:0:
320,192,20536,1,0,0:0:0:0:
448,192,20630,1,0,0:0:0:0:
64,192,20724,1,0,0:0:0:0:
192,192,20817,1,0,0:0:0:0:
320,192,20911,1,0,0:0:0:0:
448,192,21005,1,0,0:0:0:0:
192,192,21099,1,0,0:0:0:0:
320,192,21286,1,0,0:0:0:0:
448,192,21380,1,0,0:0:0:0:
320,192,21474,1,0,0:0:0:0:
192,192,21567,1,0,0:0:0:0:
64,192,21661,1,0,0:0:0:0:
192,192,21755,1,0,0:0:0:0:
320,192,21849,1,0,0:0:0:0:
192,192,21942,1,0,0:0:0:0:
64,192,22036,1,0,0:0:0:0:
192,192,22130,1,0,0:0:0:0:
320,192,22224,1,0,0:0:0:0:
448,192,22317,1,0,0:0:0:0:
320,192,22411,1,0,0:0:0:0:
192,192,22505,1,0,0:0:0:0:
320,192,22599,1,0,0:0:0:0:
448,192,22692,1,0,0:0:0:0:
320,192,22786,1,0,0:0:0:0:
192,192,22880,1,0,0:0:0:0:
64,192,22974,1,0,0:0:0:0:
192,192,23161,1,0,0:0:0:0:
448,192,23349,1,0,0:0:0:0:
320,192,23536,1,0,0:0:0:0:
192,192,23724,1,0,0:0:0:0:
64,192,23911,1,0,0:0:0:0:
448,192,24099,1,0,0:0:0:0:
448,192,24286,1,0,0:0:0:0:
320,192,24380,1,0,0:0:0:0:
192,192,24474,1,0,0:0:0:0:
64,192,24567,1,0,0:0:0:0:
192,192,24661,1,0,0:0:0:0:
320,192,24755,1,0,0:0:0:0:
64,192,24849,1,0,0:0:0:0:
192,192,24942,1,0,0:0:0:0:
448,192,25036,1,0,0:0:0:0:
64,192,25130,1,0,0:0:0:0:
320,192,25224,1,0,0:0:0:0:
448,192,25317,1,0,0:0:0:0:
192,192,25411,1,0,0:0:0:0:
64,192,25505,1,0,0:0:0:0:
320,192,25599,1,0,0:0:0:0:
320,192,25786,1,0,0:0:0:0:
192,192,25880,1,0,0:0:0:0:
448,192,25974,1,0,0:0:0:0:
320,192,26067,1,0,0:0:0:0:
192,192,26161,1,0,0:0:0:0:
448,192,26255,1,0,0:0:0:0:
64,192,26349,1,0,0:0:0:0:
192,192,26442,1,0,0:0:0:0:
320,192,26536,1,0,0:0:0:0:
448,192,26630,1,0,0:0:0:0:
192,192,26724,1,0,0:0:0:0:
64,192,26817,1,0,0:0:0:0:
192,192,26911,1,0,0:0:0:0:
320,192,27005,1,0,0:0:0:0:
448,192,27099,1,0,0:0:0:0:
192,192,27286,1,0,0:0:0:0:
320,192,27380,1,0,0:0:0:0:
192,192,27474,1,0,0:0:0:0:
64,192,27567,1,0,0:0:0:0:
448,192,27661,1,0,0:0:0:0:
320,192,27755,1,0,0:0:0:0:
192,192,27849,1,0,0:0:0:0:
64,192,28036,1,0,0:0:0:0:
320,192,28130,1,0,0:0:0:0:
448,192,28224,1,0,0:0:0:0:
64,192,28317,1,0,0:0:0:0:
320,192,28411,1,0,0:0:0:0:
192,192,28505,1,0,0:0:0:0:
448,192,28599,1,0,0:0:0:0:
320,192,28692,1,0,0:0:0:0:
192,192,28786,1,0,0:0:0:0:
64,192,28880,1,0,0:0:0:0:
192,192,28974,1,0,0:0:0:0:
320,192,29161,1,0,0:0:0:0:
448,192,29349,1,0,0:0:0:0:
64,192,29442,1,0,0:0:0:0:
192,192,29536,1,0,0:0:0:0:
448,192,29630,1,0,0:0:0:0:
320,192,29724,1,0,0:0:0:0:
448,192,29911,1,0,0:0:0:0:
64,192,30099,1,0,0:0:0:0:
320,192,30099,1,0,0:0:0:0:
448,192,30286,1,0,0:0:0:0:
192,192,30474,1,0,0:0:0:0:
320,192,30474,1,0,0:0:0:0:
64,192,30661,1,0,0:0:0:0:
320,192,30849,1,0,0:0:0:0:
448,192,30849,1,0,0:0:0:0:
192,192,31036,1,0,0:0:0:0:
64,192,31224,1,0,0:0:0:0:
448,192,31224,1,0,0:0:0:0:
192,192,31411,1,0,0:0:0:0:
320,192,31505,1,0,0:0:0:0:
448,192,31599,1,0,0:0:0:0:
64,192,31599,1,0,0:0:0:0:
320,192,31786,1,0,0:0:0:0:
192,192,31974,1,0,0:0:0:0:
448,192,31974,1,0,0:0:0:0:
64,192,32161,1,0,0:0:0:0:
320,192,32349,1,0,0:0:0:0:
448,192,32349,1,0,0:0:0:0:
192,192,32536,1,0,0:0:0:0:
64,192,32724,1,0,0:0:0:0:
320,192,32724,1,0,0:0:0:0:
448,192,32911,1,0,0:0:0:0:
192,192,33099,1,0,0:0:0:0:
320,192,33099,1,0,0:0:0:0:
64,192,33286,1,0,0:0:0:0:
320,192,33474,1,0,0:0:0:0:
448,192,33474,1,0,0:0:0:0:
192,192,33661,1,0,0:0:0:0:
64,192,33849,1,0,0:0:0:0:
448,192,33849,1,0,0:0:0:0:
320,192,34036,1,0,0:0:0:0:
192,192,34224,1,0,0:0:0:0:
448,192,34224,1,0,0:0:0:0:
64,192,34411,1,0,0:0:0:0:
192,192,34505,1,0,0:0:0:0:
320,192,34599,1,0,0:0:0:0:
448,192,34599,1,0,0:0:0:0:
192,192,34786,1,0,0:0:0:0:
64,192,34974,1,0,0:0:0:0:
320,192,35161,1,0,0:0:0:0:
448,192,35349,1,0,0:0:0:0:
192,192,35349,1,4,0:0:0:0:
320,192,35536,1,0,0:0:0:0:
64,192,35536,1,4,0:0:0:0:
448,192,35724,1,0,0:0:0:0:
192,192,35724,1,4,0:0:0:0:
320,192,35911,1,0,0:0:0:0:
64,192,35911,1,4,0:0:0:0:
192,192,36099,1,4,0:0:0:0:
448,192,36099,1,0,0:0:0:0:
320,192,36286,1,0,0:0:0:0:
64,192,36474,1,0,0:0:0:0:
192,192,36474,1,0,0:0:0:0:
448,192,36661,1,0,0:0:0:0:
64,192,36849,1,0,0:0:0:0:
320,192,36849,1,0,0:0:0:0:
448,192,37036,1,0,0:0:0:0:
192,192,37224,1,0,0:0:0:0:
320,192,37224,1,0,0:0:0:0:
64,192,37411,1,0,0:0:0:0:
448,192,37505,1,0,0:0:0:0:
192,192,37599,1,0,0:0:0:0:
320,192,37599,1,0,0:0:0:0:
448,192,37786,1,0,0:0:0:0:
64,192,37974,1,0,0:0:0:0:
320,192,37974,1,0,0:0:0:0:
192,192,38161,1,0,0:0:0:0:
320,192,38349,1,0,0:0:0:0:
448,192,38349,1,0,0:0:0:0:
192,192,38536,1,0,0:0:0:0:
64,192,38724,1,0,0:0:0:0:
448,192,38724,1,0,0:0:0:0:
320,192,38911,1,0,0:0:0:0:
192,192,39099,1,0,0:0:0:0:
448,192,39099,1,0,0:0:0:0:
64,192,39286,1,0,0:0:0:0:
192,192,39474,1,0,0:0:0:0:
448,192,39474,1,0,0:0:0:0:
320,192,39661,1,0,0:0:0:0:
64,192,39849,1,0,0:0:0:0:
192,192,39849,1,0,0:0:0:0:
448,192,40036,1,0,0:0:0:0:
192,192,40224,1,0,0:0:0:0:
320,192,40224,1,0,0:0:0:0:
64,192,40411,1,0,0:0:0:0:
320,192,40505,1,0,0:0:0:0:
448,192,40599,1,0,0:0:0:0:
192,192,40599,1,0,0:0:0:0:
320,192,40786,1,0,0:0:0:0:
64,192,40974,1,0,0:0:0:0:
448,192,41161,1,0,0:0:0:0:
192,192,41349,1,0,0:0:0:0:
320,192,41536,1,0,0:0:0:0:
448,192,41536,1,4,0:0:0:0:
64,192,41724,1,0,0:0:0:0:
448,192,41911,1,0,0:0:0:0:
192,192,41911,1,4,0:0:0:0:
320,192,42099,1,4,0:0:0:0:
64,192,42099,128,0,43599:0:0:0:0:
192,192,43599,128,0,45099:0:0:0:0:
448,192,45099,128,0,46599:0:0:0:0:
320,192,46599,128,0,48099:0:0:0:0:
448,192,48099,1,4,0:0:0:0:
64,192,48099,128,0,49599:0:0:0:0:
320,192,49599,128,0,51099:0:0:0:0:
192,192,51099,128,0,52599:0:0:0:0:
448,192,52599,128,0,54099:0:0:0:0:
192,192,54099,1,0,0:0:0:0:
320,192,54099,1,4,0:0:0:0:
64,192,54286,1,0,0:0:0:0:
64,192,54474,1,0,0:0:0:0:
192,192,54661,1,0,0:0:0:0:
320,192,54661,1,4,0:0:0:0:
64,192,54849,1,0,0:0:0:0:
64,192,55036,1,0,0:0:0:0:
192,192,55224,1,0,0:0:0:0:
320,192,55224,1,4,0:0:0:0:
320,192,55974,1,0,0:0:0:0:
192,192,56349,1,0,0:0:0:0:
448,192,56349,1,0,0:0:0:0:
448,192,56536,1,0,0:0:0:0:
192,192,56724,1,0,0:0:0:0:
320,192,56724,1,4,0:0:0:0:
64,192,56911,1,0,0:0:0:0:
320,192,57099,1,4,0:0:0:0:
448,192,57099,1,4,0:0:0:0:
192,192,57286,1,0,0:0:0:0:
192,192,57474,1,0,0:0:0:0:
320,192,57661,1,0,0:0:0:0:
448,192,57661,1,4,0:0:0:0:
192,192,57849,1,0,0:0:0:0:
192,192,58036,1,0,0:0:0:0:
448,192,58036,1,4,0:0:0:0:
64,192,58224,1,0,0:0:0:0:
448,192,58224,1,4,0:0:0:0:
192,192,58786,1,4,0:0:0:0:
320,192,58786,1,0,0:0:0:0:
64,192,59349,1,0,0:0:0:0:
192,192,59349,1,4,0:0:0:0:
64,192,59536,1,0,0:0:0:0:
320,192,59724,1,4,0:0:0:0:
448,192,59724,1,0,0:0:0:0:
448,192,59911,1,0,0:0:0:0:
192,192,60099,1,4,0:0:0:0:
320,192,60099,1,0,0:0:0:0:
448,192,60286,1,0,0:0:0:0:
448,192,60474,1,0,0:0:0:0:
320,192,60661,1,0,0:0:0:0:
192,192,60661,1,4,0:0:0:0:
448,192,60849,1,0,0:0:0:0:
448,192,61036,1,0,0:0:0:0:
320,192,61224,1,0,0:0:0:0:
192,192,61224,1,4,0:0:0:0:
192,192,61974,1,0,0:0:0:0:
64,192,62349,1,0,0:0:0:0:
320,192,62349,1,0,0:0:0:0:
64,192,62536,1,0,0:0:0:0:
320,192,62724,1,0,0:0:0:0:
192,192,62724,1,4,0:0:0:0:
448,192,62911,1,0,0:0:0:0:
64,192,63099,1,4,0:0:0:0:
192,192,63099,1,4,0:0:0:0:
320,192,63286,1,0,0:0:0:0:
320,192,63474,1,0,0:0:0:0:
192,192,63661,1,0,0:0:0:0:
64,192,63661,1,4,0:0:0:0:
320,192,63849,1,0,0:0:0:0:
64,192,64036,1,4,0:0:0:0:
320,192,64036,1,0,0:0:0:0:
64,192,64224,1,4,0:0:0:0:
448,192,64224,1,0,0:0:0:0:
192,192,64786,1,0,0:0:0:0:
320,192,64786,1,4,0:0:0:0:
320,192,65349,1,4,0:0:0:0:
448,192,65349,1,0,0:0:0:0:
448,192,65536,1,0,0:0:0:0:
64,192,65724,1,0,0:0:0:0:
192,192,65724,1,4,0:0:0:0:
64,192,65911,1,0,0:0:0:0:
192,192,66099,128,0,66286:0:0:0:0:
448,192,66099,1,4,0:0:0:0:
320,192,66286,128,0,66474:0:0:0:0:
448,192,66474,128,0,66661:0:0:0:0:
64,192,66661,128,0,66849:0:0:0:0:
320,192,66849,128,0,67036:0:0:0:0:
192,192,67036,128,0,67224:0:0:0:0:
64,192,67224,128,0,67599:0:0:0:0:
320,192,67599,128,0,67786:0:0:0:0:
448,192,67786,128,0,68161:0:0:0:0:
320,192,68161,128,0,68349:0:0:0:0:
64,192,68349,128,0,68536:0:0:0:0:
192,192,68536,128,0,68724:0:0:0:0:
448,192,68724,128,0,68911:0:0:0:0:
64,192,68911,128,0,69099:0:0:0:0:
192,192,69099,128,0,69286:0:0:0:0:
320,192,69286,128,0,69474:0:0:0:0:
448,192,69474,128,0,69661:0:0:0:0:
64,192,69661,128,0,69849:0:0:0:0:
320,192,69849,128,0,70036:0:0:0:0:
192,192,70036,128,0,70224:0:0:0:0:
64,192,70224,128,0,70411:0:0:0:0:
320,192,70411,128,0,70599:0:0:0:0:
448,192,70599,128,0,70786:0:0:0:0:
192,192,70786,128,0,70974:0:0:0:0:
320,192,70974,128,0,71161:0:0:0:0:
448,192,71161,128,0,71536:0:0:0:0:
64,192,71536,128,0,71911:0:0:0:0:
320,192,71911,128,0,72099:0:0:0:0:
192,192,72099,128,0,72286:0:0:0:0:
320,192,72286,128,0,72474:0:0:0:0:
448,192,72474,128,0,72661:0:0:0:0:
64,192,72661,128,0,72849:0:0:0:0:
320,192,72849,128,0,73036:0:0:0:0:
192,192,73036,128,0,73224:0:0:0:0:
64,192,73224,128,0,73599:0:0:0:0:
320,192,73599,128,0,73786:0:0:0:0:
448,192,73786,128,0,73974:0:0:0:0:
320,192,73974,128,0,74349:0:0:0:0:
192,192,74349,128,0,74724:0:0:0:0:
448,192,74724,128,0,74911:0:0:0:0:
64,192,74911,128,0,75099:0:0:0:0:
192,192,75099,128,0,75286:0:0:0:0:
320,192,75286,128,0,75474:0:0:0:0:
448,192,75474,128,0,75661:0:0:0:0:
64,192,75661,128,0,75849:0:0:0:0:
192,192,75849,128,0,76224:0:0:0:0:
64,192,76224,128,0,76411:0:0:0:0:
320,192,76411,128,0,76599:0:0:0:0:
448,192,76599,128,0,76786:0:0:0:0:
192,192,76786,128,0,76974:0:0:0:0:
320,192,76974,128,0,77161:0:0:0:0:
448,192,77161,128,0,77536:0:0:0:0:
64,192,77536,128,0,77724:0:0:0:0:
320,192,77724,128,0,78099:0:0:0:0:
448,192,78099,5,4,0:2:0:0:
64,192,78099,1,0,0:0:0:0:
448,192,78380,1,0,0:0:0:0:
192,192,78474,1,0,0:0:0:0:
320,192,78567,1,0,0:0:0:0:
64,192,78661,1,0,0:0:0:0:
320,192,78755,1,0,0:0:0:0:
448,192,78849,1,0,0:0:0:0:
192,192,78942,1,0,0:0:0:0:
320,192,79036,1,0,0:0:0:0:
64,192,79130,1,0,0:0:0:0:
192,192,79224,1,0,0:0:0:0:
320,192,79317,1,0,0:0:0:0:
64,192,79411,1,0,0:0:0:0:
320,192,79505,1,0,0:0:0:0:
192,192,79599,1,0,0:0:0:0:
192,192,79786,1,0,0:0:0:0:
64,192,79880,1,0,0:0:0:0:
448,192,79974,1,0,0:0:0:0:
192,192,80067,1,0,0:0:0:0:
320,192,80161,1,0,0:0:0:0:
64,192,80255,1,0,0:0:0:0:
192,192,80349,1,0,0:0:0:0:
320,192,80442,1,0,0:0:0:0:
192,192,80536,1,0,0:0:0:0:
448,192,80630,1,0,0:0:0:0:
64,192,80724,1,0,0:0:0:0:
320,192,80817,1,0,0:0:0:0:
192,192,80911,1,0,0:0:0:0:
448,192,81005,1,0,0:0:0:0:
320,192,81099,1,0,0:0:0:0:
192,192,81286,1,0,0:0:0:0:
448,192,81380,1,0,0:0:0:0:
192,192,81474,1,0,0:0:0:0:
320,192,81567,1,0,0:0:0:0:
64,192,81661,1,0,0:0:0:0:
448,192,81755,1,0,0:0:0:0:
192,192,81849,1,0,0:0:0:0:
320,192,81942,1,0,0:0:0:0:
64,192,82036,1,0,0:0:0:0:
320,192,82130,1,0,0:0:0:0:
192,192,82224,1,0,0:0:0:0:
448,192,82317,1,0,0:0:0:0:
64,192,82411,1,0,0:0:0:0:
320,192,82505,1,0,0:0:0:0:
192,192,82599,1,0,0:0:0:0:
448,192,82692,1,0,0:0:0:0:
192,192,82786,1,0,0:0:0:0:
320,192,82880,1,0,0:0:0:0:
64,192,82974,1,0,0:0:0:0:
320,192,83161,1,0,0:0:0:0:
448,192,83349,1,0,0:0:0:0:
192,192,83536,1,0,0:0:0:0:
320,192,83724,1,0,0:0:0:0:
64,192,83911,1,0,0:0:0:0:
448,192,84099,1,0,0:0:0:0:
320,192,84099,1,4,0:0:0:0:
448,192,84286,1,0,0:0:0:0:
192,192,84380,1,0,0:0:0:0:
320,192,84474,1,0,0:0:0:0:
64,192,84567,1,0,0:0:0:0:
320,192,84661,1,0,0:0:0:0:
192,192,84755,1,0,0:0:0:0:
64,192,84849,1,0,0:0:0:0:
448,192,84942,1,0,0:0:0:0:
64,192,85036,1,0,0:0:0:0:
320,192,85130,1,0,0:0:0:0:
192,192,85224,1,0,0:0:0:0:
448,192,85317,1,0,0:0:0:0:
320,192,85411,1,0,0:0:0:0:
64,192,85505,1,0,0:0:0:0:
192,192,85599,1,0,0:0:0:0:
192,192,85786,1,0,0:0:0:0:
64,192,85880,1,0,0:0:0:0:
448,192,85974,1,0,0:0:0:0:
192,192,86067,1,0,0:0:0:0:
320,192,86161,1,0,0:0:0:0:
448,192,86255,1,0,0:0:0:0:
64,192,86349,1,0,0:0:0:0:
320,192,86442,1,0,0:0:0:0:
192,192,86536,1,0,0:0:0:0:
448,192,86630,1,0,0:0:0:0:
320,192,86724,1,0,0:0:0:0:
64,192,86817,1,0,0:0:0:0:
320,192,86911,1,0,0:0:0:0:
192,192,87005,1,0,0:0:0:0:
448,192,87099,1,0,0:0:0:0:
320,192,87286,1,0,0:0:0:0:
192,192,87380,1,0,0:0:0:0:
320,192,87474,1,0,0:0:0:0:
64,192,87567,1,0,0:0:0:0:
448,192,87661,1,0,0:0:0:0:
192,192,87755,1,0,0:0:0:0:
320,192,87849,1,0,0:0:0:0:
64,192,88036,1,0,0:0:0:0:
192,192,88130,1,0,0:0:0:0:
448,192,88224,1,0,0:0:0:0:
64,192,88317,1,0,0:0:0:0:
192,192,88411,1,0,0:0:0:0:
320,192,88505,1,0,0:0:0:0:
448,192,88599,1,0,0:0:0:0:
192,192,88692,1,0,0:0:0:0:
320,192,88786,1,0,0:0:0:0:
64,192,88880,1,0,0:0:0:0:
320,192,88974,1,0,0:0:0:0:
192,192,89161,1,0,0:0:0:0:
448,192,89349,1,0,0:0:0:0:
64,192,89442,1,0,0:0:0:0:
320,192,89536,1,0,0:0:0:0:
448,192,89630,1,0,0:0:0:0:
192,192,89724,1,0,0:0:0:0:
448,192,89911,1,0,0:0:0:0:
64,192,90099,1,0,0:0:0:0:
320,192,90099,1,4,0:0:0:0:
192,192,90192,1,0,0:0:0:0:
448,192,90286,1,0,0:0:0:0:
320,192,90380,1,0,0:0:0:0:
64,192,90474,1,0,0:0:0:0:
192,192,90567,1,0,0:0:0:0:
448,192,90661,1,0,0:0:0:0:
320,192,90755,1,0,0:0:0:0:
64,192,90849,1,0,0:0:0:0:
320,192,90942,1,0,0:0:0:0:
448,192,91036,1,0,0:0:0:0:
192,192,91130,1,0,0:0:0:0:
64,192,91224,1,0,0:0:0:0:
320,192,91317,1,0,0:0:0:0:
448,192,91411,1,0,0:0:0:0:
192,192,91505,1,0,0:0:0:0:
320,192,91599,1,0,0:0:0:0:
448,192,91692,1,0,0:0:0:0:
192,192,91786,1,0,0:0:0:0:
64,192,91880,1,0,0:0:0:0:
320,192,91974,1,0,0:0:0:0:
448,192,92067,1,0,0:0:0:0:
192,192,92161,1,0,0:0:0:0:
64,192,92255,1,0,0:0:0:0:
320,192,92349,1,0,0:0:0:0:
192,192,92442,1,0,0:0:0:0:
448,192,92536,1,0,0:0:0:0:
64,192,92630,1,0,0:0:0:0:
320,192,92724,1,0,0:0:0:0:
192,192,92911,1,0,0:0:0:0:
448,192,93099,1,0,0:0:0:0:
320,192,93192,1,0,0:0:0:0:
192,192,93286,1,0,0:0:0:0:
64,192,93380,1,0,0:0:0:0:
448,192,93474,1,0,0:0:0:0:
320,192,93567,1,0,0:0:0:0:
192,192,93661,1,0,0:0:0:0:
64,192,93755,1,0,0:0:0:0:
320,192,93849,1,0,0:0:0:0:
192,192,93942,1,0,0:0:0:0:
64,192,94036,1,0,0:0:0:0:
192,192,94130,1,0,0:0:0:0:
448,192,94224,1,0,0:0:0:0:
320,192,94317,1,0,0:0:0:0:
64,192,94411,1,0,0:0:0:0:
192,192,94505,1,0,0:0:0:0:
448,192,94599,1,0,0:0:0:0:
192,192,94692,1,0,0:0:0:0:
320,192,94786,1,0,0:0:0:0:
64,192,94880,1,0,0:0:0:0:
448,192,94974,1,0,0:0:0:0:
192,192,95067,1,0,0:0:0:0:
320,192,95161,1,0,0:0:0:0:
64,192,95255,1,0,0:0:0:0:
192,192,95349,1,4,0:0:0:0:
448,192,95349,1,0,0:0:0:0:
192,192,95536,1,4,0:0:0:0:
448,192,95536,1,0,0:0:0:0:
64,192,95724,1,4,0:0:0:0:
320,192,95724,1,0,0:0:0:0:
192,192,95911,1,4,0:0:0:0:
320,192,95911,1,0,0:0:0:0:
448,192,96005,1,0,0:0:0:0:
320,192,96099,1,0,0:0:0:0:
192,192,96099,1,4,0:0:0:0:
64,192,96192,1,0,0:0:0:0:
448,192,96286,1,0,0:0:0:0:
192,192,96380,1,0,0:0:0:0:
320,192,96474,1,0,0:0:0:0:
64,192,96567,1,0,0:0:0:0:
448,192,96661,1,0,0:0:0:0:
192,192,96755,1,0,0:0:0:0:
448,192,96849,1,0,0:0:0:0:
320,192,96942,1,0,0:0:0:0:
64,192,97036,1,0,0:0:0:0:
192,192,97130,1,0,0:0:0:0:
448,192,97224,1,0,0:0:0:0:
320,192,97317,1,0,0:0:0:0:
64,192,97411,1,0,0:0:0:0:
192,192,97505,1,0,0:0:0:0:
448,192,97599,1,0,0:0:0:0:
192,192,97692,1,0,0:0:0:0:
320,192,97786,1,0,0:0:0:0:
64,192,97880,1,0,0:0:0:0:
448,192,97974,1,0,0:0:0:0:
192,192,98067,1,0,0:0:0:0:
320,192,98161,1,0,0:0:0:0:
64,192,98255,1,0,0:0:0:0:
192,192,98349,1,0,0:0:0:0:
448,192,98442,1,0,0:0:0:0:
64,192,98536,1,0,0:0:0:0:
320,192,98630,1,0,0:0:0:0:
448,192,98724,1,0,0:0:0:0:
192,192,98911,1,0,0:0:0:0:
448,192,99099,1,0,0:0:0:0:
320,192,99192,1,0,0:0:0:0:
192,192,99286,1,0,0:0:0:0:
320,192,99380,1,0,0:0:0:0:
64,192,99474,1,0,0:0:0:0:
192,192,99567,1,0,0:0:0:0:
320,192,99661,1,0,0:0:0:0:
448,192,99755,1,0,0:0:0:0:
320,192,99849,1,0,0:0:0:0:
192,192,99942,1,0,0:0:0:0:
320,192,100036,1,0,0:0:0:0:
64,192,100130,1,0,0:0:0:0:
448,192,100224,1,0,0:0:0:0:
320,192,100317,1,0,0:0:0:0:
192,192,100411,1,0,0:0:0:0:
448,192,100505,1,0,0:0:0:0:
64,192,100599,1,0,0:0:0:0:
320,192,100692,1,0,0:0:0:0:
192,192,100786,1,0,0:0:0:0:
448,192,100880,1,0,0:0:0:0:
320,192,100974,1,0,0:0:0:0:
192,192,101067,1,0,0:0:0:0:
64,192,101161,1,0,0:0:0:0:
448,192,101255,1,0,0:0:0:0:
192,192,101349,1,0,0:0:0:0:
320,192,101442,1,0,0:0:0:0:
448,192,101536,1,0,0:0:0:0:
320,192,101630,1,0,0:0:0:0:
192,192,101724,1,0,0:0:0:0:
64,192,101817,1,0,0:0:0:0:
192,192,101911,1,0,0:0:0:0:
320,192,102005,1,0,0:0:0:0:
448,192,102099,1,4,0:0:0:0:
64,192,102099,1,0,0:0:0:0:
192,192,102192,1,0,0:0:0:0:
448,192,102286,1,0,0:0:0:0:
320,192,102380,1,0,0:0:0:0:
64,192,102474,1,0,0:0:0:0:
192,192,102567,1,0,0:0:0:0:
320,192,102661,1,0,0:0:0:0:
448,192,102755,1,0,0:0:0:0:
320,192,102849,1,0,0:0:0:0:
192,192,102849,1,4,0:0:0:0:
