osu file format v14

[General]
AudioFilename: audio.mp3
AudioLeadIn: 0
PreviewTime: 66030
Countdown: 0
SampleSet: Normal
StackLeniency: 0.7
Mode: 1
LetterboxInBreaks: 0
WidescreenStoryboard: 0

[Editor]
Bookmarks: 0,12000,18000,30000,42000,54000,66000,78000,90000,102750
DistanceSpacing: 1
BeatDivisor: 4
GridSize: 32
TimelineZoom: 1.8

[Metadata]
Title:Nemesis
TitleUnicode:Nemesis
Artist:M2U
ArtistUnicode:M2U
Creator:Greenshell
Version:Muzukashii
Source:PUMP IT UP - 2015 PRIME -
Tags:PIU ANDAMIRO -Leafeon
BeatmapID:1765090
BeatmapSetID:823347

[Difficulty]
HPDrainRate:6
CircleSize:3
OverallDifficulty:5
ApproachRate:10
SliderMultiplier:1.4
SliderTickRate:1

[Events]
//Background and Video events
0,0,"ih1ttta.png",0,30
//Break Periods
//Storyboard Layer 0 (Background)
//Storyboard Layer 1 (Fail)
//Storyboard Layer 2 (Pass)
//Storyboard Layer 3 (Foreground)
//Storyboard Sound Samples

[TimingPoints]
88,375,4,1,0,60,1,0
88,-105.263157894737,4,1,0,60,0,0
5338,-104.712041884817,4,1,0,60,0,0
5431,-104.166666666667,4,1,0,62,0,0
5525,-103.626943005181,4,1,0,63,0,0
5713,-102.564102564103,4,1,0,67,0,0
6088,-100,4,1,0,70,0,0
15463,-98.0392156862745,4,1,0,70,0,0
15650,-97.0873786407767,4,1,0,70,0,0
15744,-96.6183574879227,4,1,0,70,0,0
15838,-96.1538461538461,4,1,0,70,0,0
16025,-95.2380952380951,4,1,0,70,0,0
16119,-94.7867298578199,4,1,0,70,0,0
16213,-94.3396226415094,4,1,0,70,0,0
16400,-93.4579439252336,4,1,0,70,0,0
16588,-92.5925925925926,4,1,0,70,0,0
18088,-100,4,1,0,60,0,0
28588,-100,4,1,0,60,0,0
28775,-98.7654320987654,4,1,0,62,0,0
28869,-98.159509202454,4,1,0,64,0,0
28963,-97.5609756097561,4,1,0,65,0,0
29338,-95.2380952380952,4,1,0,70,0,0
29525,-94.1176470588235,4,1,0,72,0,0
29619,-93.5672514619883,4,1,0,74,0,0
29713,-93.0232558139535,4,1,0,75,0,0
30088,-90.9090909090909,4,1,0,80,0,1
35338,-90.9090909090909,4,1,0,80,0,1
35525,-89.8876404494382,4,1,0,80,0,1
35713,-88.8888888888889,4,1,0,80,0,1
36088,-86.9565217391303,4,1,0,80,0,1
36463,-90.9090909090909,4,1,0,80,0,1
41338,-90.9090909090909,4,1,0,80,0,1
41525,-89.8876404494382,4,1,0,80,0,1
41900,-87.9120879120879,4,1,0,80,0,1
42088,-86.9565217391303,4,1,0,80,0,0
42838,-111.111111111111,4,1,0,60,0,0
48088,-105.263157894737,4,1,0,60,0,0
54088,-90.9090909090909,4,1,0,80,0,0
55588,-100,4,1,0,70,0,0
56525,-97.5609756097561,4,1,0,70,0,0
56713,-95.2380952380952,4,1,0,70,0,0
56900,-93.0232558139535,4,1,0,70,0,0
57088,-90.9090909090909,4,1,0,70,0,0
58588,-100,4,1,0,70,0,0
59338,-97.5609756097561,4,1,0,70,0,0
59713,-95.2380952380952,4,1,0,70,0,0
60088,-90.9090909090909,4,1,0,70,0,0
61588,-100,4,1,0,70,0,0
62525,-97.5609756097561,4,1,0,70,0,0
62713,-95.2380952380952,4,1,0,70,0,0
62900,-93.0232558139535,4,1,0,70,0,0
63088,-90.9090909090909,4,1,0,70,0,0
64588,-100,4,1,0,70,0,0
65338,-97.5609756097561,4,1,0,70,0,0
65713,-95.2380952380952,4,1,0,70,0,0
66088,-90.9090909090909,4,1,0,80,0,1
70963,-90.9090909090909,4,1,0,80,0,1
71150,-89.8876404494382,4,1,0,80,0,1
71338,-88.8888888888889,4,1,0,80,0,1
71713,-86.9565217391303,4,1,0,80,0,1
72088,-90.9090909090909,4,1,0,80,0,1
77150,-89.8876404494382,4,1,0,80,0,1
77338,-88.8888888888889,4,1,0,80,0,1
77713,-86.9565217391303,4,1,0,80,0,1
78088,-100,4,1,0,60,0,0
88588,-100,4,1,0,60,0,0
88775,-98.7654320987654,4,1,0,62,0,0
88869,-98.159509202454,4,1,0,64,0,0
88963,-97.5609756097561,4,1,0,65,0,0
89338,-95.2380952380952,4,1,0,70,0,0
89525,-94.1176470588235,4,1,0,72,0,0
89619,-93.5672514619883,4,1,0,74,0,0
89713,-93.0232558139535,4,1,0,75,0,0
90088,-90.9090909090909,4,1,0,80,0,1
95338,-90.9090909090909,4,1,0,80,0,1
95525,-89.8876404494382,4,1,0,80,0,1
95713,-88.8888888888889,4,1,0,80,0,1
96088,-86.9565217391303,4,1,0,80,0,1
96463,-90.9090909090909,4,1,0,80,0,1
101338,-90.9090909090909,4,1,0,80,0,1
101525,-89.8876404494382,4,1,0,80,0,1
101900,-87.9120879120879,4,1,0,80,0,1
102088,-86.9565217391303,4,1,0,80,0,1
102275,-85.1063829787234,4,1,0,80,0,1
102463,-83.3333333333333,4,1,0,80,0,1
102556,-82.4742268041237,4,1,0,80,0,1
102650,-81.6326530612245,4,1,0,80,0,1
102838,-79.9999999999999,4,1,0,80,0,0

[HitObjects]
224,224,88,5,4,0:0:0:0:
288,160,463,1,8,0:0:0:0:
224,160,838,1,0,0:0:0:0:
288,160,1025,1,8,0:0:0:0:
224,160,1588,1,0,0:0:0:0:
288,160,1775,1,8,0:0:0:0:
224,160,2150,1,0,0:0:0:0:
288,160,2338,1,8,0:0:0:0:
288,160,2525,1,8,0:0:0:0:
288,160,2713,1,8,0:0:0:0:
224,160,3088,1,0,0:0:0:0:
288,160,3463,1,8,0:0:0:0:
224,160,3838,1,0,0:0:0:0:
288,160,4025,1,8,0:0:0:0:
224,160,4588,1,0,0:0:0:0:
288,160,4963,1,8,0:0:0:0:
288,160,5150,1,8,0:0:0:0:
224,160,5338,1,0,0:0:0:0:
224,160,5431,1,0,0:0:0:0:
288,160,5525,1,8,0:0:0:0:
224,160,5713,1,0,0:0:0:0:
224,224,6088,1,4,0:0:0:0:
288,160,6463,1,8,0:0:0:0:
224,160,6650,1,0,0:0:0:0:
224,160,6838,1,0,0:0:0:0:
288,160,7025,1,8,0:0:0:0:
288,160,7400,1,8,0:0:0:0:
224,160,7588,1,0,0:0:0:0:
288,160,7775,1,8,0:0:0:0:
224,160,8150,1,0,0:0:0:0:
288,160,8338,1,8,0:0:0:0:
288,160,8525,1,8,0:0:0:0:
288,160,8713,1,8,0:0:0:0:
224,160,8900,1,0,0:0:0:0:
224,160,9088,1,0,0:0:0:0:
288,160,9463,1,8,0:0:0:0:
224,160,9650,1,0,0:0:0:0:
288,160,9838,1,8,0:0:0:0:
288,160,9931,1,8,0:0:0:0:
288,160,10025,1,8,0:0:0:0:
224,160,10588,1,0,0:0:0:0:
288,160,10963,1,8,0:0:0:0:
288,160,11150,1,8,0:0:0:0:
224,160,11338,1,0,0:0:0:0:
224,160,11431,1,0,0:0:0:0:
288,160,11525,1,8,0:0:0:0:
224,160,11713,1,0,0:0:0:0:
224,224,12088,1,4,0:0:0:0:
288,160,12275,1,8,0:0:0:0:
288,160,12369,1,8,0:0:0:0:
288,160,12650,1,8,0:0:0:0:
224,160,12838,1,0,0:0:0:0:
288,160,13025,1,8,0:0:0:0:
288,160,13213,1,8,0:0:0:0:
224,160,13400,1,0,0:0:0:0:
224,160,13494,1,0,0:0:0:0:
224,160,13588,1,0,0:0:0:0:
288,160,13963,1,8,0:0:0:0:
224,160,14150,1,0,0:0:0:0:
224,160,14338,1,0,0:0:0:0:
288,160,14525,1,8,0:0:0:0:
288,160,14619,1,8,0:0:0:0:
288,160,14713,1,8,0:0:0:0:
224,160,15088,1,0,0:0:0:0:
288,160,15463,1,8,0:0:0:0:
224,160,15650,1,0,0:0:0:0:
224,160,15744,1,0,0:0:0:0:
224,160,15838,1,0,0:0:0:0:
288,160,16025,1,8,0:0:0:0:
288,160,16119,1,8,0:0:0:0:
288,160,16213,1,8,0:0:0:0:
224,160,16400,1,0,0:0:0:0:
288,224,16588,1,12,0:0:0:0:
224,224,17338,1,4,0:0:0:0:
288,224,18088,1,12,0:0:0:0:
288,160,18463,1,8,0:0:0:0:
224,160,18650,1,0,0:0:0:0:
288,160,18838,1,8,0:0:0:0:
288,160,19025,1,8,0:0:0:0:
224,160,19213,1,0,0:0:0:0:
224,160,19588,1,0,0:0:0:0:
288,160,19963,1,8,0:0:0:0:
288,160,20150,1,8,0:0:0:0:
224,160,20338,1,0,0:0:0:0:
288,160,20525,1,8,0:0:0:0:
224,160,20713,1,0,0:0:0:0:
224,160,21088,1,0,0:0:0:0:
288,160,21275,1,8,0:0:0:0:
288,160,21369,1,8,0:0:0:0:
288,160,21463,1,8,0:0:0:0:
224,160,21650,1,0,0:0:0:0:
288,160,21838,1,8,0:0:0:0:
224,160,22213,1,0,0:0:0:0:
224,160,22588,1,0,0:0:0:0:
288,160,22963,1,8,0:0:0:0:
224,160,23150,1,0,0:0:0:0:
224,160,23338,1,0,0:0:0:0:
288,160,23525,1,8,0:0:0:0:
288,160,23619,1,8,0:0:0:0:
288,160,23713,1,8,0:0:0:0:
224,160,24088,1,0,0:0:0:0:
288,160,24275,1,8,0:0:0:0:
288,160,24369,1,8,0:0:0:0:
288,160,24463,1,8,0:0:0:0:
224,160,24650,1,0,0:0:0:0:
288,160,24838,1,8,0:0:0:0:
288,160,25400,1,8,0:0:0:0:
224,160,25588,1,0,0:0:0:0:
288,160,25963,1,8,0:0:0:0:
224,160,26150,1,0,0:0:0:0:
288,160,26338,1,8,0:0:0:0:
224,160,26525,1,0,0:0:0:0:
224,160,26619,1,0,0:0:0:0:
224,160,26713,1,0,0:0:0:0:
224,160,27088,1,0,0:0:0:0:
288,160,27275,1,8,0:0:0:0:
288,160,27369,1,8,0:0:0:0:
288,160,27463,1,8,0:0:0:0:
224,160,27650,1,0,0:0:0:0:
288,160,27838,1,8,0:0:0:0:
224,160,28400,1,0,0:0:0:0:
288,160,28588,1,8,0:0:0:0:
224,160,28775,1,0,0:0:0:0:
224,160,28869,1,0,0:0:0:0:
288,160,28963,1,8,0:0:0:0:
224,160,29338,1,0,0:0:0:0:
288,160,29525,1,8,0:0:0:0:
288,160,29619,1,8,0:0:0:0:
224,160,29713,1,0,0:0:0:0:
224,224,30088,1,4,0:0:0:0:
288,160,30463,1,8,0:0:0:0:
224,160,30838,1,0,0:0:0:0:
224,160,31025,1,0,0:0:0:0:
288,160,31213,1,8,0:0:0:0:
224,160,31400,1,0,0:0:0:0:
224,160,31494,1,0,0:0:0:0:
224,160,31775,1,0,0:0:0:0:
288,160,31963,1,8,0:0:0:0:
288,160,32338,1,8,0:0:0:0:
224,160,32525,1,0,0:0:0:0:
224,160,32619,1,0,0:0:0:0:
224,160,32713,1,0,0:0:0:0:
288,160,32900,1,8,0:0:0:0:
224,160,33088,1,0,0:0:0:0:
288,160,33275,1,8,0:0:0:0:
288,160,33369,1,8,0:0:0:0:
224,160,33650,1,0,0:0:0:0:
288,160,33838,1,8,0:0:0:0:
224,160,34213,1,0,0:0:0:0:
224,160,34400,1,0,0:0:0:0:
224,160,34494,1,0,0:0:0:0:
224,160,34775,1,0,0:0:0:0:
288,160,34963,1,8,0:0:0:0:
288,224,35338,1,12,0:0:0:0:
224,160,35525,1,0,0:0:0:0:
288,224,35713,1,12,0:0:0:0:
224,224,36088,1,4,0:0:0:0:
288,160,36463,1,8,0:0:0:0:
224,160,36838,1,0,0:0:0:0:
224,160,37025,1,0,0:0:0:0:
288,160,37213,1,8,0:0:0:0:
224,160,37400,1,0,0:0:0:0:
224,160,37494,1,0,0:0:0:0:
224,160,37775,1,0,0:0:0:0:
288,160,37963,1,8,0:0:0:0:
288,160,38150,1,8,0:0:0:0:
288,160,38244,1,8,0:0:0:0:
288,160,38338,1,8,0:0:0:0:
288,160,38713,1,8,0:0:0:0:
288,160,38900,1,8,0:0:0:0:
224,160,39088,1,0,0:0:0:0:
288,160,39275,1,8,0:0:0:0:
288,160,39369,1,8,0:0:0:0:
224,160,39556,1,0,0:0:0:0:
224,160,39650,1,0,0:0:0:0:
288,160,39838,1,8,0:0:0:0:
288,160,40213,1,8,0:0:0:0:
224,160,40400,1,0,0:0:0:0:
224,160,40494,1,0,0:0:0:0:
224,160,40775,1,0,0:0:0:0:
288,160,40963,1,8,0:0:0:0:
224,160,41150,1,0,0:0:0:0:
224,160,41338,1,0,0:0:0:0:
288,224,41525,1,12,0:0:0:0:
288,160,41900,1,8,0:0:0:0:
224,224,42088,1,4,0:0:0:0:
288,160,42838,1,8,0:0:0:0:
224,160,43588,1,0,0:0:0:0:
288,160,44338,1,8,0:0:0:0:
224,160,45088,1,0,0:0:0:0:
288,160,45838,1,8,0:0:0:0:
224,160,46588,1,0,0:0:0:0:
288,160,47338,1,8,0:0:0:0:
224,224,48088,1,4,0:0:0:0:
224,160,48463,1,0,0:0:0:0:
288,160,48838,1,8,0:0:0:0:
224,160,49588,1,0,0:0:0:0:
224,160,49963,1,0,0:0:0:0:
288,160,50338,1,8,0:0:0:0:
224,160,51088,1,0,0:0:0:0:
224,160,51463,1,0,0:0:0:0:
288,160,51838,1,8,0:0:0:0:
224,160,52588,1,0,0:0:0:0:
224,160,52963,1,0,0:0:0:0:
288,160,53338,1,8,0:0:0:0:
224,224,54088,1,4,0:0:0:0:
288,160,54463,1,8,0:0:0:0:
224,224,54650,1,4,0:0:0:0:
224,160,55025,1,0,0:0:0:0:
288,224,55213,1,12,0:0:0:0:
288,160,55963,1,8,0:0:0:0:
288,160,56338,1,8,0:0:0:0:
288,160,56525,1,8,0:0:0:0:
224,224,56713,1,4,0:0:0:0:
224,160,56900,1,0,0:0:0:0:
224,224,57088,1,4,0:0:0:0:
224,160,57369,1,0,0:0:0:0:
288,224,57650,1,12,0:0:0:0:
224,160,58025,1,0,0:0:0:0:
288,224,58213,1,12,0:0:0:0:
224,224,58775,1,4,0:0:0:0:
288,160,59150,1,8,0:0:0:0:
224,224,59338,1,4,0:0:0:0:
224,224,59713,1,4,0:0:0:0:
224,224,60088,1,4,0:0:0:0:
288,160,60463,1,8,0:0:0:0:
224,224,60650,1,4,0:0:0:0:
224,160,61025,1,0,0:0:0:0:
288,224,61213,1,12,0:0:0:0:
288,160,61963,1,8,0:0:0:0:
288,160,62338,1,8,0:0:0:0:
288,160,62525,1,8,0:0:0:0:
224,224,62713,1,4,0:0:0:0:
224,160,62900,1,0,0:0:0:0:
224,224,63088,1,4,0:0:0:0:
224,160,63369,1,0,0:0:0:0:
288,224,63650,1,12,0:0:0:0:
224,160,64025,1,0,0:0:0:0:
288,224,64213,1,12,0:0:0:0:
288,224,64775,1,12,0:0:0:0:
224,160,65150,1,0,0:0:0:0:
288,224,65338,1,12,0:0:0:0:
288,224,65713,1,12,0:0:0:0:
224,224,66088,1,4,0:0:0:0:
224,160,66275,1,0,0:0:0:0:
288,160,66463,1,8,0:0:0:0:
224,224,66650,1,4,0:0:0:0:
224,160,67025,1,0,0:0:0:0:
288,224,67213,1,12,0:0:0:0:
288,160,67775,1,8,0:0:0:0:
288,160,68338,1,8,0:0:0:0:
288,160,68525,1,8,0:0:0:0:
224,224,68713,1,4,0:0:0:0:
224,160,68900,1,0,0:0:0:0:
224,224,69088,1,4,0:0:0:0:
224,160,69369,1,0,0:0:0:0:
288,224,69650,1,12,0:0:0:0:
224,160,70025,1,0,0:0:0:0:
288,224,70213,1,12,0:0:0:0:
224,160,70588,1,0,0:0:0:0:
288,224,70775,1,12,0:0:0:0:
288,160,71150,1,8,0:0:0:0:
224,224,71338,1,4,0:0:0:0:
224,224,71713,1,4,0:0:0:0:
224,224,72088,1,4,0:0:0:0:
224,160,72275,1,0,0:0:0:0:
288,160,72463,1,8,0:0:0:0:
224,224,72650,1,4,0:0:0:0:
224,160,73025,1,0,0:0:0:0:
288,224,73213,1,12,0:0:0:0:
288,160,73963,1,8,0:0:0:0:
288,160,74338,1,8,0:0:0:0:
288,160,74525,1,8,0:0:0:0:
224,224,74713,1,4,0:0:0:0:
224,160,74900,1,0,0:0:0:0:
224,224,75088,1,4,0:0:0:0:
224,160,75369,1,0,0:0:0:0:
288,224,75650,1,12,0:0:0:0:
224,160,76025,1,0,0:0:0:0:
288,224,76213,1,12,0:0:0:0:
224,160,76588,1,0,0:0:0:0:
288,224,76775,1,12,0:0:0:0:
288,160,77150,1,8,0:0:0:0:
224,224,77338,1,4,0:0:0:0:
224,224,77713,5,4,0:0:0:0:
288,224,78088,5,12,0:0:0:0:
288,160,78463,1,8,0:0:0:0:
224,160,78650,1,0,0:0:0:0:
288,160,78838,1,8,0:0:0:0:
288,160,79025,1,8,0:0:0:0:
224,160,79213,1,0,0:0:0:0:
224,160,79588,1,0,0:0:0:0:
288,160,79963,1,8,0:0:0:0:
288,160,80150,1,8,0:0:0:0:
224,160,80338,1,0,0:0:0:0:
288,160,80525,1,8,0:0:0:0:
224,160,80713,1,0,0:0:0:0:
224,160,81088,1,0,0:0:0:0:
288,160,81275,1,8,0:0:0:0:
288,160,81369,1,8,0:0:0:0:
288,160,81463,1,8,0:0:0:0:
224,160,81650,1,0,0:0:0:0:
288,160,81838,1,8,0:0:0:0:
224,160,82213,1,0,0:0:0:0:
224,160,82588,1,0,0:0:0:0:
288,160,82963,1,8,0:0:0:0:
224,160,83150,1,0,0:0:0:0:
224,160,83338,1,0,0:0:0:0:
288,160,83525,1,8,0:0:0:0:
288,160,83619,1,8,0:0:0:0:
288,160,83713,1,8,0:0:0:0:
224,224,84088,1,4,0:0:0:0:
288,160,84275,1,8,0:0:0:0:
288,160,84369,1,8,0:0:0:0:
288,160,84463,1,8,0:0:0:0:
224,160,84650,1,0,0:0:0:0:
288,160,84838,1,8,0:0:0:0:
288,160,85400,1,8,0:0:0:0:
224,160,85588,1,0,0:0:0:0:
288,160,85963,1,8,0:0:0:0:
224,160,86150,1,0,0:0:0:0:
288,160,86338,1,8,0:0:0:0:
224,160,86525,1,0,0:0:0:0:
224,160,86619,1,0,0:0:0:0:
224,160,86713,1,0,0:0:0:0:
224,160,87088,1,0,0:0:0:0:
288,160,87275,1,8,0:0:0:0:
288,160,87369,1,8,0:0:0:0:
288,160,87463,1,8,0:0:0:0:
224,160,87650,1,0,0:0:0:0:
288,160,87838,1,8,0:0:0:0:
224,160,88400,1,0,0:0:0:0:
288,160,88588,1,8,0:0:0:0:
224,160,88775,1,0,0:0:0:0:
224,160,88869,1,0,0:0:0:0:
288,160,88963,1,8,0:0:0:0:
224,160,89338,1,0,0:0:0:0:
288,160,89525,1,8,0:0:0:0:
288,160,89619,1,8,0:0:0:0:
224,160,89713,5,0,0:0:0:0:
224,224,90088,1,4,0:0:0:0:
288,160,90463,1,8,0:0:0:0:
224,160,90744,1,0,0:0:0:0:
224,160,90837,1,0,0:0:0:0:
224,160,91025,1,0,0:0:0:0:
288,160,91213,1,8,0:0:0:0:
224,160,91400,1,0,0:0:0:0:
224,160,91494,1,0,0:0:0:0:
224,160,91775,1,0,0:0:0:0:
288,160,91963,1,8,0:0:0:0:
288,160,92338,1,8,0:0:0:0:
224,160,92525,1,0,0:0:0:0:
224,160,92619,1,0,0:0:0:0:
224,160,92713,1,0,0:0:0:0:
288,160,92900,1,8,0:0:0:0:
224,160,93088,1,0,0:0:0:0:
288,160,93275,1,8,0:0:0:0:
288,160,93369,1,8,0:0:0:0:
224,160,93650,1,0,0:0:0:0:
288,160,93838,1,8,0:0:0:0:
288,160,94213,1,8,0:0:0:0:
224,160,94400,1,0,0:0:0:0:
224,160,94494,1,0,0:0:0:0:
224,160,94775,1,0,0:0:0:0:
288,160,94963,1,8,0:0:0:0:
288,224,95338,1,12,0:0:0:0:
224,160,95525,1,0,0:0:0:0:
288,224,95713,1,12,0:0:0:0:
224,224,96088,1,4,0:0:0:0:
288,160,96463,1,8,0:0:0:0:
224,160,96744,1,0,0:0:0:0:
224,160,96838,1,0,0:0:0:0:
224,160,97025,1,0,0:0:0:0:
288,160,97213,1,8,0:0:0:0:
224,160,97400,1,0,0:0:0:0:
224,160,97494,1,0,0:0:0:0:
224,160,97775,1,0,0:0:0:0:
288,160,97963,1,8,0:0:0:0:
288,160,98150,1,8,0:0:0:0:
288,160,98244,1,8,0:0:0:0:
288,160,98338,1,8,0:0:0:0:
288,160,98713,1,8,0:0:0:0:
288,160,98900,1,8,0:0:0:0:
224,160,99088,1,0,0:0:0:0:
288,160,99275,1,8,0:0:0:0:
288,160,99369,1,8,0:0:0:0:
224,160,99556,1,0,0:0:0:0:
224,160,99650,1,0,0:0:0:0:
288,160,99838,1,8,0:0:0:0:
288,160,100213,1,8,0:0:0:0:
224,160,100400,1,0,0:0:0:0:
224,160,100494,1,0,0:0:0:0:
224,160,100775,1,0,0:0:0:0:
288,160,100963,1,8,0:0:0:0:
224,160,101150,1,0,0:0:0:0:
224,160,101338,1,0,0:0:0:0:
288,224,101525,1,12,0:0:0:0:
288,160,101900,1,8,0:0:0:0:
224,224,102088,1,4,0:0:0:0:
224,160,102275,1,0,0:0:0:0:
288,160,102463,1,8,0:0:0:0:
288,160,102556,1,8,0:0:0:0:
224,160,102650,1,0,0:0:0:0:
288,224,102838,1,12,0:0:0:0:
