osu file format v14

[General]
AudioFilename: audio.mp3
AudioLeadIn: 0
PreviewTime: 66030
Countdown: 0
SampleSet: Normal
StackLeniency: 0.7
Mode: 1
LetterboxInBreaks: 0
WidescreenStoryboard: 1

[Editor]
Bookmarks: 0,12000,18000,30000,42000,54000,66000,78000,90000,102750
DistanceSpacing: 1
BeatDivisor: 4
GridSize: 32
TimelineZoom: 1.8

[Metadata]
Title:Nemesis
TitleUnicode:Nemesis
Artist:M2U
ArtistUnicode:M2U
Creator:Greenshell
Version:Leaf's Futsuu
Source:PUMP IT UP - 2015 PRIME -
Tags:PIU ANDAMIRO -Leafeon
BeatmapID:1793658
BeatmapSetID:823347

[Difficulty]
HPDrainRate:7
CircleSize:3
OverallDifficulty:4
ApproachRate:10
SliderMultiplier:1.4
SliderTickRate:1

[Events]
//Background and Video events
0,0,"ih1ttta.png",0,30
//Break Periods
//Storyboard Layer 0 (Background)
//Storyboard Layer 1 (Fail)
//Storyboard Layer 2 (Pass)
//Storyboard Layer 3 (Foreground)
//Storyboard Sound Samples

[TimingPoints]
88,375,4,1,0,60,1,0
6088,-100,4,1,0,70,0,0
18088,-100,4,1,0,60,0,0
30088,-100,4,1,0,80,0,1
42088,-100,4,1,0,80,0,0
66088,-100,4,1,0,80,0,1
78088,-100,4,1,0,60,0,0
90088,-100,4,1,0,80,0,1
102838,-100,4,1,0,80,0,0

[HitObjects]
253,188,88,5,4,0:0:0:0:
253,188,463,1,0,0:0:0:0:
253,188,650,1,0,0:0:0:0:
253,188,838,1,8,0:0:0:0:
253,188,1588,1,0,0:0:0:0:
253,188,1963,1,8,0:0:0:0:
253,188,2150,1,8,0:0:0:0:
253,188,2338,1,0,0:0:0:0:
253,188,2713,1,0,0:0:0:0:
253,188,3088,1,0,0:0:0:0:
253,188,3463,1,0,0:0:0:0:
253,188,3650,1,0,0:0:0:0:
253,188,3838,1,8,0:0:0:0:
253,188,4588,1,8,0:0:0:0:
253,188,4963,1,8,0:0:0:0:
253,188,5338,1,8,0:0:0:0:
253,188,5525,1,0,0:0:0:0:
253,188,5713,1,8,0:0:0:0:
253,188,6088,1,4,0:0:0:0:
253,188,6838,1,8,0:0:0:0:
251,194,7588,1,0,0:0:0:0:
251,194,8338,1,0,0:0:0:0:
251,194,8525,1,8,0:0:0:0:
251,194,8713,1,0,0:0:0:0:
251,194,9088,1,0,0:0:0:0:
251,194,9838,1,8,0:0:0:0:
251,194,10588,1,0,0:0:0:0:
251,194,10963,1,0,0:0:0:0:
251,194,11338,1,0,0:0:0:0:
251,194,11525,1,8,0:0:0:0:
251,194,11713,1,0,0:0:0:0:
256,190,12088,1,4,0:0:0:0:
251,194,12369,1,8,0:0:0:0:
257,192,12650,1,0,0:0:0:0:
257,196,12838,1,8,0:0:0:0:
264,195,13213,1,0,0:0:0:0:
267,193,13588,1,8,0:0:0:0:
265,192,13775,1,0,0:0:0:0:
264,195,13963,1,8,0:0:0:0:
254,197,14338,1,8,0:0:0:0:
254,197,14713,1,8,0:0:0:0:
254,197,15088,1,0,0:0:0:0:
254,197,15838,1,0,0:0:0:0:
254,197,16213,1,8,0:0:0:0:
254,197,16588,1,12,0:0:0:0:
252,189,17338,1,4,0:0:0:0:
251,197,18088,1,12,0:0:0:0:
244,194,18463,1,8,0:0:0:0:
251,197,18650,1,0,0:0:0:0:
251,197,18838,1,8,0:0:0:0:
251,197,19588,1,0,0:0:0:0:
256,195,19963,1,8,0:0:0:0:
251,199,20150,1,0,0:0:0:0:
251,197,20338,1,8,0:0:0:0:
251,199,21088,1,0,0:0:0:0:
248,196,21463,1,0,0:0:0:0:
256,195,21838,1,0,0:0:0:0:
251,199,22025,1,0,0:0:0:0:
248,196,22213,1,8,0:0:0:0:
256,195,22588,1,8,0:0:0:0:
256,195,22775,1,0,0:0:0:0:
258,197,22963,1,8,0:0:0:0:
256,195,23338,1,0,0:0:0:0:
256,195,24088,1,0,0:0:0:0:
256,195,24275,1,8,0:0:0:0:
256,195,24463,1,0,0:0:0:0:
256,195,24650,1,8,0:0:0:0:
256,195,24838,1,0,0:0:0:0:
256,195,25588,1,8,0:0:0:0:
256,195,25775,1,0,0:0:0:0:
256,195,25963,1,8,0:0:0:0:
256,195,26150,1,8,0:0:0:0:
256,195,26338,1,0,0:0:0:0:
253,187,27088,1,0,0:0:0:0:
253,187,27463,1,0,0:0:0:0:
253,187,27650,1,0,0:0:0:0:
247,183,27838,1,8,0:0:0:0:
253,187,28213,1,8,0:0:0:0:
253,187,28588,1,0,0:0:0:0:
253,187,28963,1,0,0:0:0:0:
253,187,29338,1,8,0:0:0:0:
253,187,29525,1,0,0:0:0:0:
253,187,29713,1,8,0:0:0:0:
253,187,30088,1,4,0:0:0:0:
253,187,30463,1,0,0:0:0:0:
253,187,30650,1,0,0:0:0:0:
253,187,30838,1,8,0:0:0:0:
253,187,31213,1,8,0:0:0:0:
258,182,31588,1,8,0:0:0:0:
253,187,31775,1,0,0:0:0:0:
258,182,31963,1,8,0:0:0:0:
261,190,32338,1,0,0:0:0:0:
254,194,33088,1,0,0:0:0:0:
253,194,33275,1,0,0:0:0:0:
258,190,33463,1,8,0:0:0:0:
254,194,33838,1,8,0:0:0:0:
253,194,34213,1,0,0:0:0:0:
254,194,34588,1,0,0:0:0:0:
254,194,35338,1,8,0:0:0:0:
254,194,35525,1,0,0:0:0:0:
253,194,35713,1,8,0:0:0:0:
253,194,35900,1,0,0:0:0:0:
254,194,36088,1,4,0:0:0:0:
254,194,36463,1,8,0:0:0:0:
253,194,36838,1,0,0:0:0:0:
254,194,37213,1,8,0:0:0:0:
253,194,37588,1,0,0:0:0:0:
254,194,37963,1,8,0:0:0:0:
260,189,38338,1,8,0:0:0:0:
253,194,38525,1,0,0:0:0:0:
243,184,38713,1,8,0:0:0:0:
254,194,38900,1,0,0:0:0:0:
247,198,39088,1,0,0:0:0:0:
254,194,39463,1,8,0:0:0:0:
254,194,39838,1,0,0:0:0:0:
253,194,40213,1,0,0:0:0:0:
254,194,40588,1,8,0:0:0:0:
253,194,40963,1,8,0:0:0:0:
253,194,41338,1,0,0:0:0:0:
246,195,41525,1,0,0:0:0:0:
253,194,41713,1,8,0:0:0:0:
253,194,42088,1,4,0:0:0:0:
253,194,42838,1,8,0:0:0:0:
253,194,43588,1,0,0:0:0:0:
253,194,44338,1,8,0:0:0:0:
253,194,45088,1,0,0:0:0:0:
253,194,45838,1,8,0:0:0:0:
253,194,46588,1,0,0:0:0:0:
253,194,47338,1,8,0:0:0:0:
259,196,48088,1,4,0:0:0:0:
259,196,48463,1,0,0:0:0:0:
259,196,48838,1,8,0:0:0:0:
252,189,49588,1,0,0:0:0:0:
252,189,49963,1,0,0:0:0:0:
252,189,50338,1,8,0:0:0:0:
252,189,51088,1,0,0:0:0:0:
252,189,51463,1,0,0:0:0:0:
252,189,51838,1,8,0:0:0:0:
252,189,52588,1,0,0:0:0:0:
252,189,52963,1,0,0:0:0:0:
252,189,53338,1,8,0:0:0:0:
252,189,54088,1,4,0:0:0:0:
252,189,54463,1,8,0:0:0:0:
252,189,54650,1,4,0:0:0:0:
252,189,55025,1,0,0:0:0:0:
252,189,55213,1,12,0:0:0:0:
252,189,55963,1,0,0:0:0:0:
252,189,56338,1,0,0:0:0:0:
244,190,56525,1,0,0:0:0:0:
252,189,56713,1,4,0:0:0:0:
252,189,57088,1,4,0:0:0:0:
252,189,57650,1,12,0:0:0:0:
252,189,58213,1,12,0:0:0:0:
252,189,58775,1,4,0:0:0:0:
252,189,59338,1,12,0:0:0:0:
252,189,59713,1,12,0:0:0:0:
252,189,60088,1,4,0:0:0:0:
252,189,60650,1,4,0:0:0:0:
252,189,61213,1,12,0:0:0:0:
252,189,61963,1,8,0:0:0:0:
252,189,62338,1,8,0:0:0:0:
252,189,62713,1,12,0:0:0:0:
252,189,63088,1,12,0:0:0:0:
252,189,63650,1,4,0:0:0:0:
252,189,64213,1,12,0:0:0:0:
252,189,64775,1,12,0:0:0:0:
252,189,65338,1,4,0:0:0:0:
252,189,65713,1,4,0:0:0:0:
253,187,66088,1,4,0:0:0:0:
252,189,66275,1,8,0:0:0:0:
253,187,66463,1,0,0:0:0:0:
253,187,66650,1,4,0:0:0:0:
253,187,66838,1,8,0:0:0:0:
253,187,67213,1,12,0:0:0:0:
253,187,67775,1,8,0:0:0:0:
261,190,68338,1,0,0:0:0:0:
253,187,68525,1,0,0:0:0:0:
258,190,68713,1,12,0:0:0:0:
254,194,69088,1,4,0:0:0:0:
261,190,69369,1,8,0:0:0:0:
258,190,69650,1,12,0:0:0:0:
261,190,70213,1,12,0:0:0:0:
261,190,70775,1,4,0:0:0:0:
254,194,71338,1,12,0:0:0:0:
253,194,71713,1,12,0:0:0:0:
254,194,72088,1,4,0:0:0:0:
253,194,72463,1,8,0:0:0:0:
253,194,72650,1,4,0:0:0:0:
253,194,72838,1,0,0:0:0:0:
254,194,73025,1,8,0:0:0:0:
254,194,73213,1,4,0:0:0:0:
254,194,73963,1,8,0:0:0:0:
260,189,74338,1,8,0:0:0:0:
253,194,74525,1,0,0:0:0:0:
243,184,74713,1,12,0:0:0:0:
254,194,75088,1,4,0:0:0:0:
247,198,75369,1,8,0:0:0:0:
253,194,75650,1,4,0:0:0:0:
253,194,76213,1,4,0:0:0:0:
253,194,76775,1,12,0:0:0:0:
253,194,77338,1,4,0:0:0:0:
253,194,77713,1,4,0:0:0:0:
251,197,78088,1,12,0:0:0:0:
244,194,78463,1,8,0:0:0:0:
251,197,78650,1,0,0:0:0:0:
251,197,78838,1,8,0:0:0:0:
251,197,79588,1,0,0:0:0:0:
256,195,79963,1,8,0:0:0:0:
251,199,80150,1,0,0:0:0:0:
251,197,80338,1,8,0:0:0:0:
251,199,81088,1,0,0:0:0:0:
248,196,81463,1,0,0:0:0:0:
256,195,81838,1,0,0:0:0:0:
251,199,82025,1,0,0:0:0:0:
248,196,82213,1,8,0:0:0:0:
256,195,82588,1,8,0:0:0:0:
256,195,82775,1,0,0:0:0:0:
258,197,82963,1,8,0:0:0:0:
256,195,83338,1,0,0:0:0:0:
256,195,84088,1,4,0:0:0:0:
256,195,84275,1,8,0:0:0:0:
256,195,84463,1,0,0:0:0:0:
256,195,84650,1,8,0:0:0:0:
256,195,84838,1,0,0:0:0:0:
256,195,85588,1,8,0:0:0:0:
256,195,85775,1,0,0:0:0:0:
256,195,85963,1,8,0:0:0:0:
256,195,86150,1,8,0:0:0:0:
256,195,86338,1,0,0:0:0:0:
253,187,87088,1,0,0:0:0:0:
253,187,87463,1,0,0:0:0:0:
253,187,87650,1,0,0:0:0:0:
247,183,87838,1,8,0:0:0:0:
253,187,88213,1,8,0:0:0:0:
253,187,88588,1,0,0:0:0:0:
253,187,88963,1,0,0:0:0:0:
253,187,89338,1,8,0:0:0:0:
253,187,89525,1,0,0:0:0:0:
253,187,89713,1,8,0:0:0:0:
253,187,90088,1,4,0:0:0:0:
253,187,90463,1,0,0:0:0:0:
253,187,90650,1,0,0:0:0:0:
253,187,90838,1,8,0:0:0:0:
253,187,91213,1,8,0:0:0:0:
258,182,91588,1,8,0:0:0:0:
253,187,91775,1,0,0:0:0:0:
258,182,91963,1,8,0:0:0:0:
261,190,92338,1,0,0:0:0:0:
254,194,93088,1,0,0:0:0:0:
253,194,93275,1,0,0:0:0:0:
258,190,93463,1,8,0:0:0:0:
254,194,93838,1,8,0:0:0:0:
253,194,94213,1,0,0:0:0:0:
254,194,94588,1,0,0:0:0:0:
254,194,95338,1,8,0:0:0:0:
254,194,95525,1,0,0:0:0:0:
253,194,95713,1,8,0:0:0:0:
253,194,95900,1,0,0:0:0:0:
254,194,96088,1,4,0:0:0:0:
254,194,96463,1,8,0:0:0:0:
253,194,96838,1,0,0:0:0:0:
254,194,97213,1,8,0:0:0:0:
253,194,97588,1,0,0:0:0:0:
254,194,97963,1,0,0:0:0:0:
260,189,98338,1,8,0:0:0:0:
253,194,98525,1,0,0:0:0:0:
243,184,98713,1,8,0:0:0:0:
254,194,98900,1,0,0:0:0:0:
247,198,99088,1,0,0:0:0:0:
254,194,99463,1,8,0:0:0:0:
254,194,99838,1,0,0:0:0:0:
253,194,100213,1,0,0:0:0:0:
254,194,100588,1,8,0:0:0:0:
253,194,100963,1,8,0:0:0:0:
253,194,101338,1,0,0:0:0:0:
246,195,101525,1,0,0:0:0:0:
253,194,101713,1,8,0:0:0:0:
253,194,102088,1,4,0:0:0:0:
253,194,102275,1,8,0:0:0:0:
246,195,102463,1,8,0:0:0:0:
253,194,102650,1,0,0:0:0:0:
253,194,102838,1,12,0:0:0:0:
