osu file format v14

[General]
AudioFilename: M2U - Nemesis.mp3
AudioLeadIn: 0
PreviewTime: 69
Countdown: 0
SampleSet: Soft
StackLeniency: 0.7
Mode: 3
LetterboxInBreaks: 0
SpecialStyle: 0
WidescreenStoryboard: 0

[Editor]
DistanceSpacing: 0.8
BeatDivisor: 4
GridSize: 16
TimelineZoom: 1

[Metadata]
Title:Nemesis
TitleUnicode:Nemesis
Artist:M2U
ArtistUnicode:M2U
Creator:AutotelicBrown
Version:6K Moderato | Hard
Source:PUMP IT UP - 2015 PRIME -
Tags:Aki Erue piu Andamiro Arcade Video Game Electronic Classical Instrumental ADZUKI Lyrebird Ferdinant L.Ferdinant
BeatmapID:1309036
BeatmapSetID:620806

[Difficulty]
HPDrainRate:7.6
CircleSize:6
OverallDifficulty:7.6
ApproachRate:5
SliderMultiplier:1.4
SliderTickRate:1

[Events]
//Background and Video events
0,0,"1401-wide.png",0,0
Video,54,"BGA.m4v"
//Break Periods
//Storyboard Layer 0 (Background)
//Storyboard Layer 1 (Fail)
//Storyboard Layer 2 (Pass)
//Storyboard Layer 3 (Foreground)
//Storyboard Layer 4 (Overlay)
//Storyboard Sound Samples

[TimingPoints]
69,375,4,2,1,80,1,0
6069,-100,4,2,1,90,0,0
18069,-100,4,2,1,80,0,0
30069,-100,4,2,1,90,0,1
42069,-100,4,2,1,80,0,0
66069,-100,4,2,1,90,0,0
78069,-100,4,2,1,80,0,0
90069,-100,4,2,1,90,0,1
102819,-100,4,2,1,90,0,0

[HitObjects]
467,192,69,1,0,0:0:0:0:
127,192,69,1,0,0:0:0:0:
42,192,256,1,0,0:0:0:0:
127,192,350,1,0,0:0:0:0:
212,192,444,1,0,0:0:0:0:
297,192,537,1,0,0:0:0:0:
382,192,631,1,0,0:0:0:0:
467,192,725,1,0,0:0:0:0:
212,192,819,1,0,0:0:0:0:
467,192,1006,1,0,0:0:0:0:
382,192,1100,1,0,0:0:0:0:
297,192,1194,1,0,0:0:0:0:
212,192,1287,1,0,0:0:0:0:
127,192,1381,1,0,0:0:0:0:
42,192,1475,1,0,0:0:0:0:
297,192,1569,1,0,0:0:0:0:
467,192,1756,1,0,0:0:0:0:
212,192,1850,1,0,0:0:0:0:
382,192,1944,1,0,0:0:0:0:
127,192,2037,1,0,0:0:0:0:
297,192,2131,1,0,0:0:0:0:
42,192,2225,1,0,0:0:0:0:
467,192,2319,1,0,0:0:0:0:
382,192,2506,1,0,0:0:0:0:
297,192,2694,1,0,0:0:0:0:
212,192,2881,1,0,0:0:0:0:
127,192,3069,1,0,0:0:0:0:
42,192,3256,1,0,0:0:0:0:
127,192,3350,1,0,0:0:0:0:
212,192,3444,1,0,0:0:0:0:
297,192,3537,1,0,0:0:0:0:
382,192,3631,1,0,0:0:0:0:
467,192,3725,1,0,0:0:0:0:
212,192,3819,1,0,0:0:0:0:
297,192,4006,1,0,0:0:0:0:
212,192,4100,1,0,0:0:0:0:
382,192,4194,1,0,0:0:0:0:
127,192,4287,1,0,0:0:0:0:
467,192,4381,1,0,0:0:0:0:
42,192,4475,1,0,0:0:0:0:
212,192,4569,1,0,0:0:0:0:
297,192,4662,1,0,0:0:0:0:
382,192,4756,1,0,0:0:0:0:
467,192,4850,1,0,0:0:0:0:
127,192,4944,1,0,0:0:0:0:
212,192,5037,1,0,0:0:0:0:
297,192,5131,1,0,0:0:0:0:
382,192,5225,1,0,0:0:0:0:
42,192,5319,1,0,0:0:0:0:
127,192,5412,1,0,0:0:0:0:
212,192,5506,1,0,0:0:0:0:
467,192,5600,1,0,0:0:0:0:
42,192,5694,1,0,0:0:0:0:
382,192,5881,1,0,0:0:0:0:
467,192,6069,1,0,0:0:0:0:
297,192,6069,1,0,0:0:0:0:
127,192,6069,1,0,0:0:0:0:
42,192,6256,1,0,0:0:0:0:
127,192,6350,1,0,0:0:0:0:
212,192,6444,1,0,0:0:0:0:
297,192,6537,1,0,0:0:0:0:
382,192,6631,1,0,0:0:0:0:
467,192,6725,1,0,0:0:0:0:
212,192,6819,1,0,0:0:0:0:
128,192,6819,1,0,0:0:0:0:
467,192,7006,1,0,0:0:0:0:
382,192,7100,1,0,0:0:0:0:
297,192,7194,1,0,0:0:0:0:
212,192,7287,1,0,0:0:0:0:
127,192,7381,1,0,0:0:0:0:
42,192,7475,1,0,0:0:0:0:
382,192,7569,1,0,0:0:0:0:
297,192,7569,1,0,0:0:0:0:
467,192,7756,1,0,0:0:0:0:
212,192,7850,1,0,0:0:0:0:
382,192,7944,1,0,0:0:0:0:
127,192,8037,1,0,0:0:0:0:
297,192,8131,1,0,0:0:0:0:
42,192,8225,1,0,0:0:0:0:
467,192,8319,1,0,0:0:0:0:
382,192,8319,1,0,0:0:0:0:
297,192,8506,1,0,0:0:0:0:
467,192,8694,1,0,0:0:0:0:
212,192,8694,1,0,0:0:0:0:
382,192,8881,1,0,0:0:0:0:
297,192,9069,1,0,0:0:0:0:
127,192,9069,1,0,0:0:0:0:
42,192,9256,1,0,0:0:0:0:
127,192,9350,1,0,0:0:0:0:
212,192,9444,1,0,0:0:0:0:
297,192,9537,1,0,0:0:0:0:
382,192,9631,1,0,0:0:0:0:
467,192,9725,1,0,0:0:0:0:
212,192,9819,1,0,0:0:0:0:
42,192,9819,1,0,0:0:0:0:
297,192,10006,1,0,0:0:0:0:
212,192,10100,1,0,0:0:0:0:
382,192,10194,1,0,0:0:0:0:
127,192,10287,1,0,0:0:0:0:
467,192,10381,1,0,0:0:0:0:
42,192,10475,1,0,0:0:0:0:
212,192,10569,1,0,0:0:0:0:
127,192,10569,1,0,0:0:0:0:
297,192,10662,1,0,0:0:0:0:
382,192,10756,1,0,0:0:0:0:
467,192,10850,1,0,0:0:0:0:
127,192,10944,1,0,0:0:0:0:
42,192,10944,1,0,0:0:0:0:
212,192,11037,1,0,0:0:0:0:
297,192,11131,1,0,0:0:0:0:
382,192,11225,1,0,0:0:0:0:
212,192,11319,1,0,0:0:0:0:
42,192,11319,1,0,0:0:0:0:
297,192,11412,1,0,0:0:0:0:
127,192,11506,1,0,0:0:0:0:
467,192,11600,1,0,0:0:0:0:
297,192,11694,1,0,0:0:0:0:
212,192,11694,1,0,0:0:0:0:
382,192,11881,1,0,0:0:0:0:
127,192,11881,1,0,0:0:0:0:
467,192,12069,1,0,0:0:0:0:
297,192,12069,1,0,0:0:0:0:
42,192,12069,1,0,0:0:0:0:
212,192,12256,1,0,0:0:0:0:
382,192,12350,1,0,0:0:0:0:
212,192,12537,1,0,0:0:0:0:
382,192,12631,1,0,0:0:0:0:
297,192,12725,1,0,0:0:0:0:
467,192,12819,1,0,0:0:0:0:
212,192,12912,1,0,0:0:0:0:
467,192,13006,1,0,0:0:0:0:
127,192,13100,1,0,0:0:0:0:
382,192,13194,1,0,0:0:0:0:
127,192,13287,1,0,0:0:0:0:
297,192,13381,1,0,0:0:0:0:
42,192,13475,1,0,0:0:0:0:
297,192,13569,1,0,0:0:0:0:
127,192,13756,1,0,0:0:0:0:
212,192,13850,1,0,0:0:0:0:
382,192,13944,1,0,0:0:0:0:
127,192,14037,1,0,0:0:0:0:
297,192,14131,1,0,0:0:0:0:
42,192,14225,1,0,0:0:0:0:
467,192,14319,1,0,0:0:0:0:
212,192,14412,1,0,0:0:0:0:
467,192,14506,1,0,0:0:0:0:
127,192,14600,1,0,0:0:0:0:
382,192,14694,1,0,0:0:0:0:
127,192,14787,1,0,0:0:0:0:
297,192,14881,1,0,0:0:0:0:
42,192,14975,1,0,0:0:0:0:
297,192,15069,1,0,0:0:0:0:
212,192,15256,1,0,0:0:0:0:
297,192,15350,1,0,0:0:0:0:
42,192,15444,1,0,0:0:0:0:
127,192,15537,1,0,0:0:0:0:
382,192,15631,1,0,0:0:0:0:
297,192,15725,1,0,0:0:0:0:
467,192,15819,1,0,0:0:0:0:
212,192,15912,1,0,0:0:0:0:
467,192,16006,1,0,0:0:0:0:
127,192,16100,1,0,0:0:0:0:
382,192,16194,1,0,0:0:0:0:
127,192,16287,1,0,0:0:0:0:
297,192,16381,1,0,0:0:0:0:
42,192,16475,1,0,0:0:0:0:
467,192,16569,128,0,16756:0:0:0:0:
297,192,16569,128,0,16756:0:0:0:0:
212,192,16569,128,0,16756:0:0:0:0:
467,192,17319,1,0,0:0:0:0:
382,192,17319,1,0,0:0:0:0:
297,192,17506,1,0,0:0:0:0:
127,192,17694,1,0,0:0:0:0:
42,192,17694,1,0,0:0:0:0:
467,192,18069,1,0,0:0:0:0:
382,192,18069,1,0,0:0:0:0:
212,192,18069,1,0,0:0:0:0:
42,192,18256,1,0,0:0:0:0:
212,192,18350,1,0,0:0:0:0:
382,192,18444,1,0,0:0:0:0:
127,192,18537,1,0,0:0:0:0:
297,192,18631,1,0,0:0:0:0:
42,192,18725,1,0,0:0:0:0:
467,192,18819,1,0,0:0:0:0:
382,192,18912,1,0,0:0:0:0:
212,192,19006,1,0,0:0:0:0:
382,192,19100,1,0,0:0:0:0:
212,192,19194,1,0,0:0:0:0:
127,192,19287,1,0,0:0:0:0:
42,192,19381,1,0,0:0:0:0:
467,192,19475,1,0,0:0:0:0:
382,192,19569,1,0,0:0:0:0:
212,192,19756,1,0,0:0:0:0:
297,192,19850,1,0,0:0:0:0:
382,192,19944,1,0,0:0:0:0:
127,192,20037,1,0,0:0:0:0:
467,192,20131,1,0,0:0:0:0:
42,192,20225,1,0,0:0:0:0:
382,192,20319,1,0,0:0:0:0:
297,192,20412,1,0,0:0:0:0:
127,192,20506,1,0,0:0:0:0:
297,192,20600,1,0,0:0:0:0:
127,192,20694,1,0,0:0:0:0:
42,192,20787,1,0,0:0:0:0:
467,192,20881,1,0,0:0:0:0:
382,192,20975,1,0,0:0:0:0:
297,192,21069,1,0,0:0:0:0:
212,192,21256,1,0,0:0:0:0:
297,192,21350,1,0,0:0:0:0:
212,192,21444,1,0,0:0:0:0:
382,192,21537,1,0,0:0:0:0:
297,192,21631,1,0,0:0:0:0:
127,192,21725,1,0,0:0:0:0:
467,192,21819,1,0,0:0:0:0:
212,192,21912,1,0,0:0:0:0:
42,192,22006,1,0,0:0:0:0:
297,192,22100,1,0,0:0:0:0:
127,192,22194,1,0,0:0:0:0:
212,192,22287,1,0,0:0:0:0:
297,192,22381,1,0,0:0:0:0:
382,192,22475,1,0,0:0:0:0:
467,192,22569,1,0,0:0:0:0:
212,192,22662,1,0,0:0:0:0:
127,192,22756,1,0,0:0:0:0:
42,192,22850,1,0,0:0:0:0:
382,192,22944,1,0,0:0:0:0:
297,192,23131,1,0,0:0:0:0:
127,192,23319,1,0,0:0:0:0:
297,192,23506,1,0,0:0:0:0:
212,192,23694,1,0,0:0:0:0:
127,192,23881,1,0,0:0:0:0:
42,192,24069,1,0,0:0:0:0:
467,192,24256,1,0,0:0:0:0:
212,192,24350,1,0,0:0:0:0:
382,192,24444,1,0,0:0:0:0:
127,192,24537,1,0,0:0:0:0:
42,192,24631,1,0,0:0:0:0:
297,192,24725,1,0,0:0:0:0:
467,192,24819,1,0,0:0:0:0:
382,192,24912,1,0,0:0:0:0:
212,192,25006,1,0,0:0:0:0:
382,192,25100,1,0,0:0:0:0:
212,192,25194,1,0,0:0:0:0:
127,192,25287,1,0,0:0:0:0:
42,192,25381,1,0,0:0:0:0:
467,192,25475,1,0,0:0:0:0:
382,192,25569,1,0,0:0:0:0:
212,192,25756,1,0,0:0:0:0:
297,192,25850,1,0,0:0:0:0:
382,192,25944,1,0,0:0:0:0:
127,192,26037,1,0,0:0:0:0:
467,192,26131,1,0,0:0:0:0:
42,192,26225,1,0,0:0:0:0:
382,192,26319,1,0,0:0:0:0:
297,192,26412,1,0,0:0:0:0:
127,192,26506,1,0,0:0:0:0:
297,192,26600,1,0,0:0:0:0:
127,192,26694,1,0,0:0:0:0:
42,192,26787,1,0,0:0:0:0:
467,192,26881,1,0,0:0:0:0:
382,192,26975,1,0,0:0:0:0:
297,192,27069,1,0,0:0:0:0:
212,192,27256,1,0,0:0:0:0:
297,192,27350,1,0,0:0:0:0:
212,192,27444,1,0,0:0:0:0:
127,192,27537,1,0,0:0:0:0:
382,192,27631,1,0,0:0:0:0:
42,192,27725,1,0,0:0:0:0:
467,192,27819,1,0,0:0:0:0:
297,192,27912,1,0,0:0:0:0:
127,192,28006,1,0,0:0:0:0:
297,192,28100,1,0,0:0:0:0:
42,192,28194,1,0,0:0:0:0:
212,192,28287,1,0,0:0:0:0:
297,192,28381,1,0,0:0:0:0:
382,192,28475,1,0,0:0:0:0:
467,192,28569,1,0,0:0:0:0:
212,192,28662,1,0,0:0:0:0:
127,192,28756,1,0,0:0:0:0:
42,192,28850,1,0,0:0:0:0:
382,192,28944,1,0,0:0:0:0:
297,192,29131,1,0,0:0:0:0:
127,192,29319,1,0,0:0:0:0:
42,192,29412,1,0,0:0:0:0:
212,192,29506,1,0,0:0:0:0:
297,192,29600,1,0,0:0:0:0:
382,192,29694,1,0,0:0:0:0:
297,192,29881,1,0,0:0:0:0:
467,192,30069,1,0,0:0:0:0:
127,192,30069,1,0,0:0:0:0:
42,192,30069,1,0,0:0:0:0:
212,192,30256,1,0,0:0:0:0:
297,192,30350,1,0,0:0:0:0:
127,192,30444,1,0,0:0:0:0:
382,192,30631,1,0,0:0:0:0:
467,192,30725,1,0,0:0:0:0:
297,192,30819,1,0,0:0:0:0:
127,192,30912,1,0,0:0:0:0:
127,192,31100,1,0,0:0:0:0:
467,192,31194,1,0,0:0:0:0:
42,192,31475,1,0,0:0:0:0:
212,192,31662,1,0,0:0:0:0:
382,192,31756,1,0,0:0:0:0:
297,192,31850,1,0,0:0:0:0:
127,192,31944,1,0,0:0:0:0:
467,192,32131,1,0,0:0:0:0:
212,192,32412,1,0,0:0:0:0:
382,192,32600,1,0,0:0:0:0:
297,192,32694,1,0,0:0:0:0:
42,192,32787,1,0,0:0:0:0:
212,192,32881,1,0,0:0:0:0:
467,192,32975,1,0,0:0:0:0:
297,192,33069,1,0,0:0:0:0:
212,192,33256,1,0,0:0:0:0:
382,192,33350,1,0,0:0:0:0:
127,192,33444,1,0,0:0:0:0:
42,192,33537,1,0,0:0:0:0:
297,192,33631,1,0,0:0:0:0:
467,192,33725,1,0,0:0:0:0:
382,192,33819,1,0,0:0:0:0:
212,192,33912,1,0,0:0:0:0:
297,192,34006,1,0,0:0:0:0:
42,192,34100,1,0,0:0:0:0:
467,192,34194,1,0,0:0:0:0:
382,192,34287,1,0,0:0:0:0:
127,192,34381,1,0,0:0:0:0:
212,192,34475,1,0,0:0:0:0:
297,192,34569,1,0,0:0:0:0:
42,192,34662,1,0,0:0:0:0:
127,192,34756,1,0,0:0:0:0:
382,192,34850,1,0,0:0:0:0:
297,192,34944,1,0,0:0:0:0:
212,192,35131,1,0,0:0:0:0:
467,192,35319,1,0,0:0:0:0:
382,192,35319,1,0,0:0:0:0:
212,192,35506,1,0,0:0:0:0:
127,192,35506,1,0,0:0:0:0:
382,192,35694,1,0,0:0:0:0:
297,192,35694,1,0,0:0:0:0:
127,192,35881,1,0,0:0:0:0:
42,192,35881,1,0,0:0:0:0:
297,192,35975,1,0,0:0:0:0:
467,192,36069,1,0,0:0:0:0:
382,192,36069,1,0,0:0:0:0:
212,192,36069,1,0,0:0:0:0:
42,192,36256,1,0,0:0:0:0:
127,192,36444,1,0,0:0:0:0:
212,192,36631,1,0,0:0:0:0:
382,192,36725,1,0,0:0:0:0:
297,192,36819,1,0,0:0:0:0:
127,192,36912,1,0,0:0:0:0:
127,192,37100,1,0,0:0:0:0:
467,192,37194,1,0,0:0:0:0:
42,192,37475,1,0,0:0:0:0:
297,192,37569,1,0,0:0:0:0:
212,192,37662,1,0,0:0:0:0:
382,192,37756,1,0,0:0:0:0:
127,192,37850,1,0,0:0:0:0:
42,192,37944,1,0,0:0:0:0:
297,192,38037,1,0,0:0:0:0:
127,192,38131,1,0,0:0:0:0:
467,192,38225,1,0,0:0:0:0:
382,192,38319,1,0,0:0:0:0:
212,192,38412,1,0,0:0:0:0:
297,192,38600,1,0,0:0:0:0:
127,192,38694,1,0,0:0:0:0:
42,192,38787,1,0,0:0:0:0:
212,192,38881,1,0,0:0:0:0:
382,192,38975,1,0,0:0:0:0:
467,192,39069,1,0,0:0:0:0:
127,192,39256,1,0,0:0:0:0:
297,192,39350,1,0,0:0:0:0:
212,192,39444,1,0,0:0:0:0:
42,192,39537,1,0,0:0:0:0:
382,192,39631,1,0,0:0:0:0:
297,192,39725,1,0,0:0:0:0:
467,192,39819,1,0,0:0:0:0:
127,192,39912,1,0,0:0:0:0:
297,192,40006,1,0,0:0:0:0:
42,192,40100,1,0,0:0:0:0:
467,192,40194,1,0,0:0:0:0:
382,192,40287,1,0,0:0:0:0:
127,192,40381,1,0,0:0:0:0:
212,192,40475,1,0,0:0:0:0:
297,192,40569,1,0,0:0:0:0:
42,192,40662,1,0,0:0:0:0:
212,192,40756,1,0,0:0:0:0:
467,192,40850,1,0,0:0:0:0:
297,192,40944,1,0,0:0:0:0:
127,192,41131,1,0,0:0:0:0:
212,192,41319,1,0,0:0:0:0:
42,192,41412,1,0,0:0:0:0:
382,192,41506,1,0,0:0:0:0:
127,192,41506,1,0,0:0:0:0:
467,192,41600,1,0,0:0:0:0:
297,192,41694,1,0,0:0:0:0:
42,192,41694,1,0,0:0:0:0:
212,192,41881,1,0,0:0:0:0:
127,192,41881,1,0,0:0:0:0:
382,192,42069,1,0,0:0:0:0:
467,192,42069,1,0,0:0:0:0:
42,192,42069,128,0,43569:0:0:0:0:
297,192,42069,1,0,0:0:0:0:
297,192,43569,1,0,0:0:0:0:
127,192,43569,128,0,45069:0:0:0:0:
382,192,45069,1,0,0:0:0:0:
212,192,45069,128,0,46569:0:0:0:0:
297,192,46569,1,0,0:0:0:0:
127,192,46569,128,0,47319:0:0:0:0:
467,192,47319,128,0,48069:0:0:0:0:
297,192,48069,1,0,0:0:0:0:
382,192,48069,1,0,0:0:0:0:
42,192,48069,128,0,49569:0:0:0:0:
212,192,48069,128,0,49569:0:0:0:0:
467,192,49569,1,0,0:0:0:0:
297,192,49569,128,0,51069:0:0:0:0:
127,192,49569,128,0,51069:0:0:0:0:
382,192,51069,128,0,52569:0:0:0:0:
212,192,51069,128,0,52569:0:0:0:0:
42,192,51069,1,0,0:0:0:0:
467,192,52569,128,0,54069:0:0:0:0:
127,192,52569,128,0,54069:0:0:0:0:
42,192,52569,128,0,54069:0:0:0:0:
382,192,54069,1,0,0:0:0:0:
297,192,54069,1,0,0:0:0:0:
212,192,54069,1,0,0:0:0:0:
297,192,54444,1,0,0:0:0:0:
127,192,54444,1,0,0:0:0:0:
467,192,54631,1,0,0:0:0:0:
382,192,54631,1,0,0:0:0:0:
212,192,54631,1,0,0:0:0:0:
382,192,55006,1,0,0:0:0:0:
297,192,55006,1,0,0:0:0:0:
467,192,55194,1,0,0:0:0:0:
127,192,55194,1,0,0:0:0:0:
42,192,55194,1,0,0:0:0:0:
382,192,55944,1,0,0:0:0:0:
212,192,55944,1,0,0:0:0:0:
297,192,56319,1,0,0:0:0:0:
127,192,56319,1,0,0:0:0:0:
127,192,56506,1,0,0:0:0:0:
467,192,56694,1,0,0:0:0:0:
382,192,56694,1,0,0:0:0:0:
297,192,56694,1,0,0:0:0:0:
127,192,56881,1,0,0:0:0:0:
42,192,56881,1,0,0:0:0:0:
467,192,57069,1,0,0:0:0:0:
297,192,57069,1,0,0:0:0:0:
212,192,57069,1,0,0:0:0:0:
467,192,57350,1,0,0:0:0:0:
382,192,57350,1,0,0:0:0:0:
297,192,57631,1,0,0:0:0:0:
212,192,57631,1,0,0:0:0:0:
42,192,57631,1,0,0:0:0:0:
382,192,58006,1,0,0:0:0:0:
212,192,58006,1,0,0:0:0:0:
382,192,58194,1,0,0:0:0:0:
127,192,58194,1,0,0:0:0:0:
42,192,58194,1,0,0:0:0:0:
467,192,58569,1,0,0:0:0:0:
467,192,58756,1,0,0:0:0:0:
297,192,58756,1,0,0:0:0:0:
127,192,58756,1,0,0:0:0:0:
42,192,59131,1,0,0:0:0:0:
467,192,59319,1,0,0:0:0:0:
382,192,59319,1,0,0:0:0:0:
212,192,59319,1,0,0:0:0:0:
297,192,59506,1,0,0:0:0:0:
127,192,59506,1,0,0:0:0:0:
467,192,59694,1,0,0:0:0:0:
382,192,59694,1,0,0:0:0:0:
212,192,59694,1,0,0:0:0:0:
382,192,60069,1,0,0:0:0:0:
297,192,60069,1,0,0:0:0:0:
212,192,60069,1,0,0:0:0:0:
297,192,60444,1,0,0:0:0:0:
127,192,60444,1,0,0:0:0:0:
467,192,60631,1,0,0:0:0:0:
382,192,60631,1,0,0:0:0:0:
212,192,60631,1,0,0:0:0:0:
382,192,61006,1,0,0:0:0:0:
297,192,61006,1,0,0:0:0:0:
467,192,61194,1,0,0:0:0:0:
127,192,61194,1,0,0:0:0:0:
42,192,61194,1,0,0:0:0:0:
382,192,61944,1,0,0:0:0:0:
212,192,61944,1,0,0:0:0:0:
297,192,62319,1,0,0:0:0:0:
127,192,62319,1,0,0:0:0:0:
127,192,62506,1,0,0:0:0:0:
467,192,62694,1,0,0:0:0:0:
382,192,62694,1,0,0:0:0:0:
297,192,62694,1,0,0:0:0:0:
127,192,62881,1,0,0:0:0:0:
42,192,62881,1,0,0:0:0:0:
467,192,63069,1,0,0:0:0:0:
297,192,63069,1,0,0:0:0:0:
212,192,63069,1,0,0:0:0:0:
467,192,63350,1,0,0:0:0:0:
382,192,63350,1,0,0:0:0:0:
297,192,63631,1,0,0:0:0:0:
212,192,63631,1,0,0:0:0:0:
42,192,63631,1,0,0:0:0:0:
382,192,64006,1,0,0:0:0:0:
212,192,64006,1,0,0:0:0:0:
382,192,64194,1,0,0:0:0:0:
127,192,64194,1,0,0:0:0:0:
42,192,64194,1,0,0:0:0:0:
467,192,64569,1,0,0:0:0:0:
467,192,64756,1,0,0:0:0:0:
297,192,64756,1,0,0:0:0:0:
127,192,64756,1,0,0:0:0:0:
42,192,65131,1,0,0:0:0:0:
467,192,65319,1,0,0:0:0:0:
382,192,65319,1,0,0:0:0:0:
212,192,65319,1,0,0:0:0:0:
297,192,65506,1,0,0:0:0:0:
127,192,65506,1,0,0:0:0:0:
467,192,65694,1,0,0:0:0:0:
382,192,65694,1,0,0:0:0:0:
212,192,65694,1,0,0:0:0:0:
382,192,66069,1,0,0:0:0:0:
212,192,66069,1,0,0:0:0:0:
127,192,66069,1,0,0:0:0:0:
42,192,66256,1,0,0:0:0:0:
127,192,66444,1,0,0:0:0:0:
382,192,66631,1,0,0:0:0:0:
297,192,66631,1,0,0:0:0:0:
212,192,66631,1,0,0:0:0:0:
127,192,66819,1,0,0:0:0:0:
467,192,67006,1,0,0:0:0:0:
297,192,67194,1,0,0:0:0:0:
127,192,67194,1,0,0:0:0:0:
42,192,67194,1,0,0:0:0:0:
212,192,67381,1,0,0:0:0:0:
382,192,67569,1,0,0:0:0:0:
467,192,67756,1,0,0:0:0:0:
42,192,67756,1,0,0:0:0:0:
382,192,67944,1,0,0:0:0:0:
297,192,68131,1,0,0:0:0:0:
212,192,68319,1,0,0:0:0:0:
127,192,68319,1,0,0:0:0:0:
127,192,68506,1,0,0:0:0:0:
467,192,68694,1,0,0:0:0:0:
382,192,68694,1,0,0:0:0:0:
297,192,68694,1,0,0:0:0:0:
127,192,68881,1,0,0:0:0:0:
42,192,68881,1,0,0:0:0:0:
467,192,69069,1,0,0:0:0:0:
382,192,69069,1,0,0:0:0:0:
212,192,69069,1,0,0:0:0:0:
42,192,69256,1,0,0:0:0:0:
467,192,69350,1,0,0:0:0:0:
382,192,69350,1,0,0:0:0:0:
127,192,69444,1,0,0:0:0:0:
297,192,69631,1,0,0:0:0:0:
212,192,69631,1,0,0:0:0:0:
42,192,69631,1,0,0:0:0:0:
467,192,69819,1,0,0:0:0:0:
382,192,70006,1,0,0:0:0:0:
212,192,70006,1,0,0:0:0:0:
382,192,70194,1,0,0:0:0:0:
127,192,70194,1,0,0:0:0:0:
42,192,70194,1,0,0:0:0:0:
212,192,70381,1,0,0:0:0:0:
467,192,70569,1,0,0:0:0:0:
467,192,70756,1,0,0:0:0:0:
297,192,70756,1,0,0:0:0:0:
127,192,70756,1,0,0:0:0:0:
212,192,70944,1,0,0:0:0:0:
42,192,71131,1,0,0:0:0:0:
467,192,71319,1,0,0:0:0:0:
297,192,71319,1,0,0:0:0:0:
212,192,71319,1,0,0:0:0:0:
382,192,71506,1,0,0:0:0:0:
127,192,71506,1,0,0:0:0:0:
467,192,71694,1,0,0:0:0:0:
297,192,71694,1,0,0:0:0:0:
212,192,71694,1,0,0:0:0:0:
42,192,71881,1,0,0:0:0:0:
382,192,72069,1,0,0:0:0:0:
212,192,72069,1,0,0:0:0:0:
127,192,72069,1,0,0:0:0:0:
42,192,72256,1,0,0:0:0:0:
127,192,72444,1,0,0:0:0:0:
382,192,72631,1,0,0:0:0:0:
297,192,72631,1,0,0:0:0:0:
212,192,72631,1,0,0:0:0:0:
127,192,72819,1,0,0:0:0:0:
467,192,73006,1,0,0:0:0:0:
297,192,73194,1,0,0:0:0:0:
127,192,73194,1,0,0:0:0:0:
42,192,73194,1,0,0:0:0:0:
382,192,73381,1,0,0:0:0:0:
212,192,73569,1,0,0:0:0:0:
467,192,73756,1,0,0:0:0:0:
382,192,73944,1,0,0:0:0:0:
297,192,73944,1,0,0:0:0:0:
42,192,74131,1,0,0:0:0:0:
212,192,74319,1,0,0:0:0:0:
127,192,74319,1,0,0:0:0:0:
127,192,74506,1,0,0:0:0:0:
467,192,74694,1,0,0:0:0:0:
382,192,74694,1,0,0:0:0:0:
297,192,74694,1,0,0:0:0:0:
127,192,74881,1,0,0:0:0:0:
42,192,74881,1,0,0:0:0:0:
467,192,75069,1,0,0:0:0:0:
382,192,75069,1,0,0:0:0:0:
212,192,75069,1,0,0:0:0:0:
42,192,75256,1,0,0:0:0:0:
467,192,75350,1,0,0:0:0:0:
382,192,75350,1,0,0:0:0:0:
127,192,75444,1,0,0:0:0:0:
297,192,75631,1,0,0:0:0:0:
212,192,75631,1,0,0:0:0:0:
42,192,75631,1,0,0:0:0:0:
467,192,75819,1,0,0:0:0:0:
382,192,76006,1,0,0:0:0:0:
212,192,76006,1,0,0:0:0:0:
382,192,76194,1,0,0:0:0:0:
127,192,76194,1,0,0:0:0:0:
42,192,76194,1,0,0:0:0:0:
212,192,76381,1,0,0:0:0:0:
297,192,76569,1,0,0:0:0:0:
467,192,76756,1,0,0:0:0:0:
127,192,76756,1,0,0:0:0:0:
382,192,76944,1,0,0:0:0:0:
42,192,77131,1,0,0:0:0:0:
467,192,77319,1,0,0:0:0:0:
297,192,77319,1,0,0:0:0:0:
212,192,77319,1,0,0:0:0:0:
382,192,77506,1,0,0:0:0:0:
127,192,77506,1,0,0:0:0:0:
467,192,77694,1,0,0:0:0:0:
297,192,77694,1,0,0:0:0:0:
212,192,77694,128,0,78069:0:0:0:0:
467,192,78069,1,0,0:0:0:0:
297,192,78069,1,0,0:0:0:0:
127,192,78069,1,0,0:0:0:0:
42,192,78256,1,0,0:0:0:0:
212,192,78350,1,0,0:0:0:0:
382,192,78444,1,0,0:0:0:0:
127,192,78537,1,0,0:0:0:0:
297,192,78631,1,0,0:0:0:0:
42,192,78725,1,0,0:0:0:0:
467,192,78819,1,0,0:0:0:0:
382,192,78912,1,0,0:0:0:0:
212,192,79006,1,0,0:0:0:0:
382,192,79100,1,0,0:0:0:0:
212,192,79194,1,0,0:0:0:0:
127,192,79287,1,0,0:0:0:0:
42,192,79381,1,0,0:0:0:0:
467,192,79475,1,0,0:0:0:0:
382,192,79569,1,0,0:0:0:0:
212,192,79756,1,0,0:0:0:0:
297,192,79850,1,0,0:0:0:0:
382,192,79944,1,0,0:0:0:0:
127,192,80037,1,0,0:0:0:0:
467,192,80131,1,0,0:0:0:0:
42,192,80225,1,0,0:0:0:0:
382,192,80319,1,0,0:0:0:0:
297,192,80412,1,0,0:0:0:0:
127,192,80506,1,0,0:0:0:0:
297,192,80600,1,0,0:0:0:0:
127,192,80694,1,0,0:0:0:0:
42,192,80787,1,0,0:0:0:0:
467,192,80881,1,0,0:0:0:0:
382,192,80975,1,0,0:0:0:0:
297,192,81069,1,0,0:0:0:0:
212,192,81256,1,0,0:0:0:0:
297,192,81350,1,0,0:0:0:0:
212,192,81444,1,0,0:0:0:0:
382,192,81537,1,0,0:0:0:0:
297,192,81631,1,0,0:0:0:0:
127,192,81725,1,0,0:0:0:0:
467,192,81819,1,0,0:0:0:0:
212,192,81912,1,0,0:0:0:0:
42,192,82006,1,0,0:0:0:0:
297,192,82100,1,0,0:0:0:0:
127,192,82194,1,0,0:0:0:0:
212,192,82287,1,0,0:0:0:0:
297,192,82381,1,0,0:0:0:0:
382,192,82475,1,0,0:0:0:0:
467,192,82569,1,0,0:0:0:0:
212,192,82662,1,0,0:0:0:0:
127,192,82756,1,0,0:0:0:0:
42,192,82850,1,0,0:0:0:0:
382,192,82944,1,0,0:0:0:0:
297,192,83131,1,0,0:0:0:0:
127,192,83319,1,0,0:0:0:0:
297,192,83506,1,0,0:0:0:0:
212,192,83694,1,0,0:0:0:0:
127,192,83881,1,0,0:0:0:0:
297,192,84069,1,0,0:0:0:0:
42,192,84069,1,0,0:0:0:0:
467,192,84256,1,0,0:0:0:0:
212,192,84350,1,0,0:0:0:0:
382,192,84444,1,0,0:0:0:0:
127,192,84537,1,0,0:0:0:0:
42,192,84631,1,0,0:0:0:0:
297,192,84725,1,0,0:0:0:0:
467,192,84819,1,0,0:0:0:0:
382,192,84912,1,0,0:0:0:0:
212,192,85006,1,0,0:0:0:0:
382,192,85100,1,0,0:0:0:0:
212,192,85194,1,0,0:0:0:0:
127,192,85287,1,0,0:0:0:0:
42,192,85381,1,0,0:0:0:0:
467,192,85475,1,0,0:0:0:0:
382,192,85569,1,0,0:0:0:0:
212,192,85756,1,0,0:0:0:0:
297,192,85850,1,0,0:0:0:0:
382,192,85944,1,0,0:0:0:0:
127,192,86037,1,0,0:0:0:0:
467,192,86131,1,0,0:0:0:0:
42,192,86225,1,0,0:0:0:0:
382,192,86319,1,0,0:0:0:0:
297,192,86412,1,0,0:0:0:0:
127,192,86506,1,0,0:0:0:0:
297,192,86600,1,0,0:0:0:0:
127,192,86694,1,0,0:0:0:0:
42,192,86787,1,0,0:0:0:0:
467,192,86881,1,0,0:0:0:0:
382,192,86975,1,0,0:0:0:0:
297,192,87069,1,0,0:0:0:0:
212,192,87256,1,0,0:0:0:0:
297,192,87350,1,0,0:0:0:0:
212,192,87444,1,0,0:0:0:0:
127,192,87537,1,0,0:0:0:0:
382,192,87631,1,0,0:0:0:0:
42,192,87725,1,0,0:0:0:0:
467,192,87819,1,0,0:0:0:0:
297,192,87912,1,0,0:0:0:0:
127,192,88006,1,0,0:0:0:0:
297,192,88100,1,0,0:0:0:0:
42,192,88194,1,0,0:0:0:0:
212,192,88287,1,0,0:0:0:0:
297,192,88381,1,0,0:0:0:0:
382,192,88475,1,0,0:0:0:0:
467,192,88569,1,0,0:0:0:0:
212,192,88662,1,0,0:0:0:0:
127,192,88756,1,0,0:0:0:0:
42,192,88850,1,0,0:0:0:0:
382,192,88944,1,0,0:0:0:0:
297,192,89131,1,0,0:0:0:0:
127,192,89319,1,0,0:0:0:0:
42,192,89412,1,0,0:0:0:0:
212,192,89506,1,0,0:0:0:0:
297,192,89600,1,0,0:0:0:0:
382,192,89694,1,0,0:0:0:0:
297,192,89881,1,0,0:0:0:0:
467,192,90069,1,0,0:0:0:0:
127,192,90069,1,0,0:0:0:0:
42,192,90069,1,0,0:0:0:0:
212,192,90256,1,0,0:0:0:0:
297,192,90350,1,0,0:0:0:0:
127,192,90444,1,0,0:0:0:0:
382,192,90631,1,0,0:0:0:0:
467,192,90725,1,0,0:0:0:0:
297,192,90819,1,0,0:0:0:0:
127,192,90912,1,0,0:0:0:0:
127,192,91100,1,0,0:0:0:0:
467,192,91194,1,0,0:0:0:0:
42,192,91475,1,0,0:0:0:0:
212,192,91662,1,0,0:0:0:0:
382,192,91756,1,0,0:0:0:0:
297,192,91850,1,0,0:0:0:0:
127,192,91944,1,0,0:0:0:0:
467,192,92131,1,0,0:0:0:0:
212,192,92412,1,0,0:0:0:0:
382,192,92600,1,0,0:0:0:0:
297,192,92694,1,0,0:0:0:0:
42,192,92787,1,0,0:0:0:0:
212,192,92881,1,0,0:0:0:0:
467,192,92975,1,0,0:0:0:0:
297,192,93069,1,0,0:0:0:0:
212,192,93256,1,0,0:0:0:0:
382,192,93350,1,0,0:0:0:0:
127,192,93444,1,0,0:0:0:0:
42,192,93537,1,0,0:0:0:0:
297,192,93631,1,0,0:0:0:0:
467,192,93725,1,0,0:0:0:0:
382,192,93819,1,0,0:0:0:0:
212,192,93912,1,0,0:0:0:0:
297,192,94006,1,0,0:0:0:0:
42,192,94100,1,0,0:0:0:0:
467,192,94194,1,0,0:0:0:0:
382,192,94287,1,0,0:0:0:0:
127,192,94381,1,0,0:0:0:0:
212,192,94475,1,0,0:0:0:0:
297,192,94569,1,0,0:0:0:0:
42,192,94662,1,0,0:0:0:0:
127,192,94756,1,0,0:0:0:0:
382,192,94850,1,0,0:0:0:0:
297,192,94944,1,0,0:0:0:0:
212,192,95131,1,0,0:0:0:0:
467,192,95319,1,0,0:0:0:0:
382,192,95319,1,0,0:0:0:0:
212,192,95506,1,0,0:0:0:0:
127,192,95506,1,0,0:0:0:0:
382,192,95694,1,0,0:0:0:0:
297,192,95694,1,0,0:0:0:0:
127,192,95881,1,0,0:0:0:0:
42,192,95881,1,0,0:0:0:0:
297,192,95975,1,0,0:0:0:0:
467,192,96069,1,0,0:0:0:0:
382,192,96069,1,0,0:0:0:0:
212,192,96069,1,0,0:0:0:0:
42,192,96256,1,0,0:0:0:0:
127,192,96444,1,0,0:0:0:0:
212,192,96631,1,0,0:0:0:0:
382,192,96725,1,0,0:0:0:0:
297,192,96819,1,0,0:0:0:0:
127,192,96912,1,0,0:0:0:0:
127,192,97100,1,0,0:0:0:0:
467,192,97194,1,0,0:0:0:0:
42,192,97475,1,0,0:0:0:0:
297,192,97569,1,0,0:0:0:0:
212,192,97662,1,0,0:0:0:0:
382,192,97756,1,0,0:0:0:0:
127,192,97850,1,0,0:0:0:0:
42,192,97944,1,0,0:0:0:0:
297,192,98037,1,0,0:0:0:0:
127,192,98131,1,0,0:0:0:0:
467,192,98225,1,0,0:0:0:0:
382,192,98319,1,0,0:0:0:0:
212,192,98412,1,0,0:0:0:0:
297,192,98600,1,0,0:0:0:0:
127,192,98694,1,0,0:0:0:0:
42,192,98787,1,0,0:0:0:0:
212,192,98881,1,0,0:0:0:0:
382,192,98975,1,0,0:0:0:0:
467,192,99069,1,0,0:0:0:0:
127,192,99256,1,0,0:0:0:0:
297,192,99350,1,0,0:0:0:0:
212,192,99444,1,0,0:0:0:0:
42,192,99537,1,0,0:0:0:0:
382,192,99631,1,0,0:0:0:0:
297,192,99725,1,0,0:0:0:0:
467,192,99819,1,0,0:0:0:0:
127,192,99912,1,0,0:0:0:0:
297,192,100006,1,0,0:0:0:0:
42,192,100100,1,0,0:0:0:0:
467,192,100194,1,0,0:0:0:0:
382,192,100287,1,0,0:0:0:0:
127,192,100381,1,0,0:0:0:0:
212,192,100475,1,0,0:0:0:0:
297,192,100569,1,0,0:0:0:0:
42,192,100662,1,0,0:0:0:0:
212,192,100756,1,0,0:0:0:0:
467,192,100850,1,0,0:0:0:0:
297,192,100944,1,0,0:0:0:0:
127,192,101131,1,0,0:0:0:0:
212,192,101319,1,0,0:0:0:0:
42,192,101412,1,0,0:0:0:0:
382,192,101506,1,0,0:0:0:0:
127,192,101506,1,0,0:0:0:0:
467,192,101600,1,0,0:0:0:0:
297,192,101694,1,0,0:0:0:0:
42,192,101694,1,0,0:0:0:0:
212,192,101881,1,0,0:0:0:0:
127,192,101881,1,0,0:0:0:0:
467,192,102069,1,0,0:0:0:0:
382,192,102069,1,0,0:0:0:0:
297,192,102069,1,0,0:0:0:0:
127,192,102162,1,0,0:0:0:0:
212,192,102256,1,0,0:0:0:0:
42,192,102350,1,0,0:0:0:0:
467,192,102444,1,0,0:0:0:0:
382,192,102444,1,0,0:0:0:0:
127,192,102444,1,0,0:0:0:0:
297,192,102631,1,0,0:0:0:0:
212,192,102631,1,0,0:0:0:0:
382,192,102819,128,0,103194:0:0:0:0:
467,192,102819,128,0,103194:0:0:0:0:
42,192,102819,128,0,103194:0:0:0:0:
127,192,102819,128,0,103194:0:0:0:0:
