osu file format v14

[General]
AudioFilename: M2U - Nemesis.mp3
AudioLeadIn: 0
PreviewTime: 69
Countdown: 0
SampleSet: Soft
StackLeniency: 0.7
Mode: 3
LetterboxInBreaks: 0
SpecialStyle: 0
WidescreenStoryboard: 0

[Editor]
DistanceSpacing: 0.8
BeatDivisor: 4
GridSize: 16
TimelineZoom: 2.899999

[Metadata]
Title:Nemesis
TitleUnicode:Nemesis
Artist:M2U
ArtistUnicode:M2U
Creator:AutotelicBrown
Version:4K Adagio | Easy
Source:PUMP IT UP - 2015 PRIME -
Tags:Aki Erue piu Andamiro Arcade Video Game Electronic Classical Instrumental ADZUKI Lyrebird Ferdinant L.Ferdinant
BeatmapID:1309462
BeatmapSetID:620806

[Difficulty]
HPDrainRate:6.8
CircleSize:4
OverallDifficulty:6.8
ApproachRate:5
SliderMultiplier:1.4
SliderTickRate:1

[Events]
//Background and Video events
0,0,"1401-wide.png",0,0
Video,54,"BGA.m4v"
//Break Periods
//Storyboard Layer 0 (Background)
//Storyboard Layer 1 (Fail)
//Storyboard Layer 2 (Pass)
//Storyboard Layer 3 (Foreground)
//Storyboard Layer 4 (Overlay)
//Storyboard Sound Samples

[TimingPoints]
69,375,4,2,1,80,1,0
6069,-100,4,2,1,90,0,0
18069,-100,4,2,1,80,0,0
30069,-100,4,2,1,90,0,1
42069,-100,4,2,1,80,0,0
66069,-100,4,2,1,90,0,0
78069,-100,4,2,1,80,0,0
90069,-100,4,2,1,90,0,1
102819,-100,4,2,1,90,0,0

[HitObjects]
192,192,69,5,0,0:0:0:0:
320,192,69,1,0,0:0:0:0:
448,192,819,1,0,0:0:0:0:
192,192,1569,1,0,0:0:0:0:
448,192,2319,1,0,0:0:0:0:
320,192,2506,1,0,0:0:0:0:
192,192,2694,1,0,0:0:0:0:
64,192,2881,1,0,0:0:0:0:
192,192,3069,1,0,0:0:0:0:
448,192,3819,1,0,0:0:0:0:
320,192,4569,1,0,0:0:0:0:
448,192,4756,1,0,0:0:0:0:
192,192,4944,1,0,0:0:0:0:
320,192,5131,1,0,0:0:0:0:
64,192,5319,1,0,0:0:0:0:
448,192,5506,1,0,0:0:0:0:
192,192,5694,1,0,0:0:0:0:
320,192,5881,1,0,0:0:0:0:
192,192,6069,1,0,0:0:0:0:
64,192,6069,1,0,0:0:0:0:
448,192,6819,1,0,0:0:0:0:
320,192,6819,128,0,7569:0:0:0:0:
192,192,7569,1,0,0:0:0:0:
448,192,8319,1,0,0:0:0:0:
320,192,8506,1,0,0:0:0:0:
192,192,8694,1,0,0:0:0:0:
64,192,8881,1,0,0:0:0:0:
192,192,9069,1,0,0:0:0:0:
448,192,9819,1,0,0:0:0:0:
64,192,9819,128,0,10569:0:0:0:0:
320,192,10569,1,0,0:0:0:0:
448,192,10756,1,0,0:0:0:0:
192,192,10944,1,0,0:0:0:0:
320,192,11131,1,0,0:0:0:0:
64,192,11319,1,0,0:0:0:0:
448,192,11506,1,0,0:0:0:0:
192,192,11694,1,0,0:0:0:0:
320,192,11881,1,0,0:0:0:0:
448,192,12069,1,0,0:0:0:0:
64,192,12069,1,0,0:0:0:0:
192,192,12444,1,0,0:0:0:0:
320,192,12819,1,0,0:0:0:0:
64,192,13006,1,0,0:0:0:0:
448,192,13194,1,0,0:0:0:0:
192,192,13381,1,0,0:0:0:0:
320,192,13569,1,0,0:0:0:0:
192,192,13944,1,0,0:0:0:0:
320,192,14319,1,0,0:0:0:0:
64,192,14506,1,0,0:0:0:0:
448,192,14694,1,0,0:0:0:0:
192,192,14881,1,0,0:0:0:0:
320,192,15069,1,0,0:0:0:0:
192,192,15444,1,0,0:0:0:0:
448,192,15819,1,0,0:0:0:0:
320,192,15819,1,0,0:0:0:0:
192,192,16194,1,0,0:0:0:0:
448,192,16569,128,0,16944:0:0:0:0:
64,192,16569,128,0,16944:0:0:0:0:
320,192,17319,1,0,0:0:0:0:
192,192,17506,1,0,0:0:0:0:
448,192,17694,1,0,0:0:0:0:
192,192,18069,1,0,0:0:0:0:
64,192,18069,1,0,0:0:0:0:
320,192,18819,1,0,0:0:0:0:
192,192,19569,1,0,0:0:0:0:
448,192,20319,1,0,0:0:0:0:
64,192,21069,1,0,0:0:0:0:
192,192,21819,1,0,0:0:0:0:
448,192,22569,1,0,0:0:0:0:
320,192,22944,1,0,0:0:0:0:
192,192,23131,1,0,0:0:0:0:
64,192,23319,1,0,0:0:0:0:
448,192,23506,1,0,0:0:0:0:
192,192,23694,1,0,0:0:0:0:
320,192,23881,1,0,0:0:0:0:
64,192,24069,1,0,0:0:0:0:
448,192,24256,1,0,0:0:0:0:
64,192,24444,1,0,0:0:0:0:
320,192,24819,1,0,0:0:0:0:
192,192,25569,1,0,0:0:0:0:
448,192,26319,1,0,0:0:0:0:
64,192,27069,1,0,0:0:0:0:
192,192,27819,1,0,0:0:0:0:
448,192,28569,1,0,0:0:0:0:
320,192,28944,1,0,0:0:0:0:
192,192,29131,1,0,0:0:0:0:
64,192,29319,1,0,0:0:0:0:
320,192,29694,1,0,0:0:0:0:
192,192,29881,1,0,0:0:0:0:
448,192,30069,1,0,0:0:0:0:
64,192,30069,1,0,0:0:0:0:
320,192,30444,1,0,0:0:0:0:
192,192,30444,1,0,0:0:0:0:
448,192,30819,1,0,0:0:0:0:
192,192,30819,1,0,0:0:0:0:
448,192,31194,1,0,0:0:0:0:
64,192,31194,1,0,0:0:0:0:
320,192,31569,1,0,0:0:0:0:
192,192,31569,1,0,0:0:0:0:
448,192,31944,1,0,0:0:0:0:
192,192,31944,1,0,0:0:0:0:
448,192,32319,1,0,0:0:0:0:
320,192,32319,1,0,0:0:0:0:
192,192,32694,1,0,0:0:0:0:
64,192,32694,1,0,0:0:0:0:
320,192,33069,1,0,0:0:0:0:
64,192,33069,1,0,0:0:0:0:
320,192,33444,1,0,0:0:0:0:
192,192,33444,1,0,0:0:0:0:
448,192,33819,1,0,0:0:0:0:
192,192,33819,1,0,0:0:0:0:
448,192,34194,1,0,0:0:0:0:
64,192,34194,1,0,0:0:0:0:
320,192,34569,1,0,0:0:0:0:
192,192,34569,1,0,0:0:0:0:
64,192,34944,1,0,0:0:0:0:
448,192,35319,1,0,0:0:0:0:
192,192,35319,1,0,0:0:0:0:
64,192,35506,1,0,0:0:0:0:
320,192,35694,1,0,0:0:0:0:
192,192,35881,1,0,0:0:0:0:
448,192,36069,1,0,0:0:0:0:
64,192,36069,1,0,0:0:0:0:
320,192,36444,1,0,0:0:0:0:
192,192,36444,1,0,0:0:0:0:
448,192,36819,1,0,0:0:0:0:
192,192,36819,1,0,0:0:0:0:
448,192,37194,1,0,0:0:0:0:
64,192,37194,1,0,0:0:0:0:
320,192,37569,1,0,0:0:0:0:
192,192,37569,1,0,0:0:0:0:
448,192,37944,1,0,0:0:0:0:
192,192,37944,1,0,0:0:0:0:
448,192,38319,1,0,0:0:0:0:
320,192,38319,1,0,0:0:0:0:
192,192,38694,1,0,0:0:0:0:
64,192,38694,1,0,0:0:0:0:
320,192,39069,1,0,0:0:0:0:
64,192,39069,1,0,0:0:0:0:
320,192,39444,1,0,0:0:0:0:
192,192,39444,1,0,0:0:0:0:
448,192,39819,1,0,0:0:0:0:
192,192,39819,1,0,0:0:0:0:
448,192,40194,1,0,0:0:0:0:
64,192,40194,1,0,0:0:0:0:
320,192,40569,1,0,0:0:0:0:
192,192,40569,128,0,40944:0:0:0:0:
448,192,40944,128,0,41319:0:0:0:0:
192,192,41319,128,0,41694:0:0:0:0:
448,192,41694,128,0,42069:0:0:0:0:
320,192,42069,1,0,0:0:0:0:
64,192,42069,128,0,43569:0:0:0:0:
192,192,43569,128,0,45069:0:0:0:0:
320,192,45069,128,0,46569:0:0:0:0:
192,192,46569,128,0,47319:0:0:0:0:
448,192,47319,128,0,48069:0:0:0:0:
320,192,48069,1,0,0:0:0:0:
64,192,48069,128,0,49569:0:0:0:0:
448,192,49569,128,0,51069:0:0:0:0:
192,192,49569,1,0,0:0:0:0:
192,192,51069,128,0,52569:0:0:0:0:
64,192,51069,128,0,52569:0:0:0:0:
448,192,52569,128,0,54069:0:0:0:0:
320,192,52569,128,0,54069:0:0:0:0:
192,192,54069,1,0,0:0:0:0:
64,192,54069,1,0,0:0:0:0:
448,192,54631,1,0,0:0:0:0:
192,192,54631,1,0,0:0:0:0:
320,192,55194,1,0,0:0:0:0:
64,192,55194,1,0,0:0:0:0:
448,192,55944,1,0,0:0:0:0:
192,192,56319,1,0,0:0:0:0:
448,192,56694,1,0,0:0:0:0:
320,192,56694,1,0,0:0:0:0:
64,192,56881,1,0,0:0:0:0:
320,192,57069,1,0,0:0:0:0:
192,192,57069,1,0,0:0:0:0:
320,192,57350,1,0,0:0:0:0:
192,192,57631,1,0,0:0:0:0:
64,192,57631,1,0,0:0:0:0:
448,192,58006,1,0,0:0:0:0:
448,192,58194,1,0,0:0:0:0:
64,192,58194,1,0,0:0:0:0:
320,192,58756,1,0,0:0:0:0:
192,192,58756,1,0,0:0:0:0:
448,192,59319,1,0,0:0:0:0:
320,192,59319,1,0,0:0:0:0:
448,192,59694,1,0,0:0:0:0:
320,192,59694,1,0,0:0:0:0:
192,192,60069,1,0,0:0:0:0:
64,192,60069,1,0,0:0:0:0:
448,192,60631,1,0,0:0:0:0:
192,192,60631,1,0,0:0:0:0:
320,192,61194,1,0,0:0:0:0:
64,192,61194,1,0,0:0:0:0:
448,192,61944,1,0,0:0:0:0:
192,192,62319,1,0,0:0:0:0:
448,192,62694,1,0,0:0:0:0:
320,192,62694,1,0,0:0:0:0:
64,192,62881,1,0,0:0:0:0:
320,192,63069,1,0,0:0:0:0:
192,192,63069,1,0,0:0:0:0:
320,192,63350,1,0,0:0:0:0:
192,192,63631,1,0,0:0:0:0:
64,192,63631,1,0,0:0:0:0:
448,192,64194,1,0,0:0:0:0:
64,192,64194,1,0,0:0:0:0:
320,192,64756,1,0,0:0:0:0:
192,192,64756,1,0,0:0:0:0:
448,192,65319,1,0,0:0:0:0:
320,192,65319,1,0,0:0:0:0:
448,192,65694,1,0,0:0:0:0:
320,192,65694,1,0,0:0:0:0:
192,192,66069,1,0,0:0:0:0:
64,192,66069,1,0,0:0:0:0:
320,192,66444,1,0,0:0:0:0:
192,192,66631,1,0,0:0:0:0:
448,192,66819,1,0,0:0:0:0:
320,192,67194,1,0,0:0:0:0:
64,192,67194,1,0,0:0:0:0:
192,192,67569,1,0,0:0:0:0:
448,192,67756,1,0,0:0:0:0:
64,192,67944,1,0,0:0:0:0:
320,192,68319,1,0,0:0:0:0:
192,192,68319,1,0,0:0:0:0:
448,192,68694,1,0,0:0:0:0:
64,192,68694,1,0,0:0:0:0:
320,192,68881,1,0,0:0:0:0:
448,192,69069,1,0,0:0:0:0:
192,192,69069,1,0,0:0:0:0:
448,192,69350,1,0,0:0:0:0:
64,192,69631,1,0,0:0:0:0:
320,192,69631,1,0,0:0:0:0:
64,192,70006,1,0,0:0:0:0:
320,192,70194,1,0,0:0:0:0:
192,192,70194,1,0,0:0:0:0:
448,192,70569,1,0,0:0:0:0:
64,192,70756,1,0,0:0:0:0:
192,192,70944,1,0,0:0:0:0:
448,192,71319,1,0,0:0:0:0:
320,192,71319,1,0,0:0:0:0:
448,192,71694,1,0,0:0:0:0:
320,192,71694,1,0,0:0:0:0:
192,192,72069,1,0,0:0:0:0:
64,192,72069,1,0,0:0:0:0:
320,192,72444,1,0,0:0:0:0:
192,192,72631,1,0,0:0:0:0:
448,192,72819,1,0,0:0:0:0:
320,192,73194,1,0,0:0:0:0:
64,192,73194,1,0,0:0:0:0:
192,192,73569,1,0,0:0:0:0:
448,192,73944,1,0,0:0:0:0:
64,192,73944,1,0,0:0:0:0:
320,192,74319,1,0,0:0:0:0:
192,192,74319,1,0,0:0:0:0:
448,192,74694,1,0,0:0:0:0:
64,192,74694,1,0,0:0:0:0:
320,192,74881,1,0,0:0:0:0:
448,192,75069,1,0,0:0:0:0:
192,192,75069,1,0,0:0:0:0:
448,192,75350,1,0,0:0:0:0:
64,192,75631,1,0,0:0:0:0:
320,192,75631,1,0,0:0:0:0:
64,192,76006,1,0,0:0:0:0:
320,192,76194,1,0,0:0:0:0:
192,192,76194,1,0,0:0:0:0:
448,192,76569,1,0,0:0:0:0:
64,192,76944,1,0,0:0:0:0:
448,192,77319,1,0,0:0:0:0:
320,192,77319,1,0,0:0:0:0:
448,192,77694,1,0,0:0:0:0:
320,192,77694,1,0,0:0:0:0:
448,192,78069,1,0,0:0:0:0:
64,192,78069,1,0,0:0:0:0:
320,192,78819,1,0,0:0:0:0:
192,192,79569,1,0,0:0:0:0:
448,192,80319,1,0,0:0:0:0:
64,192,81069,1,0,0:0:0:0:
192,192,81819,1,0,0:0:0:0:
448,192,82569,1,0,0:0:0:0:
320,192,82944,1,0,0:0:0:0:
192,192,83131,1,0,0:0:0:0:
64,192,83319,1,0,0:0:0:0:
448,192,83506,1,0,0:0:0:0:
192,192,83694,1,0,0:0:0:0:
320,192,83881,1,0,0:0:0:0:
192,192,84069,1,0,0:0:0:0:
64,192,84069,1,0,0:0:0:0:
448,192,84256,1,0,0:0:0:0:
64,192,84444,1,0,0:0:0:0:
320,192,84819,1,0,0:0:0:0:
192,192,85569,1,0,0:0:0:0:
448,192,86319,1,0,0:0:0:0:
64,192,87069,1,0,0:0:0:0:
192,192,87819,1,0,0:0:0:0:
448,192,88569,1,0,0:0:0:0:
320,192,88944,1,0,0:0:0:0:
192,192,89131,1,0,0:0:0:0:
64,192,89319,1,0,0:0:0:0:
320,192,89694,1,0,0:0:0:0:
192,192,89881,1,0,0:0:0:0:
448,192,90069,1,0,0:0:0:0:
64,192,90069,1,0,0:0:0:0:
320,192,90444,1,0,0:0:0:0:
192,192,90444,1,0,0:0:0:0:
448,192,90819,1,0,0:0:0:0:
192,192,90819,1,0,0:0:0:0:
448,192,91194,1,0,0:0:0:0:
64,192,91194,1,0,0:0:0:0:
320,192,91569,1,0,0:0:0:0:
192,192,91569,1,0,0:0:0:0:
448,192,91944,1,0,0:0:0:0:
192,192,91944,1,0,0:0:0:0:
448,192,92319,1,0,0:0:0:0:
320,192,92319,1,0,0:0:0:0:
192,192,92694,1,0,0:0:0:0:
64,192,92694,1,0,0:0:0:0:
320,192,93069,1,0,0:0:0:0:
64,192,93069,1,0,0:0:0:0:
320,192,93444,1,0,0:0:0:0:
192,192,93444,1,0,0:0:0:0:
448,192,93819,1,0,0:0:0:0:
192,192,93819,1,0,0:0:0:0:
448,192,94194,1,0,0:0:0:0:
64,192,94194,1,0,0:0:0:0:
320,192,94569,1,0,0:0:0:0:
192,192,94569,1,0,0:0:0:0:
64,192,94944,1,0,0:0:0:0:
448,192,95319,1,0,0:0:0:0:
192,192,95319,1,0,0:0:0:0:
64,192,95506,1,0,0:0:0:0:
320,192,95694,1,0,0:0:0:0:
192,192,95881,1,0,0:0:0:0:
448,192,96069,1,0,0:0:0:0:
64,192,96069,1,0,0:0:0:0:
320,192,96444,1,0,0:0:0:0:
192,192,96444,1,0,0:0:0:0:
448,192,96819,1,0,0:0:0:0:
192,192,96819,1,0,0:0:0:0:
448,192,97194,1,0,0:0:0:0:
64,192,97194,1,0,0:0:0:0:
320,192,97569,1,0,0:0:0:0:
192,192,97569,1,0,0:0:0:0:
448,192,97944,1,0,0:0:0:0:
192,192,97944,1,0,0:0:0:0:
448,192,98319,1,0,0:0:0:0:
320,192,98319,1,0,0:0:0:0:
192,192,98694,1,0,0:0:0:0:
64,192,98694,1,0,0:0:0:0:
320,192,99069,1,0,0:0:0:0:
64,192,99069,1,0,0:0:0:0:
320,192,99444,1,0,0:0:0:0:
192,192,99444,1,0,0:0:0:0:
448,192,99819,1,0,0:0:0:0:
192,192,99819,1,0,0:0:0:0:
448,192,100194,1,0,0:0:0:0:
64,192,100194,1,0,0:0:0:0:
320,192,100569,1,0,0:0:0:0:
192,192,100569,128,0,100944:0:0:0:0:
448,192,100944,128,0,101319:0:0:0:0:
192,192,101319,128,0,101694:0:0:0:0:
448,192,101694,128,0,102069:0:0:0:0:
320,192,102069,1,0,0:0:0:0:
64,192,102069,1,0,0:0:0:0:
448,192,102444,1,0,0:0:0:0:
320,192,102444,1,0,0:0:0:0:
192,192,102631,1,0,0:0:0:0:
64,192,102631,1,0,0:0:0:0:
448,192,102819,128,0,103194:0:0:0:0:
64,192,102819,128,0,103194:0:0:0:0:
