osu file format v14

[General]
AudioFilename: audio.mp3
AudioLeadIn: 0
PreviewTime: 43662
Countdown: 0
SampleSet: Normal
StackLeniency: 0.7
Mode: 1
LetterboxInBreaks: 0
WidescreenStoryboard: 1

[Editor]
DistanceSpacing: 1.2
BeatDivisor: 2
GridSize: 32
TimelineZoom: 1.7

[Metadata]
Title:Myosotis
TitleUnicode:Myosotis
Artist:M2U
ArtistUnicode:M2U
Creator:salchow
Version:Futsuu
Source:Deemo
Tags:nicode guriri lucy rayark mobile collection vol. 2 magnolia forget-me-not dubstep Gemu- Game rock
BeatmapID:1329073
BeatmapSetID:629552

[Difficulty]
HPDrainRate:7
CircleSize:5
OverallDifficulty:4
ApproachRate:5
SliderMultiplier:1.4
SliderTickRate:1

[Events]
//Background and Video events
0,0,"KiH2hth.jpg",0,0
//Break Periods
//Storyboard Layer 0 (Background)
//Storyboard Layer 1 (Fail)
//Storyboard Layer 2 (Pass)
//Storyboard Layer 3 (Foreground)
//Storyboard Sound Samples

[TimingPoints]
1662.68685685907,375.000807453416,4,1,0,100,1,0
78162,-100,4,1,0,100,0,1
102162,-100,4,1,0,100,0,0

[HitObjects]
256,192,1662,5,0,0:0:0:0:
260,191,2412,1,8,0:0:0:0:
256,192,3162,1,0,0:0:0:0:
256,192,3912,1,8,0:0:0:0:
256,192,4287,1,0,0:0:0:0:
256,192,4662,1,8,0:0:0:0:
256,192,6162,1,0,0:0:0:0:
256,192,6912,1,8,0:0:0:0:
256,192,7662,1,0,0:0:0:0:
256,192,8412,1,8,0:0:0:0:
256,192,8787,1,0,0:0:0:0:
256,192,9162,1,8,0:0:0:0:
256,192,10662,1,0,0:0:0:0:
256,192,11412,1,8,0:0:0:0:
256,192,12162,1,0,0:0:0:0:
256,192,13662,12,0,18162,0:0:0:0:
256,192,19662,5,4,0:0:0:0:
256,192,20037,1,8,0:0:0:0:
256,192,20412,1,8,0:0:0:0:
256,192,20600,1,0,0:0:0:0:
256,192,20787,1,8,0:0:0:0:
256,192,21162,1,0,0:0:0:0:
256,192,21912,1,8,0:0:0:0:
256,192,22287,1,0,0:0:0:0:
256,192,22662,1,8,0:0:0:0:
256,192,23412,1,8,0:0:0:0:
256,192,24162,1,8,0:0:0:0:
256,192,24912,1,0,0:0:0:0:
256,192,25662,1,0,0:0:0:0:
256,192,26412,1,8,0:0:0:0:
256,192,26600,1,0,0:0:0:0:
256,192,26787,1,8,0:0:0:0:
256,192,27162,1,0,0:0:0:0:
251,192,27912,1,8,0:0:0:0:
257,185,28287,1,0,0:0:0:0:
256,192,28662,1,8,0:0:0:0:
256,192,29412,1,8,0:0:0:0:
256,192,30162,12,0,32412,0:0:0:0:
256,192,33162,5,0,0:0:0:0:
256,192,33537,1,8,0:0:0:0:
256,192,33912,1,0,0:0:0:0:
256,192,34100,1,8,0:0:0:0:
256,192,34287,1,0,0:0:0:0:
256,192,34662,1,8,0:0:0:0:
256,192,35412,1,0,0:0:0:0:
256,192,35787,1,0,0:0:0:0:
256,192,36162,1,8,0:0:0:0:
256,192,36912,1,8,0:0:0:0:
256,192,37287,1,0,0:0:0:0:
256,192,37475,1,0,0:0:0:0:
256,192,37662,1,8,0:0:0:0:
256,192,38037,1,0,0:0:0:0:
256,192,38412,1,8,0:0:0:0:
256,192,38787,1,8,0:0:0:0:
256,192,39162,1,0,0:0:0:0:
256,192,39912,1,0,0:0:0:0:
256,192,40662,1,8,0:0:0:0:
256,192,41037,1,0,0:0:0:0:
256,192,41412,1,8,0:0:0:0:
256,192,42162,1,8,0:0:0:0:
256,192,42537,1,8,0:0:0:0:
256,192,42912,1,0,0:0:0:0:
256,192,43287,1,0,0:0:0:0:
256,192,43662,1,4,0:0:0:0:
256,192,44412,1,8,0:0:0:0:
256,192,44975,1,8,0:0:0:0:
256,192,45162,1,0,0:0:0:0:
256,192,45912,1,8,0:0:0:0:
256,192,46287,1,0,0:0:0:0:
256,192,46662,1,8,0:0:0:0:
256,192,47412,1,0,0:0:0:0:
256,192,48162,1,8,0:0:0:0:
256,192,48912,1,8,0:0:0:0:
256,192,49100,1,0,0:0:0:0:
256,192,49287,1,8,0:0:0:0:
256,192,49662,1,0,0:0:0:0:
256,192,50412,1,8,0:0:0:0:
256,192,50975,1,8,0:0:0:0:
256,192,51162,1,0,0:0:0:0:
256,192,51537,1,0,0:0:0:0:
256,192,51912,1,8,0:0:0:0:
256,192,52662,1,8,0:0:0:0:
256,192,53037,1,0,0:0:0:0:
256,192,53412,1,8,0:0:0:0:
256,192,54162,1,0,0:0:0:0:
256,192,54537,1,8,0:0:0:0:
256,192,54725,1,8,0:0:0:0:
256,192,54912,1,0,0:0:0:0:
256,192,55287,1,0,0:0:0:0:
256,192,55662,5,0,0:0:0:0:
256,192,56412,1,8,0:0:0:0:
256,192,56975,1,8,0:0:0:0:
256,192,57162,1,0,0:0:0:0:
256,192,57912,1,8,0:0:0:0:
256,192,58287,1,0,0:0:0:0:
256,192,58662,1,8,0:0:0:0:
256,192,59412,1,0,0:0:0:0:
256,192,60162,1,8,0:0:0:0:
256,192,60912,1,8,0:0:0:0:
256,192,61100,1,0,0:0:0:0:
256,192,61287,1,8,0:0:0:0:
256,192,61662,1,0,0:0:0:0:
256,192,62412,1,8,0:0:0:0:
256,192,62975,1,8,0:0:0:0:
256,192,63162,1,0,0:0:0:0:
256,192,63537,1,0,0:0:0:0:
256,192,63912,1,8,0:0:0:0:
256,192,64662,1,8,0:0:0:0:
256,192,65037,1,0,0:0:0:0:
256,192,65412,1,8,0:0:0:0:
256,192,66162,1,0,0:0:0:0:
256,192,66537,1,0,0:0:0:0:
256,192,66912,1,0,0:0:0:0:
256,192,67662,1,8,0:0:0:0:
256,192,68037,1,8,0:0:0:0:
256,192,68412,1,8,0:0:0:0:
256,192,69162,1,0,0:0:0:0:
256,192,69350,1,0,0:0:0:0:
256,192,69537,1,0,0:0:0:0:
256,192,69725,1,0,0:0:0:0:
256,192,69912,1,0,0:0:0:0:
256,192,70287,1,0,0:0:0:0:
256,192,70662,6,0,B|377:120|377:120|247:59|247:59|256:216,1,420
256,192,72162,1,0,0:0:0:0:
256,192,72912,1,8,0:0:0:0:
256,192,73287,1,0,0:0:0:0:
256,192,73662,1,0,0:0:0:0:
256,192,74412,1,8,0:0:0:0:
256,192,74787,1,0,0:0:0:0:
256,192,75162,1,8,0:0:0:0:
256,192,75912,12,0,77412,0:0:0:0:
256,192,78162,5,4,0:0:0:0:
256,192,78912,1,8,0:0:0:0:
256,192,79287,1,8,0:0:0:0:
256,192,79662,1,0,0:0:0:0:
256,192,79850,1,0,0:0:0:0:
256,192,80037,1,8,0:0:0:0:
256,192,80412,1,8,0:0:0:0:
256,192,80787,1,0,0:0:0:0:
256,192,81162,1,8,0:0:0:0:
256,192,81912,1,0,0:0:0:0:
256,192,82287,1,0,0:0:0:0:
256,192,82475,1,8,0:0:0:0:
256,192,82850,1,8,0:0:0:0:
256,192,83037,1,0,0:0:0:0:
256,192,83412,1,8,0:0:0:0:
256,192,83787,1,8,0:0:0:0:
256,192,84162,1,4,0:0:0:0:
256,192,84912,1,8,0:0:0:0:
256,192,85287,1,8,0:0:0:0:
256,192,85662,1,0,0:0:0:0:
256,192,85850,1,0,0:0:0:0:
256,192,86037,1,8,0:0:0:0:
256,192,86412,1,8,0:0:0:0:
256,192,86787,1,0,0:0:0:0:
256,192,87162,1,8,0:0:0:0:
256,192,87912,1,0,0:0:0:0:
256,192,88100,1,8,0:0:0:0:
256,192,88662,1,0,0:0:0:0:
256,192,89412,1,8,0:0:0:0:
256,192,89600,1,0,0:0:0:0:
256,192,89787,1,8,0:0:0:0:
256,192,90162,1,4,0:0:0:0:
256,192,90912,1,8,0:0:0:0:
256,192,91287,1,8,0:0:0:0:
256,192,91662,1,0,0:0:0:0:
256,192,91850,1,0,0:0:0:0:
256,192,92037,1,8,0:0:0:0:
256,192,92412,1,8,0:0:0:0:
256,192,92787,1,0,0:0:0:0:
256,192,93162,1,8,0:0:0:0:
256,192,93912,1,0,0:0:0:0:
256,192,94287,1,0,0:0:0:0:
256,192,94475,1,8,0:0:0:0:
256,192,94850,1,8,0:0:0:0:
256,192,95037,1,0,0:0:0:0:
256,192,95412,1,8,0:0:0:0:
256,192,95787,1,8,0:0:0:0:
256,192,96162,1,0,0:0:0:0:
256,192,96912,1,8,0:0:0:0:
256,192,97287,1,8,0:0:0:0:
259,196,97662,1,0,0:0:0:0:
256,192,97850,1,0,0:0:0:0:
256,192,98037,1,8,0:0:0:0:
256,192,98412,1,8,0:0:0:0:
256,192,98787,1,0,0:0:0:0:
256,192,99162,1,8,0:0:0:0:
256,192,99912,1,0,0:0:0:0:
256,192,100662,1,8,0:0:0:0:
256,192,101412,1,0,0:0:0:0:
256,192,102162,1,0,0:0:0:0:
256,192,102537,1,8,0:0:0:0:
256,192,102725,1,8,0:0:0:0:
256,192,102912,1,0,0:0:0:0:
256,192,103287,1,8,0:0:0:0:
256,192,103662,1,0,0:0:0:0:
256,192,104412,1,8,0:0:0:0:
256,192,105162,1,0,0:0:0:0:
256,192,105537,1,0,0:0:0:0:
256,192,105912,1,8,0:0:0:0:
256,192,106662,1,0,0:0:0:0:
256,192,107412,1,8,0:0:0:0:
256,192,108162,1,0,0:0:0:0:
262,197,108912,1,0,0:0:0:0:
256,192,109287,1,8,0:0:0:0:
256,192,109662,1,0,0:0:0:0:
256,192,110412,1,8,0:0:0:0:
256,192,110600,1,0,0:0:0:0:
256,192,110787,1,8,0:0:0:0:
256,192,111162,1,0,0:0:0:0:
256,192,111537,1,8,0:0:0:0:
256,192,111912,1,8,0:0:0:0:
256,192,112287,1,0,0:0:0:0:
256,192,112475,1,0,0:0:0:0:
256,192,112662,1,8,0:0:0:0:
256,192,113412,1,0,0:0:0:0:
256,192,113787,1,8,0:0:0:0:
256,192,113975,1,8,0:0:0:0:
256,192,114162,1,0,0:0:0:0:
256,192,114537,1,8,0:0:0:0:
256,192,114912,1,0,0:0:0:0:
256,192,115662,1,0,0:0:0:0:
256,192,116412,1,8,0:0:0:0:
256,192,117162,12,0,118287,0:0:0:0:
256,192,118662,5,0,0:0:0:0:
256,192,119412,1,8,0:0:0:0:
256,192,119787,1,0,0:0:0:0:
256,192,120162,1,0,0:0:0:0:
256,192,120912,1,8,0:0:0:0:
256,192,121662,1,0,0:0:0:0:
256,192,122412,1,8,0:0:0:0:
256,192,122787,1,0,0:0:0:0:
256,192,123162,1,0,0:0:0:0:
256,192,123912,1,0,0:0:0:0:
256,192,124287,1,8,0:0:0:0:
256,192,124662,1,0,0:0:0:0:
256,192,125412,1,8,0:0:0:0:
256,192,126162,1,0,0:0:0:0:
256,192,126912,1,0,0:0:0:0:
256,192,127287,1,8,0:0:0:0:
256,192,127662,1,0,0:0:0:0:
256,192,128412,12,0,129912,0:0:0:0:
256,192,130662,5,12,0:0:0:0:
