osu file format v14

[General]
AudioFilename: audio.mp3
AudioLeadIn: 0
PreviewTime: 33007
Countdown: 0
SampleSet: Soft
StackLeniency: 0.3
Mode: 0
LetterboxInBreaks: 0
WidescreenStoryboard: 0

[Editor]
Bookmarks: 78007,90007,102007,130507
DistanceSpacing: 0.9
BeatDivisor: 4
GridSize: 4
TimelineZoom: 2.1

[Metadata]
Title:Myosotis
TitleUnicode:Myosotis
Artist:M2U
ArtistUnicode:M2U
Creator:meii18
Version:Normal
Source:Deemo
Tags:Rayark Inc. NICODE nicode Guriri Lucy -Faded-
BeatmapID:1396119
BeatmapSetID:659202

[Difficulty]
HPDrainRate:4
CircleSize:3.3
OverallDifficulty:4
ApproachRate:5
SliderMultiplier:1.2
SliderTickRate:1

[Events]
//Background and Video events
0,0,"841497.png",0,0
//Break Periods
//Storyboard Layer 0 (Background)
//Storyboard Layer 1 (Fail)
//Storyboard Layer 2 (Pass)
//Storyboard Layer 3 (Foreground)
//Storyboard Layer 4 (Overlay)
//Storyboard Sound Samples

[TimingPoints]
1507,375,4,2,1,40,1,0
1507,-133.333333333333,4,2,1,40,0,0
19507,-100,4,2,1,60,0,0
33007,-100,4,2,1,40,0,0
38257,-100,4,2,1,55,0,0
38632,-100,4,2,1,50,0,0
39007,-100,4,2,1,40,0,0
39757,-100,4,2,1,55,0,0
40507,-100,4,2,1,60,0,0
42007,-100,4,2,1,50,0,0
42757,-100,4,2,1,55,0,0
43507,-100,4,2,1,60,0,0
78757,-100,4,2,1,60,0,1
90007,-100,4,2,1,60,0,0
90757,-100,4,2,1,60,0,1
102007,-100,4,2,1,50,0,0
103132,-100,4,2,1,60,0,0
103507,-100,4,2,1,50,0,0
108757,-100,4,2,1,55,0,0
109132,-100,4,2,1,60,0,0
118507,-133.333333333333,4,2,1,50,0,0

[Colours]
Combo1 : 255,100,100
Combo2 : 234,234,0
Combo3 : 255,192,130

[HitObjects]
73,117,1507,6,0,B|153:112|153:112|190:131|190:131|258:126,1,180.000006866455
422,33,3007,2,0,L|414:139,1,90.0000034332277
320,150,3757,2,0,L|333:252,1,90.0000034332277
400,309,4507,6,0,P|358:274|259:334,1,180.000006866455
183,264,5632,1,0,0:0:0:0:
109,330,6007,2,0,P|69:288|28:280,2,90.0000034332277
183,264,7132,1,0,0:0:0:0:
227,175,7507,6,0,B|266:158|321:179|321:179|361:192|406:176,1,180.000006866455
478,112,8632,1,0,0:0:0:0:
399,51,9007,2,0,B|360:68|305:47|305:47|265:34|220:50,1,180.000006866455
133,91,10132,1,0,0:0:0:0:
63,161,10507,1,0,0:0:0:0:
62,161,11257,6,0,B|76:209|76:209|65:254,1,90.0000034332277
46,345,12007,2,0,P|79:294|171:348,1,180.000006866455
256,192,13507,12,0,18007,0:0:0:0:
264,24,19507,5,0,0:0:0:0:
167,71,19882,2,0,P|122:86|91:83,1,60
68,50,20257,2,0,L|81:183,1,120
109,214,20819,1,0,0:0:0:0:
141,257,21007,2,0,B|226:256|226:256|251:241|251:241|339:243,1,180
365,219,21757,2,0,B|352:283|352:283|373:340,1,120
463,278,22507,5,0,0:0:0:0:
488,173,22882,2,0,L|478:112,1,60
472,59,23257,2,0,P|452:105|373:123,1,120
353,86,23819,1,0,0:0:0:0:
305,112,24007,2,0,P|250:129|139:61,1,180
104,42,24757,2,0,L|114:175,1,120
59,255,25507,5,0,0:0:0:0:
133,333,25882,2,0,P|183:317|206:318,1,60
235,346,26257,2,0,B|214:287|246:251|246:251|262:205|229:166,1,180
185,156,27007,2,0,B|249:140|249:140|285:90,1,120
371,37,27757,2,0,B|434:23|434:23|489:50,1,120
436,144,28507,6,0,B|421:195|421:195|447:331,1,180
463,370,29257,1,0,0:0:0:0:
359,339,29632,2,0,L|295:336,2,60
256,192,30100,12,0,31882,0:0:0:0:
457,122,33007,6,0,P|394:143|387:314,1,240
395,344,33944,2,0,L|316:342,2,60
446,327,34507,1,0,0:0:0:0:
357,264,34882,2,0,L|279:261,1,60
251,290,35257,2,0,P|264:237|225:168,1,120
203,77,36007,6,0,B|263:103|263:103|455:81,2,240
104,32,37882,2,0,P|111:74|108:107,1,60
66,129,38257,2,0,B|132:129|132:129|194:161,1,120
286,175,39007,6,0,P|218:171|164:311,1,240
200,348,39944,2,0,L|279:335,2,60
151,371,40507,1,0,0:0:0:0:
54,322,40882,2,0,P|50:258|8:208,1,120
49,111,41632,2,0,P|83:114|128:104,1,60
141,67,42007,6,0,B|121:124|121:124|177:175|182:238|134:309,2,240
239,22,43882,5,0,0:0:0:0:
336,67,44257,2,0,B|320:131|320:131|337:192,1,120
374,219,44819,1,0,0:0:0:0:
403,264,45007,2,0,B|342:240|293:263|293:263|215:295|153:260,1,240
75,215,46132,1,0,0:0:0:0:
160,148,46507,6,0,B|182:105|182:105|171:23,2,120
235,225,47632,2,0,P|292:222|317:232,1,60
334,258,48007,2,0,P|317:200|440:227,1,240
474,309,49132,1,0,0:0:0:0:
377,356,49507,6,0,B|326:350|326:350|299:360|299:360|238:354,1,120
152,338,50257,2,0,B|182:287|182:287|167:163,1,180
124,134,51007,2,0,P|184:142|237:102,2,120
40,65,52132,1,0,0:0:0:0:
137,18,52507,6,0,L|268:25,1,120
283,129,53257,2,0,L|406:118,1,120
457,24,54007,2,0,B|442:118|442:118|465:169|465:169|447:267,1,240
373,334,55132,1,0,0:0:0:0:
272,294,55507,6,0,B|208:281|208:281|151:306,1,120
73,370,56257,2,0,P|111:323|51:226,1,180
22,190,57007,2,0,B|86:203|86:203|148:184,1,120
239,149,57757,2,0,P|223:208|245:268,1,120
328,325,58507,6,0,P|341:260|308:195,2,120
230,371,59632,2,0,B|196:364|196:364|152:373,1,60
143,322,60007,2,0,P|198:322|131:235,1,240
39,271,61132,1,0,0:0:0:0:
55,164,61507,6,0,P|90:134|176:115,1,120
266,130,62257,2,0,B|313:178|313:178|438:165,1,180
466,131,63007,2,0,P|450:190|480:247,2,120
416,35,64132,1,0,0:0:0:0:
320,85,64507,2,0,P|251:80|206:35,1,120
121,104,65257,2,0,P|154:174|132:231,1,120
56,269,66007,6,0,B|106:238|172:268|172:268|231:295|303:268,1,240
360,193,67132,1,0,0:0:0:0:
281,119,67507,2,0,P|262:82|276:6,2,120
360,193,68632,1,0,0:0:0:0:
317,292,69007,6,0,B|397:283|397:283|428:298|428:298|502:290,2,180
212,263,70507,2,0,P|203:321|89:258,1,240
149,181,71632,1,0,0:0:0:0:
214,95,72007,6,0,P|265:127|397:27,2,240
141,15,73882,1,0,0:0:0:0:
66,93,74257,1,0,0:0:0:0:
147,163,74632,2,0,L|137:232,1,60
167,268,75007,5,0,0:0:0:0:
256,192,75100,12,0,76882,0:0:0:0:
256,192,78007,5,0,0:0:0:0:
346,133,78382,2,0,L|337:62,1,60
311,26,78757,6,0,B|263:62|263:62|143:47,1,180
91,35,79507,1,0,0:0:0:0:
43,131,79882,2,0,B|60:198|60:198|38:252,2,120
147,159,81007,2,0,P|171:203|264:138,1,180
244,109,81757,6,0,P|296:128|355:108,1,120
392,69,82319,1,0,0:0:0:0:
437,166,82694,2,0,L|426:296,1,120
391,326,83257,1,0,0:0:0:0:
302,264,83632,2,0,P|264:258|223:266,1,60
203,297,84007,2,0,B|225:228|225:228|191:116,1,180
177,73,84757,5,0,0:0:0:0:
276,31,85132,2,0,B|310:38|310:38|356:29,1,60
386,18,85507,2,0,P|365:75|397:147,1,120
437,222,86257,1,0,0:0:0:0:
388,318,86632,2,0,L|326:323,1,60
279,345,87007,6,0,B|294:301|275:266|275:266|295:235|295:235|276:205|291:163,1,180
281,121,87757,1,0,0:0:0:0:
233,96,87944,2,0,B|173:80|173:80|102:103,1,120
67,118,88507,1,0,0:0:0:0:
41,165,88694,6,0,B|73:209|127:202|127:202|167:176|214:189,1,180
310,206,89632,1,0,0:0:0:0:
408,249,90007,2,0,P|384:312|402:371,1,120
503,374,90757,6,0,B|493:298|493:298|506:263|506:263|500:191,1,180
498,143,91507,1,0,0:0:0:0:
408,82,91882,2,0,P|353:88|293:52,2,120
424,188,93007,2,0,B|336:166|336:166|244:203,1,180
233,249,93757,6,0,P|212:211|132:188,1,120
89,196,94319,1,0,0:0:0:0:
128,95,94694,2,0,B|206:102|206:102|238:92|238:92|312:99,2,180
98,49,96007,1,0,0:0:0:0:
40,140,96382,2,0,L|46:212,1,60
18,247,96757,6,0,P|73:227|138:248,2,120
78,336,97882,1,0,0:0:0:0:
185,321,98257,1,0,0:0:0:0:
292,312,98632,2,0,L|376:306,1,60
395,339,99007,6,0,B|364:280|364:280|388:170,1,180
402,116,99757,1,0,0:0:0:0:
312,55,100132,2,0,P|271:37|238:37,1,60
202,37,100507,1,0,0:0:0:0:
165,76,100694,2,0,L|175:257,2,180
120,44,102007,5,0,0:0:0:0:
53,129,102382,1,0,0:0:0:0:
22,232,102757,2,0,P|42:278|18:350,1,120
131,355,103507,6,0,B|177:317|177:317|311:329,1,180
344,352,104257,2,0,P|332:294|367:233,1,120
438,169,105007,2,0,P|382:184|266:60,1,240
177,6,106132,1,0,0:0:0:0:
86,64,106507,6,0,P|89:120|47:177,1,120
24,275,107257,2,0,B|86:249|86:249|201:274,1,180
250,283,108007,1,0,0:0:0:0:
357,269,108382,2,0,B|334:331|334:331|356:383,2,120
441,201,109507,6,0,P|460:143|386:41,1,180
352,68,110257,2,0,B|290:79|290:79|226:55,1,120
132,30,111007,2,0,L|144:154,2,120
55,106,112132,1,0,0:0:0:0:
52,213,112507,6,0,P|115:253|218:232,1,180
233,183,113257,2,0,P|256:226|341:249,1,120
427,242,114007,2,0,B|413:318|413:318|431:361,2,120
481,148,115132,2,0,P|479:110|461:73,1,60
431,52,115507,6,0,B|381:39|344:59|344:59|304:76|246:58,1,180
208,33,116257,2,0,L|215:155,1,120
163,247,117007,2,0,P|191:193|288:279,2,240
355,345,119257,6,0,P|400:329|460:339,1,90.0000034332277
482,241,120007,2,0,P|469:202|481:144,2,90.0000034332277
441,332,121132,1,0,0:0:0:0:
374,258,121507,2,0,B|323:236|323:236|229:256,1,135.000005149841
219,295,122257,2,0,P|223:252|114:220,1,180.000006866455
39,283,123382,2,0,L|31:186,2,90.0000034332277
114,219,124507,6,0,L|103:72,1,135.000005149841
99,34,125257,2,0,P|141:62|191:61,1,90.0000034332277
278,53,126007,2,0,B|253:112|253:112|276:240,1,180.000006866455
302,320,127132,1,0,0:0:0:0:
393,283,127507,5,0,0:0:0:0:
256,192,127600,12,0,130507,0:0:0:0:
