osu file format v14

[General]
AudioFilename: audio.mp3
AudioLeadIn: 0
PreviewTime: 54568
Countdown: 0
SampleSet: None
StackLeniency: 0.4
Mode: 0
LetterboxInBreaks: 0
WidescreenStoryboard: 0

[Editor]
Bookmarks: 18568,32068,42568,54568,65068,71068,77068,83068,89068,101068,113068,120568,129568,141568
DistanceSpacing: 0.8
BeatDivisor: 4
GridSize: 4
TimelineZoom: 2.5

[Metadata]
Title:Myosotis (feat. Guriri, Lucy) (VIP Remix)
TitleUnicode:Myosotis (feat.グリリ, Lucy) (VIP Remix)
Artist:M2U
ArtistUnicode:M2U
Creator:Yuguiboy
Version:Magnoliopsida
Source:
Tags:diversity electronic vip remix
BeatmapID:2010801
BeatmapSetID:960440

[Difficulty]
HPDrainRate:4
CircleSize:4
OverallDifficulty:9
ApproachRate:9.4
SliderMultiplier:1.5
SliderTickRate:1

[Events]
//Background and Video events
0,0,"yande.png",0,0
//Break Periods
//Storyboard Layer 0 (Background)
//Storyboard Layer 1 (Fail)
//Storyboard Layer 2 (Pass)
//Storyboard Layer 3 (Foreground)
//Storyboard Sound Samples

[TimingPoints]
568,375,4,3,0,50,1,0
568,-133.333333333333,4,3,0,50,0,0
2068,-181.818181818181,4,3,0,50,0,0
2443,-222.222222222221,4,3,0,50,0,0
2818,-285.714285714284,4,3,0,50,0,0
3193,-399.999999999997,4,3,0,50,0,0
3568,-500,4,3,0,50,0,0
4318,-133.333333333333,4,3,0,50,0,0
6568,-500,4,3,0,50,0,0
6943,-400,4,3,0,50,0,0
7318,-285.714285714286,4,3,0,50,0,0
7693,-222.222222222222,4,3,0,50,0,0
8068,-181.818181818182,4,3,0,50,0,0
8818,-222.222222222223,4,3,0,50,0,0
9193,-285.714285714287,4,3,0,50,0,0
9568,-400.000000000002,4,3,0,50,0,0
10318,-133.333333333333,4,3,0,50,0,0
12568,-222.222222222221,4,3,0,50,0,0
13130,-111.111111111111,4,3,0,50,0,0
15568,-90.9090909090909,4,3,0,50,0,0
16318,-100,4,3,0,50,0,0
16505,-125,4,3,0,50,0,0
16693,-90.9090909090909,4,3,0,50,0,0
18568,-76.9230769230769,4,3,0,50,0,0
19318,-200,4,3,0,50,0,0
20068,-90.9090909090909,4,3,0,50,0,0
20818,-66.6666666666667,4,3,0,50,0,0
21568,-76.9230769230769,4,3,0,50,0,0
22318,-200,4,3,0,50,0,0
23068,-90.9090909090909,4,3,0,50,0,0
24568,-76.9230769230769,4,3,0,50,0,0
25318,-200,4,3,0,50,0,0
26068,-90.9090909090909,4,3,0,50,0,0
26818,-66.6666666666667,4,3,0,50,0,0
27568,-76.9230769230769,4,3,0,50,0,0
28318,-200,4,3,0,50,0,0
29068,-133.333333333333,4,3,0,50,0,0
32068,-100,4,3,0,50,0,0
34693,-200,4,3,0,50,0,0
35068,-100,4,3,0,50,0,0
35443,-200,4,3,0,50,0,0
35818,-83.3333333333333,4,3,0,50,0,0
37693,-100,4,3,0,50,0,0
39568,-83.3333333333333,4,3,0,50,0,0
40318,-125,4,3,0,50,0,0
40693,-100,4,3,0,50,0,0
42568,-71.4285714285714,4,3,0,50,0,0
51193,-250,4,3,0,50,0,0
51568,-71.4285714285714,4,3,0,50,0,0
52693,-250,4,3,0,50,0,0
53443,-100,4,3,0,50,0,0
53818,-40,4,3,0,50,0,0
54568,-66.6666666666667,4,3,0,50,0,0
63193,-250,4,3,0,50,0,0
63568,-66.6666666666667,4,3,0,50,0,0
64693,-125,4,3,0,50,0,0
68068,-83.3333333333333,4,3,0,50,0,0
71068,-71.4285714285714,4,3,0,50,0,0
73693,-125,4,3,0,50,0,0
74818,-250,4,3,0,50,0,0
76318,-100,4,3,0,50,0,0
77068,-58.8235294117647,4,3,0,50,0,0
83068,-52.6315789473684,4,3,0,50,0,0
87193,-33.3333333333333,4,3,0,50,0,0
87568,-125,4,3,0,50,0,0
88693,-50,4,3,0,50,0,0
89068,-40,4,3,0,50,0,1
89818,-35.7142857142857,4,3,0,50,0,1
90005,-34.4827586206897,4,3,0,50,0,1
90193,-33.3333333333333,4,3,0,50,0,1
90380,-32.258064516129,4,3,0,50,0,1
90568,-31.25,4,3,0,50,0,1
90755,-30.3030303030303,4,3,0,50,0,1
90943,-27.7777777777778,4,3,0,50,0,1
91318,-35.7142857142857,4,3,0,50,0,1
91505,-34.4827586206897,4,3,0,50,0,1
91693,-27.7777777777778,4,3,0,50,0,1
92068,-40,4,3,0,50,0,1
92818,-35.7142857142857,4,3,0,50,0,1
93005,-34.4827586206897,4,3,0,50,0,1
93193,-33.3333333333333,4,3,0,50,0,1
93380,-32.258064516129,4,3,0,50,0,1
93568,-29.4117647058824,4,3,0,50,0,1
93943,-31.2500000000001,4,3,0,50,0,1
94318,-28.5714285714287,4,3,0,50,0,1
94693,-27.7777777777779,4,3,0,50,0,1
95068,-40,4,3,0,50,0,1
95818,-35.7142857142857,4,3,0,50,0,1
96005,-34.4827586206897,4,3,0,50,0,1
96193,-33.3333333333333,4,3,0,50,0,1
96380,-32.258064516129,4,3,0,50,0,1
96568,-31.25,4,3,0,50,0,1
96755,-30.3030303030303,4,3,0,50,0,1
96943,-27.7777777777779,4,3,0,50,0,1
97318,-35.714285714286,4,3,0,50,0,1
97693,-27.7777777777779,4,3,0,50,0,1
98068,-40,4,3,0,50,0,1
99193,-25,4,3,0,50,0,1
99943,-40,4,3,0,50,0,1
101443,-33.3333333333333,4,3,0,50,0,1
101818,-35.7142857142857,4,3,0,50,0,1
102005,-34.4827586206897,4,3,0,50,0,1
102193,-33.3333333333333,4,3,0,50,0,1
102380,-32.258064516129,4,3,0,50,0,1
102568,-31.25,4,3,0,50,0,1
102755,-30.3030303030303,4,3,0,50,0,1
102943,-27.7777777777778,4,3,0,50,0,1
103318,-35.7142857142857,4,3,0,50,0,1
103693,-27.7777777777778,4,3,0,50,0,1
104068,-40,4,3,0,50,0,1
104818,-35.7142857142857,4,3,0,50,0,1
105005,-34.4827586206897,4,3,0,50,0,1
105193,-33.3333333333333,4,3,0,50,0,1
105380,-32.258064516129,4,3,0,50,0,1
105568,-31.25,4,3,0,50,0,1
106318,-35.7142857142857,4,3,0,50,0,1
106693,-27.7777777777778,4,3,0,50,0,1
107068,-40,4,3,0,50,0,1
107443,-33.3333333333333,4,3,0,50,0,1
107818,-35.7142857142857,4,3,0,50,0,1
108943,-27.7777777777778,4,3,0,50,0,1
109318,-35.7142857142857,4,3,0,50,0,1
109693,-27.7777777777778,4,3,0,50,0,1
110068,-40,4,3,0,50,0,1
111193,-25,4,3,0,50,0,1
111568,-27.7777777777778,4,3,0,50,0,1
112318,-100,4,3,0,50,0,0
114193,-76.9230769230769,4,3,0,50,0,0
114943,-166.666666666667,4,3,0,50,0,0
115693,-100,4,3,0,50,0,0
117568,-166.666666666667,4,3,0,50,0,0
118693,-100,4,3,0,50,0,0
120568,-62.5,4,3,0,50,0,0
127693,-100,4,3,0,50,0,0
128068,-166.666666666667,4,3,0,50,0,0
129568,-100,4,3,0,50,0,0
138568,-400,4,3,0,50,0,0
139318,-100,4,3,0,50,0,0

[HitObjects]
52,53,568,6,0,P|86:96|90:151,1,112.500004291535
171,211,1318,2,0,P|205:120|285:65,1,196.875007510186
285,65,2068,2,0,P|295:95|293:125,1,61.8750018882752
368,158,2443,2,0,P|356:180|337:197,1,50.6249984550477
362,271,2818,2,0,P|342:277|322:276,1,39.3749987983704
287,339,3193,2,0,P|273:332|264:321,1,28.125
227,258,3568,2,0,P|240:249|255:246,1,30
117,345,4318,6,0,P|75:306|68:251,1,112.500004291535
203,180,5068,2,0,P|190:235|146:269,1,112.500004291535
17,188,5818,2,0,P|71:171|122:192,1,112.500004291535
68,53,6568,6,0,P|73:67|81:77,1,22.5
154,81,6943,2,0,P|167:87|184:89,1,28.125
248,33,7318,2,0,P|262:28|282:14,1,39.3749987983704
343,80,7693,2,0,P|326:98|316:122,1,50.6249984550477
416,53,8068,2,0,P|393:18|356:3,1,82.5000025177003
313,201,8818,6,0,P|314:221|320:253,1,50.6249984550477
357,334,9193,2,0,P|373:323|394:305,1,39.3749987983704
450,229,9568,2,0,P|432:219|410:211,1,37.5
31,227,10318,6,0,L|22:340,1,112.500004291535
162,223,11068,2,0,L|181:111,1,112.500004291535
285,271,11818,2,0,L|254:380,1,112.500004291535
181,112,12568,6,0,B|205:67|173:61|198:13,1,101.249996910095
267,56,13318,1,0,0:0:0:0:
267,56,13505,1,0,0:0:0:0:
117,24,13693,1,0,0:0:0:0:
117,24,13880,1,0,0:0:0:0:
181,112,14068,5,0,0:0:0:0:
189,130,14255,1,0,0:0:0:0:
249,173,14443,1,0,0:0:0:0:
323,174,14630,1,0,0:0:0:0:
351,155,14818,1,0,0:0:0:0:
350,141,15005,1,0,0:0:0:0:
343,138,15193,1,0,0:0:0:0:
339,144,15380,1,0,0:0:0:0:
286,238,15568,5,0,0:0:0:0:
284,342,15755,1,0,0:0:0:0:
284,342,15849,1,0,0:0:0:0:
284,342,15943,6,0,P|308:336|326:321,1,41.2500012588501
301,200,16130,2,0,P|297:220|286:238,1,41.2500012588501
205,134,16318,2,0,P|216:151|220:171,1,37.5
100,163,16505,2,0,P|120:167|135:177,1,30
200,264,16693,1,0,0:0:0:0:
200,264,16786,1,0,0:0:0:0:
200,264,16880,1,0,0:0:0:0:
194,270,16974,5,0,0:0:0:0:
155,293,17068,1,0,0:0:0:0:
110,295,17161,1,0,0:0:0:0:
53,252,17255,1,0,0:0:0:0:
31,185,17349,1,0,0:0:0:0:
41,115,17443,1,0,0:0:0:0:
88,64,17536,1,0,0:0:0:0:
129,60,17630,1,0,0:0:0:0:
152,82,17724,1,0,0:0:0:0:
155,102,17818,1,0,0:0:0:0:
148,112,17911,1,0,0:0:0:0:
139,113,18005,6,0,P|148:123|158:144,2,27.5000008392334
228,171,18193,6,0,P|240:165|263:162,5,27.5000008392334
234,69,18568,6,0,P|296:25|437:43,1,194.999991073609
495,70,19130,1,0,0:0:0:0:
475,172,19318,2,0,P|467:126|467:97,1,75
422,226,19880,1,0,0:0:0:0:
403,383,20068,2,0,B|446:307|372:294|423:223,1,165.000005035401
234,213,20630,5,0,0:0:0:0:
306,244,20724,1,0,0:0:0:0:
327,341,20818,2,0,P|315:288|204:205,1,168.750006437302
159,243,21193,1,0,0:0:0:0:
159,243,21380,1,0,0:0:0:0:
41,105,21568,6,0,P|52:157|172:245,1,194.999991073609
201,73,22130,1,0,0:0:0:0:
201,73,22224,1,0,0:0:0:0:
201,73,22318,6,0,P|189:34|201:-2,1,75
371,153,22880,1,0,0:0:0:0:
371,153,22974,1,0,0:0:0:0:
371,153,23068,6,0,B|363:75|286:120|266:31,1,165.000005035401
195,189,23630,1,0,0:0:0:0:
195,189,23724,1,0,0:0:0:0:
195,189,23818,6,0,P|184:211|179:235,1,41.2500012588501
276,205,24005,2,0,P|274:229|266:252,1,41.2500012588501
180,191,24193,2,0,P|169:213|164:237,1,41.2500012588501
287,215,24380,2,0,P|285:239|277:262,1,41.2500012588501
203,306,24568,6,0,B|189:347|206:370|206:370|275:384|339:352,1,194.999991073609
385,267,25130,1,0,0:0:0:0:
408,166,25318,2,0,P|402:209|403:243,1,75
347,98,25880,1,0,0:0:0:0:
488,120,26068,2,0,P|418:74|342:101,1,165.000005035401
269,43,26630,5,0,0:0:0:0:
221,105,26724,1,0,0:0:0:0:
246,205,26818,2,0,B|291:134|211:123|282:25,1,168.750006437302
336,0,27193,1,0,0:0:0:0:
336,0,27380,1,0,0:0:0:0:
343,237,27568,6,0,P|288:300|175:283,1,194.999991073609
49,220,28130,1,0,0:0:0:0:
49,220,28224,1,0,0:0:0:0:
49,220,28318,6,0,P|81:213|125:240,1,75
246,205,28880,1,0,0:0:0:0:
246,205,28974,1,0,0:0:0:0:
246,205,29068,6,0,B|204:130|275:94|275:94|315:126|300:158,1,196.875007510186
322,223,29818,1,0,0:0:0:0:
451,213,30005,1,0,0:0:0:0:
473,267,30099,1,0,0:0:0:0:
460,310,30193,1,0,0:0:0:0:
440,333,30287,1,0,0:0:0:0:
419,342,30380,1,0,0:0:0:0:
402,343,30474,1,0,0:0:0:0:
390,341,30568,6,0,B|277:280|293:385|165:331,1,225.000008583069
60,48,32068,6,0,L|70:175,1,112.5
103,188,32443,2,0,L|97:113,1,75
148,40,32818,1,0,0:0:0:0:
148,40,33005,1,0,0:0:0:0:
228,8,33193,1,0,0:0:0:0:
304,49,33380,1,0,0:0:0:0:
248,186,33568,6,0,P|215:137|223:102,1,75
337,158,33943,1,0,0:0:0:0:
337,158,34130,1,0,0:0:0:0:
309,258,34318,2,0,P|342:182|323:135,1,112.5
360,186,34693,2,0,P|358:216|345:244,1,56.25
358,335,35068,2,0,P|416:315|442:267,1,112.5
440,272,35443,2,0,P|442:308|459:332,1,56.25
470,204,35818,2,0,B|466:170|506:171|532:227|508:285,1,134.999995880127
451,324,36193,1,0,0:0:0:0:
358,335,36380,1,0,0:0:0:0:
289,224,36568,5,0,0:0:0:0:
196,213,36755,1,0,0:0:0:0:
233,300,36943,1,0,0:0:0:0:
253,138,37130,5,0,0:0:0:0:
250,132,37193,1,0,0:0:0:0:
246,126,37255,1,0,0:0:0:0:
241,122,37318,2,0,B|195:113|221:48|119:43,1,134.999995880127
76,215,37693,2,0,B|108:195|70:153|146:121,1,112.5
289,53,38068,6,0,P|339:46|386:50,1,75
478,129,38443,2,0,P|440:129|403:122,1,75
450,35,38818,1,0,0:0:0:0:
317,128,39005,1,0,0:0:0:0:
358,0,39193,5,0,0:0:0:0:
405,155,39380,1,0,0:0:0:0:
389,328,39568,6,0,P|348:279|350:210,1,134.999995880127
480,173,39943,2,0,P|517:227|510:293,1,134.999995880127
405,155,40318,2,0,B|368:120|406:108|377:71,1,90
182,32,40693,5,0,0:0:0:0:
98,174,40880,1,0,0:0:0:0:
240,258,41068,2,0,P|192:291|143:337,1,112.5
144,295,41443,1,0,0:0:0:0:
132,280,41536,1,0,0:0:0:0:
105,265,41630,1,0,0:0:0:0:
67,265,41724,1,0,0:0:0:0:
12,317,41818,5,0,0:0:0:0:
209,26,42193,1,0,0:0:0:0:
369,341,42568,5,0,0:0:0:0:
374,331,42755,1,0,0:0:0:0:
375,320,42943,1,0,0:0:0:0:
372,309,43130,1,0,0:0:0:0:
454,249,43318,5,0,0:0:0:0:
431,213,43505,1,0,0:0:0:0:
389,204,43693,1,0,0:0:0:0:
298,248,43880,1,0,0:0:0:0:
259,54,44068,6,0,P|287:101|306:150,1,104.999996795654
162,236,44443,2,0,P|181:187|208:142,1,104.999996795654
143,318,44818,5,0,0:0:0:0:
131,316,45005,1,0,0:0:0:0:
121,311,45193,1,0,0:0:0:0:
114,303,45380,1,0,0:0:0:0:
34,63,45568,6,0,B|87:63|89:107|89:107|77:88|46:86,1,104.999996795654
22,228,45943,2,0,B|-4:182|32:158|32:158|22:178|35:206,1,104.999996795654
170,155,46318,2,0,B|143:200|104:180|104:180|126:179|144:153,1,104.999996795654
223,22,46693,6,0,B|188:77|284:61|273:178,1,157.499995193482
354,247,47068,2,0,P|350:187|392:165,1,104.999996795654
408,168,47349,1,0,0:0:0:0:
408,168,47443,1,0,0:0:0:0:
441,237,47630,1,0,0:0:0:0:
463,65,47818,5,0,0:0:0:0:
439,252,48005,1,0,0:0:0:0:
437,265,48099,1,0,0:0:0:0:
435,280,48193,1,0,0:0:0:0:
341,362,48380,1,0,0:0:0:0:
350,321,48474,1,0,0:0:0:0:
312,261,48568,6,0,P|334:325|341:372,1,104.999996795654
230,171,48943,2,0,P|208:235|201:282,1,104.999996795654
103,352,49318,5,0,0:0:0:0:
93,347,49505,1,0,0:0:0:0:
89,336,49693,1,0,0:0:0:0:
109,260,49880,1,0,0:0:0:0:
56,83,50068,6,0,P|78:147|86:241,1,157.499995193482
132,84,50443,2,0,B|168:58|135:19|80:9|54:86,1,157.499995193482
172,148,50818,2,0,B|208:173|175:212|120:222|94:145,1,157.499995193482
215,78,51193,2,0,P|240:82|266:89,1,45
302,181,51568,2,0,P|300:88|340:30,1,157.499995193482
466,62,51943,2,0,P|472:139|434:207,1,157.499995193482
336,376,52318,2,0,B|395:300|298:313|372:215,1,157.499995193482
389,94,52693,2,0,P|379:109|377:142,1,45
362,230,53068,5,0,0:0:0:0:
179,162,53443,6,0,L|182:202,1,37.5
199,159,53630,2,0,L|202:199,1,37.5
266,116,53818,6,0,B|249:91|225:84|225:84|252:80|265:91,1,93.75
154,51,54005,1,0,0:0:0:0:
155,68,54099,1,0,0:0:0:0:
103,142,54193,6,0,B|111:113|132:99|132:99|105:103|96:117,1,93.75
96,116,54380,1,0,0:0:0:0:
202,271,54568,5,0,0:0:0:0:
199,280,54755,1,0,0:0:0:0:
202,289,54943,1,0,0:0:0:0:
210,296,55130,1,0,0:0:0:0:
282,247,55318,5,0,0:0:0:0:
302,261,55505,1,0,0:0:0:0:
331,261,55693,1,0,0:0:0:0:
392,210,55880,1,0,0:0:0:0:
476,104,56068,6,0,P|455:166|421:215,1,112.500004291535
348,101,56443,2,0,P|369:39|403:-10,1,112.500004291535
246,34,56818,5,0,0:0:0:0:
235,38,57005,1,0,0:0:0:0:
223,38,57193,1,0,0:0:0:0:
211,36,57380,1,0,0:0:0:0:
110,69,57568,6,0,B|155:104|139:146|139:146|133:128|110:116,1,112.500004291535
0,181,57943,2,0,B|7:124|52:117|52:117|39:131|40:157,1,112.500004291535
151,220,58318,2,0,B|98:241|69:206|69:206|88:210|110:196,1,112.500004291535
264,149,58693,6,0,P|263:214|274:329,1,168.750006437302
272,317,59068,2,0,B|332:345|309:270|371:290,1,112.500004291535
392,300,59349,1,0,0:0:0:0:
392,300,59443,1,0,0:0:0:0:
433,228,59630,1,0,0:0:0:0:
387,98,59818,5,0,0:0:0:0:
512,48,60005,1,0,0:0:0:0:
496,42,60099,1,0,0:0:0:0:
480,36,60193,1,0,0:0:0:0:
322,18,60380,1,0,0:0:0:0:
290,35,60474,1,0,0:0:0:0:
210,26,60568,6,0,P|276:27|331:14,1,112.500004291535
105,59,60943,2,0,P|150:106|199:136,1,112.500004291535
321,170,61318,5,0,0:0:0:0:
318,180,61505,1,0,0:0:0:0:
311,189,61693,1,0,0:0:0:0:
248,229,61880,1,0,0:0:0:0:
78,275,62068,6,0,P|190:273|245:260,1,168.750006437302
367,311,62443,2,0,B|338:286|329:236|329:236|338:286|309:323,1,168.750006437302
244,260,62818,2,0,B|215:285|206:335|206:335|215:285|186:248,1,168.750006437302
79,230,63193,2,0,P|75:260|81:286,1,45
173,183,63568,2,0,P|132:136|25:139,1,168.750006437302
143,36,63943,2,0,P|122:95|178:186,1,168.750006437302
383,35,64318,2,0,B|281:16|306:101|224:88,1,168.750006437302
232,89,64693,2,0,B|271:82|258:128|312:118,1,90
437,131,65068,5,0,0:0:0:0:
441,142,65255,1,0,0:0:0:0:
410,230,65443,5,0,0:0:0:0:
405,240,65630,1,0,0:0:0:0:
275,224,65818,5,0,0:0:0:0:
271,235,66005,1,0,0:0:0:0:
302,323,66193,5,0,0:0:0:0:
307,333,66380,1,0,0:0:0:0:
380,380,66568,5,0,0:0:0:0:
390,384,66755,1,0,0:0:0:0:
275,224,66943,5,0,0:0:0:0:
270,234,67130,1,0,0:0:0:0:
197,281,67318,5,0,0:0:0:0:
187,285,67505,1,0,0:0:0:0:
176,164,67693,5,0,0:0:0:0:
181,171,67880,1,0,0:0:0:0:
60,67,68068,6,0,L|48:127,1,44.999998626709
73,72,68255,2,0,L|61:132,1,44.999998626709
156,119,68443,6,0,L|165:179,1,44.999998626709
169,119,68630,2,0,L|178:179,1,44.999998626709
365,28,68818,6,0,L|377:88,1,44.999998626709
352,33,69005,2,0,L|364:93,1,44.999998626709
269,80,69193,6,0,L|259:140,1,44.999998626709
256,80,69380,2,0,L|246:140,1,44.999998626709
215,264,69568,5,0,0:0:0:0:
214,277,69661,1,0,0:0:0:0:
221,303,69755,1,0,0:0:0:0:
251,336,69849,1,0,0:0:0:0:
300,343,69943,1,0,0:0:0:0:
343,320,70036,1,0,0:0:0:0:
388,300,70130,1,0,0:0:0:0:
397,300,70224,1,0,0:0:0:0:
404,304,70318,1,0,0:0:0:0:
446,336,70411,1,0,0:0:0:0:
477,292,70505,1,0,0:0:0:0:
466,238,70599,1,0,0:0:0:0:
404,197,70693,5,0,0:0:0:0:
404,197,70880,1,0,0:0:0:0:
352,78,71068,6,0,P|295:118|284:163,1,104.999996795654
176,149,71443,2,0,P|196:215|235:239,1,104.999996795654
335,252,71818,5,0,0:0:0:0:
342,258,72005,1,0,0:0:0:0:
222,235,72193,5,0,0:0:0:0:
215,241,72380,1,0,0:0:0:0:
188,350,72568,6,0,P|257:351|292:321,1,104.999996795654
405,332,72943,2,0,P|385:284|341:257,1,104.999996795654
280,154,73318,2,0,P|248:194|247:246,1,104.999996795654
466,113,73693,6,0,P|456:75|430:15,1,90
436,28,74068,6,0,B|315:-3|338:103|220:53,1,210
237,60,74818,2,0,P|175:52|127:57,1,105
133,130,75568,2,0,P|108:132|81:128,1,45
133,55,75943,2,0,P|108:53|81:57,1,45
88,129,76318,6,0,P|63:131|36:127,1,37.5
88,55,76505,6,0,P|63:53|36:57,1,37.5
50,129,76693,6,0,P|25:131|-2:127,1,37.5
50,54,76880,6,0,P|25:52|-2:56,1,37.5
12,129,77068,6,0,P|12:205|83:318,1,191.250003647804
154,225,77443,2,0,P|168:254|157:290,3,63.7500012159348
141,146,77818,2,0,P|200:156|217:174,1,63.7500012159348
268,196,78005,2,0,P|297:208|328:206,1,63.7500012159348
294,69,78193,2,0,L|311:154,1,63.7500012159348
411,94,78380,2,0,L|390:178,1,63.7500012159348
506,166,78568,6,0,L|381:321,1,191.250003647804
305,312,78943,2,0,P|316:267|341:245,3,63.7500012159348
100,370,79318,2,0,P|49:355|25:324,1,63.7500012159348
182,358,79505,2,0,P|224:326|236:289,1,63.7500012159348
29,274,79693,2,0,P|3:227|8:188,1,63.7500012159348
215,243,79880,2,0,P|223:189|205:155,1,63.7500012159348
50,36,80068,6,0,B|42:133|122:79|112:208,1,191.250003647804
137,158,80443,2,0,P|133:132|158:88,3,63.7500012159348
210,44,80818,2,0,P|233:32|283:42,1,63.7500012159348
340,78,81005,2,0,P|358:96|364:146,1,63.7500012159348
322,246,81193,2,0,P|345:257|395:247,1,63.7500012159348
452,212,81380,2,0,P|470:193|476:143,1,63.7500012159348
340,78,81568,6,0,P|293:159|322:247,1,191.250003647804
268,314,81943,2,0,P|311:336|351:329,3,63.7500012159348
183,287,82318,2,0,P|179:334|200:371,1,63.7500012159348
186,197,82505,2,0,P|139:208|110:239,1,63.7500012159348
272,172,82693,2,0,P|246:131|208:113,1,63.7500012159348
322,246,82880,2,0,P|352:209|358:167,1,63.7500012159348
234,122,83068,6,0,P|158:91|18:103,1,213.749994292259
62,123,83443,1,0,0:0:0:0:
72,132,83536,1,0,0:0:0:0:
78,144,83630,1,0,0:0:0:0:
82,157,83724,1,0,0:0:0:0:
48,222,83818,6,0,P|31:275|41:313,1,71.2499980974198
132,204,84005,2,0,P|94:162|56:152,1,71.2499980974198
106,285,84193,2,0,P|143:326|181:336,1,71.2499980974198
249,279,84380,2,0,P|303:267|331:239,1,71.2499980974198
436,99,84568,6,0,P|340:116|254:204,1,213.749994292259
303,187,84943,1,0,0:0:0:0:
316,184,85036,1,0,0:0:0:0:
330,185,85130,1,0,0:0:0:0:
343,190,85224,1,0,0:0:0:0:
373,209,85318,1,0,0:0:0:0:
394,236,85411,1,0,0:0:0:0:
397,271,85505,1,0,0:0:0:0:
385,304,85599,1,0,0:0:0:0:
360,330,85693,1,0,0:0:0:0:
327,343,85786,1,0,0:0:0:0:
317,332,85880,1,0,0:0:0:0:
312,318,85974,1,0,0:0:0:0:
312,303,86068,6,0,P|299:278|263:258,1,71.2499980974198
300,312,86255,2,0,P|279:292|238:286,1,71.2499980974198
82,351,86443,6,0,P|85:323|112:291,1,71.2499980974198
96,355,86630,2,0,P|108:330|145:310,1,71.2499980974198
184,222,86818,5,0,0:0:0:0:
166,199,86911,1,0,0:0:0:0:
175,171,87005,1,0,0:0:0:0:
152,153,87099,1,0,0:0:0:0:
159,125,87193,2,0,P|136:114|79:119,1,56.2500021457673
233,105,87286,2,0,P|222:81|193:55,1,56.2500021457673
302,137,87380,2,0,P|308:112|303:73,1,56.2500021457673
334,205,87474,2,0,P|355:190|375:157,1,56.2500021457673
315,278,87568,2,0,B|350:277|350:319|398:319,1,90
473,290,87943,5,0,0:0:0:0:
506,248,88036,1,0,0:0:0:0:
496,200,88130,1,0,0:0:0:0:
480,174,88224,1,0,0:0:0:0:
465,163,88318,1,0,0:0:0:0:
450,162,88411,1,0,0:0:0:0:
438,172,88505,1,0,0:0:0:0:
435,180,88599,1,0,0:0:0:0:
440,186,88693,6,0,B|459:134|459:134|460:125|460:125|479:79|479:79|431:57|431:57|428:52|428:52|372:27,1,225
261,37,89068,2,0,B|246:-5|289:-57|360:-25|402:38|253:156,1,281.25
278,245,89443,1,0,0:0:0:0:
260,248,89536,1,0,0:0:0:0:
240,240,89630,1,0,0:0:0:0:
189,201,89724,1,0,0:0:0:0:
98,224,89818,6,0,P|168:223|191:147,1,104.999996795654
125,58,90005,2,0,P|191:83|185:165,1,108.750003318787
110,261,90193,2,0,P|176:235|174:156,1,112.500004291535
150,27,90380,2,0,P|203:73|167:151,1,116.250000886917
136,291,90568,2,0,P|189:244|160:168,1,120
186,7,90755,2,0,P|220:68|157:135,1,123.750001180172
17,147,90943,6,0,B|72:156|72:156|79:162|79:162|134:171|134:171|179:147|179:147|216:155|216:155|228:153|228:153|276:163,1,269.999991760254
436,191,91224,1,0,0:0:0:0:
439,178,91318,6,0,B|436:192|436:192|456:220|456:220|442:278,1,104.999996795654
325,332,91505,2,0,B|328:318|328:318|308:290|308:290|322:227,1,108.750003318787
284,27,91693,6,0,B|279:-20|279:-20|263:3|263:3|263:8|263:8|244:30|244:30|242:41|242:41|223:62|223:62|225:67|225:67|207:90|207:90|291:105|291:105|308:113|308:113|379:126|379:126|364:172,1,404.999987640381
442,274,92068,2,0,B|393:338|477:393|530:370|568:246|488:195,1,281.25
408,101,92443,1,0,0:0:0:0:
375,118,92536,1,0,0:0:0:0:
368,156,92630,1,0,0:0:0:0:
320,123,92724,1,0,0:0:0:0:
223,134,92818,6,0,B|255:111|255:111|330:124,1,104.999996795654
246,265,93005,2,0,B|284:275|284:275|351:236,1,108.750003318787
202,114,93193,2,0,B|234:91|234:91|320:106,1,112.500004291535
232,289,93380,2,0,B|270:299|270:299|339:258,1,116.250000886917
112,68,93568,6,0,B|90:127|90:127|132:177,1,127.50000243187
164,375,93755,2,0,B|123:326|123:326|145:265,1,127.50000243187
244,192,93943,2,0,B|299:182|299:182|307:184|307:184|362:175,3,120
419,97,94318,6,0,P|451:153|444:218,1,131.250001251698
185,268,94505,2,0,P|152:211|159:146,1,131.250001251698
260,37,94693,6,0,B|278:5|278:5|293:87|293:87|290:96|290:96|299:147|299:147|314:161|314:161|327:236|327:236|323:237|323:237|327:236|327:236|342:319|342:319|352:284,1,404.999987640381
512,240,95068,6,0,B|441:267|411:173|347:203|347:203|405:197|436:252,1,281.25
342,319,95443,1,0,0:0:0:0:
286,313,95536,1,0,0:0:0:0:
248,271,95630,1,0,0:0:0:0:
245,191,95724,1,0,0:0:0:0:
214,93,95818,6,0,P|242:146|241:207,1,104.999996795654
80,144,96005,2,0,P|89:195|120:242,1,108.750003318787
215,63,96193,2,0,P|259:103|281:166,1,112.500004291535
60,122,96380,2,0,P|51:173|71:237,1,116.250000886917
208,33,96568,2,0,P|263:56|307:113,1,120
54,91,96755,2,0,P|28:136|24:209,1,123.750001180172
254,384,96943,6,0,B|236:338|236:338|221:318|221:318|205:272|205:272|205:260|205:260|188:215|188:215|180:205|180:205|168:171|168:171|172:170|172:170|168:171|168:171|154:133,1,269.999991760254
111,19,97224,1,0,0:0:0:0:
104,2,97318,6,0,B|120:50|120:50|132:67|132:67|145:105,1,104.999996795654
308,167,97505,2,0,B|258:156|258:156|237:158|237:158|196:150,1,104.999996795654
64,262,97693,2,0,B|97:224|97:224|106:205|106:205|129:175|129:175|161:248|161:248|159:258|159:258|188:333|188:333|251:295|251:295|256:286|256:286|309:257,1,404.999987640381
447,134,98068,6,0,B|523:102|421:16|362:52|305:103|306:180,1,281.25
301,298,98443,5,0,0:0:0:0:
377,294,98537,1,0,0:0:0:0:
418,232,98630,1,0,0:0:0:0:
468,287,98724,1,0,0:0:0:0:
438,367,98818,5,0,0:0:0:0:
438,367,98911,1,0,0:0:0:0:
438,367,99005,1,0,0:0:0:0:
438,367,99099,1,0,0:0:0:0:
438,361,99193,6,0,B|402:369|382:356|382:356|397:352|411:335,1,75
317,314,99380,6,0,B|328:278|349:268|349:268|345:282|353:303,1,75
418,232,99568,6,0,B|442:259|441:282|441:282|430:272|408:268,1,75
343,175,99755,6,0,B|341:133|299:145|298:113,1,75
81,33,99943,5,0,0:0:0:0:
75,40,100036,1,0,0:0:0:0:
72,48,100130,1,0,0:0:0:0:
72,57,100224,1,0,0:0:0:0:
153,66,100318,5,0,0:0:0:0:
164,81,100411,1,0,0:0:0:0:
168,98,100505,1,0,0:0:0:0:
168,117,100599,1,0,0:0:0:0:
68,142,100693,5,0,0:0:0:0:
57,177,100786,1,0,0:0:0:0:
64,213,100880,1,0,0:0:0:0:
89,240,100974,1,0,0:0:0:0:
197,219,101068,6,0,B|312:250|258:354|88:295|308:208|307:126|243:68,1,281.25
274,124,101443,6,0,B|357:233|441:75|494:240|494:240|462:262|426:241,1,337.500012874604
351,86,101818,2,0,P|344:56|360:87,1,104.999996795654
274,124,102005,2,0,P|253:74|262:21,1,108.750003318787
456,41,102193,2,0,P|455:95|424:144,1,112.500004291535
234,128,102380,2,0,P|232:74|263:19,1,116.250000886917
456,41,102568,2,0,P|473:91|457:156,1,120
308,308,102755,1,0,0:0:0:0:
299,281,102849,1,0,0:0:0:0:
324,262,102943,6,0,B|310:306|310:306|257:303|257:303|251:310|251:310|208:305|208:305|177:288|177:288|135:287|135:287|131:284|131:284|85:282,1,269.999991760254
27,203,103224,1,0,0:0:0:0:
22,196,103318,6,0,P|0:172|29:191,1,104.999996795654
95,282,103505,2,0,B|142:259|142:259|151:263|151:263|195:242,1,104.999996795654
356,153,103693,6,0,B|393:132|393:132|345:112|345:112|333:101|333:101|294:86|294:86|279:136|279:136|280:151|280:151|265:206|265:206|231:179|231:179|212:170|212:170|183:145|183:145|225:117,1,404.999987640381
359,3,104068,2,0,B|406:-59|490:51|425:89|368:134|271:74,1,281.25
184,145,104443,1,0,0:0:0:0:
208,173,104536,1,0,0:0:0:0:
213,210,104630,1,0,0:0:0:0:
179,272,104724,1,0,0:0:0:0:
109,316,104818,6,0,P|122:276|185:274,1,104.999996795654
256,344,105005,2,0,P|290:319|278:257,1,108.750003318787
102,308,105193,2,0,P|108:266|170:253,1,112.500004291535
266,351,105380,2,0,P|304:333|300:265,1,116.250000886917
89,165,105568,6,0,B|99:100|99:100|149:157,1,120
392,231,105755,2,0,B|404:167|404:167|338:203,1,120
235,193,105943,2,0,B|254:146|254:146|255:122|255:122|273:71,3,120
292,3,106318,6,0,P|297:-28|299:6,1,104.999996795654
432,22,106505,2,0,P|412:69|368:96,1,104.999996795654
182,67,106693,6,0,B|150:76|150:76|141:72|141:72|115:78|115:78|126:50|126:50|134:42|134:42|143:16|143:16|149:32|149:32|154:38|154:38|166:119|166:119|178:140|178:140|189:220|189:220|215:200|215:200|226:198|226:198|256:178,1,404.999987640381
291,132,107068,2,0,B|333:133|365:72|228:-8|86:96,1,281.25
36,90,107443,2,0,B|46:145|100:158|100:158|126:280|6:221|21:372,1,337.500012874604
119,357,107818,6,0,P|124:325|126:360,1,104.999996795654
318,360,108005,2,0,P|271:384|219:384,1,104.999996795654
307,215,108193,2,0,P|287:263|247:296,1,104.999996795654
147,122,108380,2,0,P|166:170|206:203,1,104.999996795654
248,17,108568,2,0,P|232:66|241:117,1,104.999996795654
417,129,108755,2,0,P|381:90|333:72,1,104.999996795654
101,37,108943,6,0,B|79:65|79:65|72:67|72:67|55:90|55:90|48:91|48:91|3:132|3:132|53:176|53:176|60:175|60:175|81:201|81:201|86:200|86:200|117:230,1,269.999991760254
246,296,109224,1,0,0:0:0:0:
253,302,109318,6,0,P|283:311|248:309,1,104.999996795654
47,261,109505,2,0,B|84:216|84:216|98:213|98:213|127:175,1,104.999996795654
281,75,109693,6,0,B|313:59|313:59|317:52|317:52|333:44|333:44|266:134|266:134|262:146|262:146|240:174|240:174|230:182|230:182|201:220|201:220|191:227|191:227|166:259|166:259|162:271|162:271|126:319,1,404.999987640381
191,229,110068,2,0,B|256:165|330:262|267:351|46:306,1,281.25
36,376,110443,1,0,0:0:0:0:
3,309,110536,1,0,0:0:0:0:
42,244,110630,1,0,0:0:0:0:
85,182,110724,1,0,0:0:0:0:
38,122,110818,5,0,0:0:0:0:
38,122,110911,1,0,0:0:0:0:
38,122,111005,1,0,0:0:0:0:
38,122,111099,1,0,0:0:0:0:
38,122,111193,6,0,B|29:95|32:74|32:74|40:87|57:91,1,75
247,70,111380,6,0,B|246:41|236:22|236:22|233:37|218:47,1,75
134,28,111568,6,0,B|120:94|178:98|164:159,1,134.999995880127
113,269,111755,2,0,B|146:289|175:254|175:254|143:259|113:239,1,134.999995880127
165,156,111943,1,0,0:0:0:0:
216,142,112036,1,0,0:0:0:0:
252,158,112130,1,0,0:0:0:0:
270,177,112224,1,0,0:0:0:0:
276,190,112318,6,0,B|289:234|341:252|392:251|420:192|417:152|373:138|373:138|359:152|332:159,1,262.5
306,0,113068,6,0,P|284:37|349:82,1,112.5
479,45,113443,2,0,P|430:30|378:33,1,75
382,35,113724,1,0,0:0:0:0:
382,35,113818,1,0,0:0:0:0:
99,57,114005,5,0,0:0:0:0:
99,57,114099,1,0,0:0:0:0:
99,57,114193,6,0,P|80:99|51:205,1,146.249993305207
26,279,114568,2,0,P|76:280|139:204,1,146.249993305207
178,151,114943,2,0,P|180:212|242:288,1,157.499995193482
237,285,115693,2,0,P|253:246|257:161,1,112.5
284,66,116068,6,0,B|274:98|345:107|338:168,1,112.5
338,158,116443,1,0,0:0:0:0:
375,273,116630,1,0,0:0:0:0:
375,273,116724,1,0,0:0:0:0:
375,273,116818,6,0,B|365:241|436:232|429:171,1,112.5
446,97,117193,2,0,P|424:59|402:104,1,112.5
429,180,117568,6,0,B|427:209|458:215|458:248,1,67.4999979400635
457,239,117943,2,0,P|491:227|507:197,1,67.4999979400635
506,200,118318,1,0,0:0:0:0:
412,364,118693,5,0,0:0:0:0:
377,382,118880,1,0,0:0:0:0:
305,345,119068,6,0,P|379:369|430:356,1,112.5
456,301,119443,1,0,0:0:0:0:
374,255,119630,1,0,0:0:0:0:
305,345,119818,1,0,0:0:0:0:
251,288,120005,1,0,0:0:0:0:
298,217,120193,1,0,0:0:0:0:
256,139,120380,1,0,0:0:0:0:
286,42,120568,6,0,B|248:113|315:118|295:236,1,180
280,289,120943,1,0,0:0:0:0:
123,280,121130,1,0,0:0:0:0:
123,280,121224,1,0,0:0:0:0:
123,280,121318,6,0,P|161:208|239:187,1,120
11,113,121693,2,0,P|54:181|33:259,1,120
211,99,122068,1,0,0:0:0:0:
99,83,122255,1,0,0:0:0:0:
170,0,122443,1,0,0:0:0:0:
148,148,122630,1,0,0:0:0:0:
247,20,122818,6,0,P|326:7|390:36,1,120
309,108,123193,2,0,P|376:151|404:215,1,120
262,334,123568,6,0,P|265:254|307:197,1,120
397,292,123943,1,0,0:0:0:0:
174,241,124130,1,0,0:0:0:0:
174,241,124224,1,0,0:0:0:0:
174,241,124318,6,0,L|41:221,1,120
75,384,124693,1,0,0:0:0:0:
108,308,124880,1,0,0:0:0:0:
50,148,125068,6,0,B|27:89|84:95|60:21,1,120
103,203,125443,1,0,0:0:0:0:
63,33,125630,6,0,B|68:96|116:65|127:142,1,120
130,276,126005,1,0,0:0:0:0:
266,159,126193,5,0,0:0:0:0:
278,146,126286,1,0,0:0:0:0:
294,137,126380,1,0,0:0:0:0:
341,128,126474,1,0,0:0:0:0:
388,138,126568,2,0,B|331:202|404:193|362:251,1,120
303,322,126943,1,0,0:0:0:0:
308,328,127036,1,0,0:0:0:0:
346,339,127130,1,0,0:0:0:0:
417,320,127224,1,0,0:0:0:0:
474,273,127318,6,0,B|491:340|427:327|424:373,1,120
237,270,127693,2,0,P|221:325|248:385,1,112.5
188,359,128068,6,0,B|177:298|97:324|107:223,1,157.499995193482
133,160,128818,2,0,P|161:126|174:196,1,157.499995193482
53,178,129568,5,0,0:0:0:0:
53,178,129755,1,0,0:0:0:0:
84,58,129943,5,0,0:0:0:0:
84,58,130130,1,0,0:0:0:0:
203,16,130318,6,0,P|245:17|289:50,1,75
222,105,130693,2,0,P|255:121|292:121,1,75
389,62,131068,1,0,0:0:0:0:
389,62,131255,1,0,0:0:0:0:
450,204,131443,6,0,L|414:270,1,75
316,264,131818,2,0,L|351:197,1,75
292,121,132193,2,0,L|256:187,1,75
98,289,132568,5,0,0:0:0:0:
98,289,132755,1,0,0:0:0:0:
49,189,132943,5,0,0:0:0:0:
49,189,133130,1,0,0:0:0:0:
74,79,133318,1,0,0:0:0:0:
164,11,133506,1,0,0:0:0:0:
276,17,133693,1,0,0:0:0:0:
359,94,133881,1,0,0:0:0:0:
372,206,134068,1,0,0:0:0:0:
312,301,134256,1,0,0:0:0:0:
203,333,134443,1,0,0:0:0:0:
229,222,134630,1,0,0:0:0:0:
312,301,134818,1,0,0:0:0:0:
389,211,135005,1,0,0:0:0:0:
378,88,135193,1,0,0:0:0:0:
284,1,135380,1,0,0:0:0:0:
297,167,135568,5,0,0:0:0:0:
297,167,135661,1,0,0:0:0:0:
297,167,135755,1,0,0:0:0:0:
297,167,135848,1,0,0:0:0:0:
297,167,135943,6,0,P|259:144|210:140,1,75
177,277,136318,5,0,0:0:0:0:
177,277,136411,1,0,0:0:0:0:
177,277,136505,1,0,0:0:0:0:
177,277,136599,1,0,0:0:0:0:
177,277,136693,6,0,P|204:242|249:221,1,75
297,167,137068,2,0,P|313:208|308:257,1,75
332,325,137443,2,0,P|288:318|247:289,1,75
30,242,137818,6,0,L|18:351,1,75
126,207,138193,2,0,L|37:142,1,75
108,307,138568,2,0,L|168:280,1,65.625
376,197,139318,6,0,B|413:193|441:164|441:164|406:67|295:71|237:153|272:228|272:228|261:171|294:132|294:132|204:68|222:264|39:213|24:115|76:39|141:58|141:58|137:79|145:110,1,900
