osu file format v14

[General]
AudioFilename: Myosotis.mp3
AudioLeadIn: 0
PreviewTime: 19510
Countdown: 0
SampleSet: Soft
StackLeniency: 0.7
Mode: 3
LetterboxInBreaks: 0
SpecialStyle: 0
WidescreenStoryboard: 0

[Editor]
DistanceSpacing: 0.5
BeatDivisor: 4
GridSize: 4
TimelineZoom: 0.9999999

[Metadata]
Title:Myosotis
TitleUnicode:Myosotis
Artist:M2U
ArtistUnicode:M2U
Creator:ZZHBOY
Version:Normal
Source:Deemo
Tags:Mobile collection Vol. 2 rayark NICODE Guriri Lucy
BeatmapID:845200
BeatmapSetID:386415

[Difficulty]
HPDrainRate:7
CircleSize:4
OverallDifficulty:7
ApproachRate:9
SliderMultiplier:2
SliderTickRate:1

[Events]
//Background and Video events
0,0,"l4d.jpg",0,0
//Break Periods
//Storyboard Layer 0 (Background)
//Storyboard Layer 1 (Fail)
//Storyboard Layer 2 (Pass)
//Storyboard Layer 3 (Foreground)
//Storyboard Sound Samples
Sample,43500,0,"soft-hitfinish.wav",60
Sample,70593,0,"soft-hitwhistle.wav",65
Sample,70687,0,"soft-hitwhistle.wav",65
Sample,70781,0,"soft-hitwhistle.wav",65
Sample,70875,0,"soft-hitwhistle.wav",65
Sample,70968,0,"soft-hitwhistle.wav",65
Sample,71062,0,"soft-hitwhistle.wav",65
Sample,71156,0,"soft-hitwhistle.wav",65
Sample,71250,0,"soft-hitwhistle.wav",65
Sample,71343,0,"soft-hitwhistle.wav",65
Sample,71437,0,"soft-hitwhistle.wav",65
Sample,71531,0,"soft-hitwhistle.wav",65
Sample,80437,0,"soft-hitwhistle.wav",65
Sample,81750,0,"soft-hitwhistle.wav",65
Sample,82312,0,"soft-hitfinish.wav",60
Sample,83156,0,"soft-hitwhistle.wav",65
Sample,84750,0,"soft-hitfinish.wav",60
Sample,86062,0,"soft-hitwhistle.wav",65
Sample,86156,0,"soft-hitwhistle.wav",65
Sample,86343,0,"soft-hitwhistle.wav",65
Sample,86437,0,"soft-hitwhistle.wav",65
Sample,86531,0,"soft-hitwhistle.wav",65
Sample,87375,0,"soft-hitfinish.wav",60
Sample,89531,0,"soft-hitwhistle.wav",65
Sample,89812,0,"soft-hitwhistle.wav",65
Sample,91781,0,"soft-hitwhistle.wav",65
Sample,92062,0,"soft-hitwhistle.wav",65
Sample,92156,0,"soft-hitwhistle.wav",65
Sample,92343,0,"soft-hitwhistle.wav",65
Sample,92437,0,"soft-hitwhistle.wav",65
Sample,92531,0,"soft-hitwhistle.wav",65
Sample,93750,0,"soft-hitwhistle.wav",65
Sample,94312,0,"soft-hitfinish.wav",60
Sample,95156,0,"soft-hitwhistle.wav",65
Sample,97781,0,"soft-hitwhistle.wav",65
Sample,98156,0,"soft-hitwhistle.wav",65
Sample,98343,0,"soft-hitwhistle.wav",65
Sample,98531,0,"soft-hitwhistle.wav",65
Sample,100406,0,"soft-hitwhistle.wav",65
Sample,101062,0,"soft-hitwhistle.wav",65
Sample,101156,0,"soft-hitwhistle.wav",65
Sample,109500,0,"soft-hitfinish.wav",60
Sample,116437,0,"soft-hitwhistle.wav",65
Sample,116812,0,"soft-hitwhistle.wav",65
Sample,117000,0,"soft-hitfinish.wav",60
Sample,124500,0,"soft-hitfinish.wav",60
Sample,127500,0,"soft-hitfinish.wav",60

[TimingPoints]
10,375,4,2,1,20,1,0
19510,-100,4,2,1,30,0,0
78010,-100,4,2,1,30,0,1
102010,-100,4,2,1,30,0,0
130510,-100,4,2,1,10,0,0

[Colours]
Combo1 : 255,0,0
Combo2 : 46,0,202
Combo3 : 72,88,136
Combo4 : 132,132,132

[HitObjects]
192,192,1510,5,0,0:0:0:0:
64,192,1885,1,0,0:0:0:0:
448,192,2260,1,0,0:0:0:0:
192,192,3010,1,0,0:0:0:0:
64,192,3385,1,0,0:0:0:0:
320,192,3760,1,0,0:0:0:0:
192,192,4135,1,0,0:0:0:0:
448,192,4510,1,0,0:0:0:0:
320,192,4885,1,0,0:0:0:0:
64,192,5260,1,0,0:0:0:0:
192,192,5635,1,0,0:0:0:0:
448,192,6010,1,0,0:0:0:0:
320,192,6385,1,0,0:0:0:0:
192,192,6760,1,0,0:0:0:0:
64,192,7135,1,0,0:0:0:0:
320,192,7510,1,0,0:0:0:0:
448,192,7885,1,0,0:0:0:0:
64,192,8260,1,0,0:0:0:0:
192,192,8635,1,0,0:0:0:0:
64,192,9010,1,0,0:0:0:0:
320,192,9010,1,0,0:0:0:0:
192,192,9385,1,0,0:0:0:0:
448,192,9760,1,0,0:0:0:0:
320,192,10135,1,0,0:0:0:0:
192,192,10510,1,0,0:0:0:0:
64,192,10885,1,0,0:0:0:0:
320,192,11260,1,0,0:0:0:0:
448,192,11635,1,0,0:0:0:0:
192,192,12010,1,0,0:0:0:0:
320,192,12010,1,0,0:0:0:0:
64,192,12385,1,0,0:0:0:0:
192,192,12760,1,0,0:0:0:0:
320,192,13135,1,0,0:0:0:0:
448,192,13510,1,0,0:0:0:0:
192,192,13510,1,0,0:0:0:0:
64,192,13885,1,0,0:0:0:0:
192,192,14072,1,0,0:0:0:0:
320,192,14260,1,0,0:0:0:0:
448,192,14447,1,0,0:0:0:0:
64,192,14635,1,0,0:0:0:0:
192,192,14822,1,0,0:0:0:0:
448,192,15010,1,0,0:0:0:0:
320,192,15197,1,0,0:0:0:0:
192,192,15385,1,0,0:0:0:0:
64,192,15572,1,0,0:0:0:0:
448,192,15760,1,0,0:0:0:0:
320,192,15947,1,0,0:0:0:0:
64,192,16135,1,0,0:0:0:0:
192,192,16322,1,0,0:0:0:0:
320,192,16510,128,0,18010:0:0:0:0:
448,192,18010,128,0,18760:0:0:0:0:
192,192,18760,128,0,19135:0:0:0:0:
64,192,19135,128,0,19510:0:0:0:0:
448,192,19510,1,0,0:0:0:65:soft-hitwhistle.wav
320,192,19510,1,0,0:0:0:60:soft-hitfinish.wav
192,192,19885,1,0,0:0:0:0:
320,192,20166,1,0,0:0:0:0:
64,192,20260,1,0,0:0:0:65:soft-hitclap.wav
320,192,20635,1,0,0:0:0:0:
192,192,20822,1,0,0:0:0:0:
448,192,21010,1,0,0:0:0:65:soft-hitwhistle.wav
64,192,21010,1,0,0:0:0:60:soft-hitfinish.wav
448,192,21385,1,0,0:0:0:0:
192,192,21572,1,0,0:0:0:0:
320,192,21666,1,0,0:0:0:0:
448,192,21760,1,0,0:0:0:65:soft-hitclap.wav
192,192,21947,1,0,0:0:0:0:
64,192,22135,1,0,0:0:0:60:soft-hitfinish.wav
448,192,22322,1,0,0:0:0:0:
192,192,22510,1,0,0:0:0:60:soft-hitfinish.wav
320,192,22510,1,0,0:0:0:65:soft-hitwhistle.wav
448,192,22697,128,0,23260:0:0:0:0:
64,192,23260,1,0,0:0:0:65:soft-hitclap.wav
192,192,23447,128,0,24010:0:0:0:0:
448,192,24010,1,0,0:0:0:65:soft-hitwhistle.wav
320,192,24010,1,0,0:0:0:60:soft-hitfinish.wav
64,192,24197,128,0,24760:0:0:0:0:
448,192,24760,1,0,0:0:0:65:soft-hitclap.wav
320,192,24947,1,0,0:0:0:0:
64,192,25135,1,0,0:0:0:60:soft-hitfinish.wav
192,192,25322,1,0,0:0:0:0:
448,192,25510,1,0,0:0:0:60:soft-hitfinish.wav
64,192,25510,1,0,0:0:0:65:soft-hitwhistle.wav
320,192,25697,1,0,0:0:0:0:
448,192,25885,1,0,0:0:0:0:
192,192,26072,1,0,0:0:0:0:
320,192,26260,1,0,0:0:0:65:soft-hitclap.wav
64,192,26260,1,0,0:0:0:0:
448,192,26635,1,0,0:0:0:0:
320,192,26822,1,0,0:0:0:0:
448,192,27010,1,0,0:0:0:65:soft-hitwhistle.wav
192,192,27010,1,0,0:0:0:60:soft-hitfinish.wav
64,192,27197,1,0,0:0:0:0:
192,192,27385,1,0,0:0:0:0:
320,192,27572,1,0,0:0:0:0:
64,192,27760,1,0,0:0:0:65:soft-hitclap.wav
448,192,27760,1,0,0:0:0:0:
192,192,27947,1,0,0:0:0:0:
448,192,28135,1,0,0:0:0:60:soft-hitfinish.wav
320,192,28322,1,0,0:0:0:0:
64,192,28510,128,0,30010:0:0:0:60:soft-hitfinish.wav
192,192,28510,1,0,0:0:0:65:soft-hitwhistle.wav
448,192,29260,128,0,30010:0:0:0:65:soft-hitclap.wav
320,192,29260,1,0,0:0:0:0:
320,192,30010,128,0,33010:0:0:0:65:soft-hitwhistle.wav
192,192,30010,128,0,33010:0:0:0:60:soft-hitfinish.wav
64,192,33010,1,0,0:0:0:0:
448,192,33010,1,0,0:0:0:0:
192,192,33385,1,0,0:0:0:0:
448,192,33760,1,0,0:0:0:0:
320,192,33947,1,0,0:0:0:0:
192,192,34135,1,0,0:0:0:0:
64,192,34322,1,0,0:0:0:0:
192,192,34510,1,0,0:0:0:0:
192,192,34885,1,0,0:0:0:0:
320,192,35072,1,0,0:0:0:0:
448,192,35260,1,0,0:0:0:0:
64,192,35447,1,0,0:0:0:0:
320,192,35635,1,0,0:0:0:0:
192,192,35822,1,0,0:0:0:0:
448,192,36010,1,0,0:0:0:0:
192,192,36385,1,0,0:0:0:0:
64,192,36572,1,0,0:0:0:0:
448,192,36760,1,0,0:0:0:0:
320,192,37135,1,0,0:0:0:0:
192,192,37322,1,0,0:0:0:0:
64,192,37510,1,0,0:0:0:0:
448,192,37697,1,0,0:0:0:0:
320,192,37885,1,0,0:0:0:0:
64,192,38072,1,0,0:0:0:0:
192,192,38166,1,0,0:0:0:0:
320,192,38260,1,0,0:0:0:0:
448,192,38635,1,0,0:0:0:0:
64,192,39010,1,0,0:0:0:0:
320,192,39010,1,0,0:0:0:0:
448,192,39385,1,0,0:0:0:0:
320,192,39760,1,0,0:0:0:0:
192,192,39947,1,0,0:0:0:0:
64,192,40135,1,0,0:0:0:0:
192,192,40322,1,0,0:0:0:0:
448,192,40510,1,0,0:0:0:0:
320,192,40885,1,0,0:0:0:0:
192,192,41260,1,0,0:0:0:0:
448,192,41635,1,0,0:0:0:0:
320,192,41822,1,0,0:0:0:0:
192,192,42010,1,0,0:0:0:0:
64,192,42197,1,0,0:0:0:0:
320,192,42385,1,0,0:0:0:0:
448,192,42572,1,0,0:0:0:0:
320,192,42666,1,0,0:0:0:0:
192,192,42760,1,0,0:0:0:0:
64,192,43135,1,0,0:0:0:0:
448,192,43510,1,0,0:0:0:65:soft-hitwhistle.wav
320,192,43697,1,0,0:0:0:0:
192,192,43885,1,0,0:0:0:0:
320,192,44072,1,0,0:0:0:0:
64,192,44260,1,0,0:0:0:65:soft-hitclap.wav
448,192,44635,1,0,0:0:0:0:
320,192,44822,1,0,0:0:0:0:
64,192,45010,1,0,0:0:0:65:soft-hitwhistle.wav
192,192,45197,1,0,0:0:0:0:
320,192,45385,1,0,0:0:0:0:
448,192,45572,1,0,0:0:0:0:
64,192,45760,1,0,0:0:0:65:soft-hitclap.wav
192,192,46135,1,0,0:0:0:0:
320,192,46322,1,0,0:0:0:0:
448,192,46510,1,0,0:0:0:65:soft-hitwhistle.wav
192,192,46885,1,0,0:0:0:0:
64,192,47072,1,0,0:0:0:0:
448,192,47260,1,0,0:0:0:65:soft-hitclap.wav
320,192,47635,1,0,0:0:0:0:
64,192,47822,1,0,0:0:0:0:
448,192,48010,1,0,0:0:0:65:soft-hitwhistle.wav
64,192,48197,1,0,0:0:0:0:
192,192,48291,1,0,0:0:0:0:
320,192,48385,1,0,0:0:0:0:
448,192,48572,1,0,0:0:0:0:
64,192,48760,1,0,0:0:0:65:soft-hitclap.wav
192,192,48947,1,0,0:0:0:0:
320,192,49041,1,0,0:0:0:0:
448,192,49135,1,0,0:0:0:0:
320,192,49322,1,0,0:0:0:0:
64,192,49510,1,0,0:0:0:65:soft-hitwhistle.wav
192,192,49697,1,0,0:0:0:0:
448,192,49885,1,0,0:0:0:0:
320,192,50072,1,0,0:0:0:0:
448,192,50260,1,0,0:0:0:65:soft-hitclap.wav
320,192,50635,1,0,0:0:0:0:
448,192,50822,1,0,0:0:0:0:
192,192,51010,1,0,0:0:0:65:soft-hitwhistle.wav
64,192,51197,1,0,0:0:0:0:
448,192,51385,1,0,0:0:0:0:
320,192,51572,1,0,0:0:0:0:
448,192,51760,1,0,0:0:0:65:soft-hitclap.wav
448,192,52135,1,0,0:0:0:0:
320,192,52322,1,0,0:0:0:0:
192,192,52510,1,0,0:0:0:65:soft-hitwhistle.wav
64,192,52697,1,0,0:0:0:0:
320,192,52885,1,0,0:0:0:0:
192,192,53072,1,0,0:0:0:0:
448,192,53260,1,0,0:0:0:65:soft-hitclap.wav
320,192,53447,1,0,0:0:0:0:
192,192,53635,1,0,0:0:0:0:
64,192,54010,1,0,0:0:0:65:soft-hitwhistle.wav
448,192,54385,1,0,0:0:0:65:soft-hitwhistle.wav
320,192,54572,1,0,0:0:0:65:soft-hitwhistle.wav
192,192,54760,1,0,0:0:0:65:soft-hitclap.wav
448,192,54947,1,0,0:0:0:65:soft-hitwhistle.wav
320,192,55041,1,0,0:0:0:65:soft-hitwhistle.wav
192,192,55135,1,0,0:0:0:65:soft-hitclap.wav
64,192,55322,1,0,0:0:0:65:soft-hitwhistle.wav
448,192,55510,1,0,0:0:0:65:soft-hitwhistle.wav
192,192,55510,1,0,0:0:0:60:soft-hitfinish.wav
320,192,55697,1,0,0:0:0:0:
64,192,55885,1,0,0:0:0:0:
192,192,56072,1,0,0:0:0:0:
448,192,56260,1,0,0:0:0:65:soft-hitclap.wav
64,192,56260,1,0,0:0:0:0:
320,192,56447,1,0,0:0:0:0:
64,192,56635,1,0,0:0:0:0:
192,192,56822,1,0,0:0:0:0:
320,192,57010,1,0,0:0:0:65:soft-hitwhistle.wav
64,192,57010,1,0,0:0:0:0:
448,192,57197,1,0,0:0:0:0:
64,192,57385,1,0,0:0:0:0:
192,192,57572,1,0,0:0:0:0:
320,192,57760,1,0,0:0:0:65:soft-hitclap.wav
448,192,57760,1,0,0:0:0:0:
192,192,58135,1,0,0:0:0:0:
320,192,58322,1,0,0:0:0:0:
448,192,58510,1,0,0:0:0:65:soft-hitwhistle.wav
64,192,58510,1,0,0:0:0:0:
320,192,58885,1,0,0:0:0:0:
192,192,59072,1,0,0:0:0:0:
64,192,59260,1,0,0:0:0:65:soft-hitclap.wav
448,192,59260,1,0,0:0:0:0:
192,192,59635,1,0,0:0:0:0:
320,192,59822,1,0,0:0:0:0:
448,192,60010,1,0,0:0:0:65:soft-hitwhistle.wav
64,192,60010,1,0,0:0:0:0:
192,192,60197,1,0,0:0:0:0:
320,192,60291,1,0,0:0:0:0:
448,192,60385,1,0,0:0:0:0:
320,192,60572,1,0,0:0:0:0:
192,192,60760,1,0,0:0:0:65:soft-hitclap.wav
448,192,60760,1,0,0:0:0:0:
64,192,60947,1,0,0:0:0:0:
192,192,61041,1,0,0:0:0:0:
320,192,61135,1,0,0:0:0:0:
64,192,61322,1,0,0:0:0:0:
448,192,61510,1,0,0:0:0:65:soft-hitwhistle.wav
192,192,61510,1,0,0:0:0:0:
320,192,61697,1,0,0:0:0:0:
64,192,61885,1,0,0:0:0:0:
192,192,62072,1,0,0:0:0:0:
448,192,62260,1,0,0:0:0:65:soft-hitclap.wav
64,192,62260,1,0,0:0:0:0:
320,192,62447,1,0,0:0:0:0:
64,192,62635,1,0,0:0:0:0:
192,192,62822,1,0,0:0:0:0:
64,192,63010,1,0,0:0:0:65:soft-hitwhistle.wav
448,192,63010,1,0,0:0:0:0:
320,192,63197,1,0,0:0:0:0:
64,192,63385,1,0,0:0:0:0:
192,192,63572,1,0,0:0:0:0:
448,192,63760,1,0,0:0:0:65:soft-hitclap.wav
320,192,63760,1,0,0:0:0:0:
192,192,64135,1,0,0:0:0:0:
320,192,64322,1,0,0:0:0:0:
448,192,64510,1,0,0:0:0:65:soft-hitwhistle.wav
64,192,64510,1,0,0:0:0:0:
192,192,64697,1,0,0:0:0:0:
64,192,64885,1,0,0:0:0:0:
448,192,65072,1,0,0:0:0:0:
320,192,65260,1,0,0:0:0:65:soft-hitclap.wav
64,192,65260,1,0,0:0:0:0:
192,192,65447,1,0,0:0:0:0:
64,192,65635,1,0,0:0:0:0:
192,192,65822,1,0,0:0:0:0:
320,192,66010,1,0,0:0:0:65:soft-hitwhistle.wav
448,192,66010,1,0,0:0:0:60:soft-hitfinish.wav
64,192,66385,1,0,0:0:0:65:soft-hitwhistle.wav
448,192,66760,1,0,0:0:0:65:soft-hitwhistle.wav
192,192,67135,1,0,0:0:0:65:soft-hitwhistle.wav
320,192,67510,1,0,0:0:0:65:soft-hitwhistle.wav
448,192,67885,1,0,0:0:0:65:soft-hitwhistle.wav
320,192,68260,1,0,0:0:0:65:soft-hitwhistle.wav
192,192,68635,1,0,0:0:0:65:soft-hitwhistle.wav
448,192,69010,1,0,0:0:0:65:soft-hitwhistle.wav
64,192,69010,1,0,0:0:0:0:
320,192,69197,1,0,0:0:0:65:soft-hitwhistle.wav
64,192,69385,1,0,0:0:0:65:soft-hitwhistle.wav
192,192,69572,1,0,0:0:0:65:soft-hitwhistle.wav
448,192,69760,1,0,0:0:0:65:soft-hitwhistle.wav
320,192,69947,1,0,0:0:0:65:soft-hitwhistle.wav
192,192,70135,1,0,0:0:0:65:soft-hitwhistle.wav
64,192,70322,1,0,0:0:0:65:soft-hitwhistle.wav
192,192,70510,128,0,71635:0:0:0:65:soft-hitwhistle.wav
448,192,71635,1,0,0:0:0:65:soft-hitclap.wav
320,192,71635,1,0,0:0:0:0:
64,192,72010,1,0,0:0:0:65:soft-hitwhistle.wav
320,192,72010,1,0,0:0:0:60:soft-hitfinish.wav
448,192,72197,1,0,0:0:0:0:
192,192,72385,1,0,0:0:0:0:
64,192,72572,1,0,0:0:0:0:
448,192,72760,1,0,0:0:0:65:soft-hitclap.wav
192,192,72760,1,0,0:0:0:0:
320,192,72947,1,0,0:0:0:0:
448,192,73135,1,0,0:0:0:0:
320,192,73322,1,0,0:0:0:0:
64,192,73510,1,0,0:0:0:65:soft-hitwhistle.wav
448,192,73510,1,0,0:0:0:0:
320,192,73697,1,0,0:0:0:0:
192,192,73885,1,0,0:0:0:0:
320,192,74072,1,0,0:0:0:0:
64,192,74260,1,0,0:0:0:65:soft-hitclap.wav
448,192,74260,1,0,0:0:0:0:
320,192,74447,1,0,0:0:0:0:
64,192,74635,1,0,0:0:0:0:
192,192,74822,1,0,0:0:0:0:
448,192,75010,1,0,0:0:0:65:soft-hitwhistle.wav
64,192,75010,128,0,78010:0:0:0:60:soft-hitfinish.wav
448,192,75760,128,0,78010:0:0:0:0:
320,192,78010,1,0,0:0:0:65:soft-hitwhistle.wav
192,192,78385,1,0,0:0:0:0:
448,192,78760,1,0,0:0:0:65:soft-hitclap.wav
64,192,78760,1,0,0:0:0:60:soft-hitfinish.wav
448,192,79135,1,0,0:0:0:0:
320,192,79322,1,0,0:0:0:0:
192,192,79416,1,0,0:0:0:0:
64,192,79510,1,0,0:0:0:65:soft-hitwhistle.wav
320,192,79885,1,0,0:0:0:65:soft-hitclap.wav
448,192,79885,1,0,0:0:0:0:
320,192,80260,1,0,0:0:0:65:soft-hitclap.wav
192,192,80260,1,0,0:0:0:0:
64,192,80635,1,0,0:0:0:65:soft-hitclap.wav
192,192,80635,1,0,0:0:0:0:
320,192,81010,1,0,0:0:0:65:soft-hitwhistle.wav
448,192,81385,128,0,81760:0:0:0:0:
64,192,81760,1,0,0:0:0:65:soft-hitclap.wav
320,192,81947,1,0,0:0:0:0:
192,192,82041,1,0,0:0:0:65:soft-hitwhistle.wav
64,192,82135,1,0,0:0:0:0:
448,192,82322,1,0,0:0:0:65:soft-hitwhistle.wav
64,192,82510,1,0,0:0:0:0:
192,192,82603,1,0,0:0:0:0:
320,192,82697,1,0,0:0:0:65:soft-hitclap.wav
192,192,82885,1,0,0:0:0:65:soft-hitwhistle.wav
448,192,83072,1,0,0:0:0:65:soft-hitwhistle.wav
320,192,83260,1,0,0:0:0:65:soft-hitclap.wav
64,192,83447,1,0,0:0:0:65:soft-hitwhistle.wav
192,192,83541,1,0,0:0:0:65:soft-hitwhistle.wav
320,192,83635,1,0,0:0:0:65:soft-hitclap.wav
448,192,83822,1,0,0:0:0:65:soft-hitwhistle.wav
64,192,84010,1,0,0:0:0:65:soft-hitwhistle.wav
320,192,84291,1,0,0:0:0:65:soft-hitclap.wav
448,192,84291,1,0,0:0:0:0:
64,192,84478,1,0,0:0:0:0:
192,192,84572,1,0,0:0:0:65:soft-hitwhistle.wav
320,192,84760,1,0,0:0:0:65:soft-hitclap.wav
448,192,84947,1,0,0:0:0:0:
64,192,85135,1,0,0:0:0:0:
192,192,85322,1,0,0:0:0:0:
448,192,85510,1,0,0:0:0:65:soft-hitwhistle.wav
320,192,85603,1,0,0:0:0:0:
192,192,85697,1,0,0:0:0:65:soft-hitwhistle.wav
448,192,85885,128,0,86635:0:0:0:65:soft-hitclap.wav
64,192,86260,128,0,86635:0:0:0:65:soft-hitclap.wav
192,192,86635,1,0,0:0:0:65:soft-hitclap.wav
320,192,86635,1,0,0:0:0:0:
64,192,87010,1,0,0:0:0:65:soft-hitwhistle.wav
448,192,87385,1,0,0:0:0:65:soft-hitwhistle.wav
320,192,87572,1,0,0:0:0:0:
192,192,87666,1,0,0:0:0:0:
64,192,87760,1,0,0:0:0:65:soft-hitclap.wav
448,192,87947,1,0,0:0:0:65:soft-hitwhistle.wav
64,192,88322,1,0,0:0:0:0:
320,192,88510,1,0,0:0:0:65:soft-hitwhistle.wav
192,192,88697,128,0,89260:0:0:0:0:
448,192,89260,1,0,0:0:0:0:
320,192,89447,1,0,0:0:0:65:soft-hitwhistle.wav
192,192,89635,128,0,90010:0:0:0:65:soft-hitclap.wav
64,192,90010,1,0,0:0:0:65:soft-hitwhistle.wav
192,192,90385,1,0,0:0:0:65:soft-hitwhistle.wav
448,192,90760,1,0,0:0:0:65:soft-hitclap.wav
64,192,90760,1,0,0:0:0:60:soft-hitfinish.wav
320,192,90853,1,0,0:0:0:0:
192,192,90947,1,0,0:0:0:0:
64,192,91135,1,0,0:0:0:0:
448,192,91322,1,0,0:0:0:0:
320,192,91510,1,0,0:0:0:65:soft-hitwhistle.wav
64,192,91697,1,0,0:0:0:65:soft-hitwhistle.wav
192,192,91791,1,0,0:0:0:0:
448,192,91885,1,0,0:0:0:65:soft-hitclap.wav
320,192,91885,1,0,0:0:0:0:
320,192,92260,1,0,0:0:0:65:soft-hitclap.wav
192,192,92260,1,0,0:0:0:0:
192,192,92635,1,0,0:0:0:65:soft-hitclap.wav
64,192,92635,1,0,0:0:0:0:
320,192,93010,1,0,0:0:0:65:soft-hitwhistle.wav
448,192,93385,1,0,0:0:0:0:
320,192,93478,1,0,0:0:0:0:
192,192,93572,1,0,0:0:0:0:
64,192,93760,1,0,0:0:0:65:soft-hitclap.wav
320,192,93947,1,0,0:0:0:0:
192,192,94041,1,0,0:0:0:65:soft-hitwhistle.wav
64,192,94135,1,0,0:0:0:0:
448,192,94322,1,0,0:0:0:65:soft-hitwhistle.wav
192,192,94510,1,0,0:0:0:0:
320,192,94603,1,0,0:0:0:0:
448,192,94697,1,0,0:0:0:65:soft-hitclap.wav
64,192,94885,1,0,0:0:0:65:soft-hitwhistle.wav
448,192,95072,1,0,0:0:0:65:soft-hitwhistle.wav
192,192,95260,1,0,0:0:0:65:soft-hitclap.wav
64,192,95447,1,0,0:0:0:65:soft-hitwhistle.wav
192,192,95541,1,0,0:0:0:65:soft-hitwhistle.wav
320,192,95635,1,0,0:0:0:65:soft-hitclap.wav
448,192,95822,1,0,0:0:0:65:soft-hitwhistle.wav
64,192,96010,1,0,0:0:0:65:soft-hitwhistle.wav
192,192,96010,1,0,0:0:0:0:
320,192,96291,1,0,0:0:0:65:soft-hitclap.wav
448,192,96478,1,0,0:0:0:0:
192,192,96572,1,0,0:0:0:65:soft-hitwhistle.wav
64,192,96760,128,0,97135:0:0:0:65:soft-hitclap.wav
320,192,96760,1,0,0:0:0:60:soft-hitfinish.wav
448,192,97135,128,0,97510:0:0:0:0:
192,192,97510,1,0,0:0:0:65:soft-hitwhistle.wav
64,192,97697,1,0,0:0:0:65:soft-hitwhistle.wav
448,192,97885,1,0,0:0:0:65:soft-hitclap.wav
320,192,98072,1,0,0:0:0:65:soft-hitwhistle.wav
448,192,98260,1,0,0:0:0:65:soft-hitclap.wav
192,192,98447,1,0,0:0:0:65:soft-hitwhistle.wav
64,192,98635,1,0,0:0:0:65:soft-hitclap.wav
448,192,98635,1,0,0:0:0:0:
320,192,99010,1,0,0:0:0:65:soft-hitwhistle.wav
192,192,99010,1,0,0:0:0:0:
448,192,99385,1,0,0:0:0:0:
448,192,99572,1,0,0:0:0:0:
64,192,99760,1,0,0:0:0:65:soft-hitclap.wav
448,192,99947,1,0,0:0:0:0:
64,192,100135,1,0,0:0:0:0:
192,192,100228,1,0,0:0:0:0:
320,192,100322,1,0,0:0:0:65:soft-hitwhistle.wav
64,192,100510,1,0,0:0:0:65:soft-hitwhistle.wav
320,192,100697,128,0,102010:0:0:0:65:soft-hitclap.wav
448,192,101260,128,0,102010:0:0:0:65:soft-hitclap.wav
64,192,102010,1,0,0:0:0:65:soft-hitwhistle.wav
448,192,102385,1,0,0:0:0:65:soft-hitwhistle.wav
192,192,102666,1,0,0:0:0:0:
64,192,102760,1,0,0:0:0:65:soft-hitwhistle.wav
320,192,103135,1,0,0:0:0:65:soft-hitclap.wav
64,192,103510,1,0,0:0:0:60:soft-hitfinish.wav
448,192,103885,1,0,0:0:0:0:
192,192,104260,1,0,0:0:0:65:soft-hitclap.wav
320,192,104635,1,0,0:0:0:0:
64,192,105010,1,0,0:0:0:65:soft-hitwhistle.wav
192,192,105385,1,0,0:0:0:0:
448,192,105760,1,0,0:0:0:65:soft-hitclap.wav
320,192,106135,1,0,0:0:0:0:
192,192,106510,1,0,0:0:0:65:soft-hitwhistle.wav
64,192,106885,1,0,0:0:0:0:
448,192,107260,1,0,0:0:0:65:soft-hitclap.wav
320,192,107635,1,0,0:0:0:0:
192,192,107822,1,0,0:0:0:0:
64,192,108010,1,0,0:0:0:65:soft-hitwhistle.wav
192,192,108385,1,0,0:0:0:0:
448,192,108572,1,0,0:0:0:0:
320,192,108760,1,0,0:0:0:65:soft-hitclap.wav
64,192,108947,1,0,0:0:0:0:
192,192,109135,1,0,0:0:0:0:
320,192,109322,1,0,0:0:0:0:
448,192,109510,128,0,110072:0:0:0:65:soft-hitwhistle.wav
192,192,110072,1,0,0:0:0:65:soft-hitwhistle.wav
320,192,110260,1,0,0:0:0:0:
64,192,110447,1,0,0:0:0:65:soft-hitwhistle.wav
192,192,110635,1,0,0:0:0:65:soft-hitclap.wav
320,192,110822,1,0,0:0:0:65:soft-hitwhistle.wav
448,192,111010,1,0,0:0:0:65:soft-hitwhistle.wav
64,192,111197,1,0,0:0:0:65:soft-hitclap.wav
192,192,111385,1,0,0:0:0:65:soft-hitwhistle.wav
320,192,111572,1,0,0:0:0:65:soft-hitwhistle.wav
448,192,111760,1,0,0:0:0:65:soft-hitclap.wav
64,192,111947,1,0,0:0:0:65:soft-hitwhistle.wav
192,192,112135,1,0,0:0:0:65:soft-hitclap.wav
320,192,112322,1,0,0:0:0:65:soft-hitwhistle.wav
64,192,112510,1,0,0:0:0:65:soft-hitwhistle.wav
448,192,112510,128,0,113072:0:0:0:0:
64,192,113072,1,0,0:0:0:65:soft-hitwhistle.wav
192,192,113166,1,0,0:0:0:0:
320,192,113260,1,0,0:0:0:0:
192,192,113447,1,0,0:0:0:65:soft-hitwhistle.wav
320,192,113635,1,0,0:0:0:65:soft-hitclap.wav
192,192,113822,1,0,0:0:0:65:soft-hitwhistle.wav
64,192,114010,1,0,0:0:0:65:soft-hitwhistle.wav
320,192,114197,1,0,0:0:0:65:soft-hitclap.wav
192,192,114385,1,0,0:0:0:0:
448,192,114572,1,0,0:0:0:65:soft-hitclap.wav
320,192,114760,1,0,0:0:0:0:
192,192,114947,1,0,0:0:0:65:soft-hitclap.wav
64,192,115135,1,0,0:0:0:65:soft-hitclap.wav
192,192,115228,1,0,0:0:0:0:
320,192,115322,1,0,0:0:0:65:soft-hitwhistle.wav
448,192,115416,1,0,0:0:0:0:
64,192,115510,128,0,116260:0:0:0:65:soft-hitwhistle.wav
448,192,115885,1,0,0:0:0:0:
320,192,116072,1,0,0:0:0:65:soft-hitwhistle.wav
192,192,116260,128,0,116635:0:0:0:0:
320,192,116635,128,0,117010:0:0:0:65:soft-hitclap.wav
448,192,117010,128,0,118510:0:0:0:65:soft-hitwhistle.wav
320,192,117760,128,0,118510:0:0:0:0:
64,192,118510,1,0,0:0:0:60:soft-hitfinish.wav
192,192,118510,1,0,0:0:0:0:
320,192,118697,1,0,0:0:0:0:
64,192,118885,1,0,0:0:0:0:
192,192,119072,1,0,0:0:0:0:
320,192,119260,1,0,0:0:0:65:soft-hitclap.wav
192,192,119447,1,0,0:0:0:0:
320,192,119635,1,0,0:0:0:0:
448,192,119822,1,0,0:0:0:0:
64,192,120010,1,0,0:0:0:65:soft-hitwhistle.wav
448,192,120385,1,0,0:0:0:0:
320,192,120572,1,0,0:0:0:0:
192,192,120760,1,0,0:0:0:65:soft-hitclap.wav
64,192,120947,1,0,0:0:0:0:
192,192,121135,1,0,0:0:0:0:
320,192,121322,1,0,0:0:0:0:
64,192,121510,1,0,0:0:0:65:soft-hitwhistle.wav
192,192,121697,1,0,0:0:0:0:
320,192,121885,1,0,0:0:0:0:
448,192,122072,1,0,0:0:0:0:
320,192,122260,1,0,0:0:0:65:soft-hitclap.wav
64,192,122447,1,0,0:0:0:0:
448,192,122635,1,0,0:0:0:0:
448,192,122822,1,0,0:0:0:0:
192,192,123010,1,0,0:0:0:65:soft-hitwhistle.wav
448,192,123197,1,0,0:0:0:0:
320,192,123385,1,0,0:0:0:0:
192,192,123572,1,0,0:0:0:0:
64,192,123760,1,0,0:0:0:65:soft-hitclap.wav
320,192,123947,1,0,0:0:0:0:
320,192,124135,1,0,0:0:0:0:
192,192,124322,1,0,0:0:0:0:
448,192,124510,1,0,0:0:0:65:soft-hitwhistle.wav
320,192,124697,1,0,0:0:0:0:
64,192,124885,1,0,0:0:0:0:
192,192,125072,1,0,0:0:0:0:
448,192,125260,1,0,0:0:0:65:soft-hitclap.wav
320,192,125447,1,0,0:0:0:0:
192,192,125635,1,0,0:0:0:0:
320,192,125822,1,0,0:0:0:0:
64,192,126010,1,0,0:0:0:65:soft-hitwhistle.wav
320,192,126197,1,0,0:0:0:0:
192,192,126385,1,0,0:0:0:0:
64,192,126572,1,0,0:0:0:0:
320,192,126760,1,0,0:0:0:65:soft-hitclap.wav
448,192,126947,1,0,0:0:0:0:
192,192,127135,1,0,0:0:0:0:
320,192,127322,1,0,0:0:0:0:
64,192,127510,128,0,130510:0:0:0:65:soft-hitwhistle.wav
448,192,128260,128,0,130510:0:0:0:0:
192,192,130510,1,0,0:0:0:0:
320,192,130510,1,0,0:0:0:0:
64,192,130885,1,0,0:0:0:0:
448,192,131260,1,0,0:0:0:0:
192,192,131635,1,0,0:0:0:0:
320,192,132010,1,0,0:0:0:0:
448,192,132760,1,0,0:0:0:0:
192,192,133510,1,0,0:0:0:0:
64,192,133885,1,0,0:0:0:0:
320,192,134260,1,0,0:0:0:0:
192,192,134635,1,0,0:0:0:0:
448,192,135010,1,0,0:0:0:0:
64,192,135385,1,0,0:0:0:0:
320,192,135760,1,0,0:0:0:0:
192,192,136135,1,0,0:0:0:0:
64,192,136510,1,0,0:0:0:0:
448,192,136510,1,0,0:0:0:0:
192,192,136885,1,0,0:0:0:0:
448,192,137260,1,0,0:0:0:0:
320,192,137635,1,0,0:0:0:0:
192,192,138010,1,0,0:0:0:0:
64,192,138385,1,0,0:0:0:0:
448,192,138760,1,0,0:0:0:0:
192,192,139135,1,0,0:0:0:0:
320,192,139510,1,0,0:0:0:0:
64,192,139885,1,0,0:0:0:0:
448,192,140260,1,0,0:0:0:0:
192,192,140635,1,0,0:0:0:0:
320,192,141010,1,0,0:0:0:0:
