osu file format v14

[General]
AudioFilename: audio.mp3
AudioLeadIn: 0
PreviewTime: -1
Countdown: 1
SampleSet: None
StackLeniency: 0.7
Mode: 0
LetterboxInBreaks: 0
WidescreenStoryboard: 0

[Editor]
DistanceSpacing: 0.8
BeatDivisor: 1
GridSize: 32
TimelineZoom: 0.2999999

[Metadata]
Title:Myosotis
TitleUnicode:Myosotis
Artist:M2U
ArtistUnicode:M2U
Creator:Tazuya
Version:Normal
Source:
Tags:
BeatmapID:1447724
BeatmapSetID:684083

[Difficulty]
HPDrainRate:5
CircleSize:5
OverallDifficulty:4
ApproachRate:7
SliderMultiplier:1.6
SliderTickRate:1

[Events]
//Background and Video events
0,0,"V20fluquor_fc.jpg",0,0
//Break Periods
2,13429,18476
//Storyboard Layer 0 (Background)
//Storyboard Layer 1 (Fail)
//Storyboard Layer 2 (Pass)
//Storyboard Layer 3 (Foreground)
//Storyboard Sound Samples

[TimingPoints]
1748.27516415576,370.370807453416,4,1,0,100,1,0
19599,378.466070461594,4,1,0,100,1,0
32307,369.494639423588,4,1,0,100,1,0

[Colours]
Combo1 : 128,255,0
Combo2 : 255,255,128
Combo3 : 244,250,37
Combo4 : 128,255,128

[HitObjects]
416,64,1377,6,0,P|128:64|192:64,1,280
128,64,2118,1,0,0:0:0:0:
128,128,2489,1,0,0:0:0:0:
160,192,2859,1,0,0:0:0:0:
192,256,3229,5,0,0:0:0:0:
128,256,3970,1,0,0:0:0:0:
128,256,4340,2,0,B|160:192|160:192|256:192,1,160
96,128,5822,1,0,0:0:0:0:
192,224,6192,2,0,L|288:96,1,160
352,224,6933,1,0,0:0:0:0:
352,224,7303,1,0,0:0:0:0:
352,224,7674,1,0,0:0:0:0:
96,288,8044,1,0,0:0:0:0:
96,288,8414,1,0,0:0:0:0:
96,320,8785,1,0,0:0:0:0:
96,320,9155,2,0,L|384:320,1,160
384,320,9896,1,0,0:0:0:0:
352,288,10266,1,0,0:0:0:0:
288,288,10637,1,0,0:0:0:0:
256,160,11377,2,0,L|96:160,1,160
96,160,11748,1,0,0:0:0:0:
96,160,12118,6,0,P|352:160|320:224,1,480
64,160,19526,5,0,0:0:0:0:
64,160,19599,1,0,0:0:0:0:
96,256,19977,1,0,0:0:0:0:
96,256,20355,1,0,0:0:0:0:
96,256,20734,2,0,L|224:160,1,140
224,192,21112,1,0,0:0:0:0:
224,192,21491,1,0,0:0:0:0:
224,224,21869,2,0,L|448:224,1,140
192,96,22248,5,0,0:0:0:0:
64,160,22626,1,0,0:0:0:0:
64,160,23005,2,0,P|224:160|256:160,1,140
192,192,23383,2,0,L|192:352,1,140
224,352,23762,1,0,0:0:0:0:
224,352,24140,1,0,0:0:0:0:
224,352,24519,1,0,0:0:0:0:
224,352,24897,1,0,0:0:0:0:
256,352,25275,2,0,L|416:352,1,140
416,352,25654,1,0,0:0:0:0:
352,96,26032,1,0,0:0:0:0:
128,288,26411,1,0,0:0:0:0:
128,288,26789,1,0,0:0:0:0:
128,288,27168,2,0,P|224:192|224:192,1,140
224,192,27546,5,0,0:0:0:0:
224,192,27925,1,0,0:0:0:0:
256,192,28682,12,0,31331,0:0:0:0:
128,256,33045,6,0,L|128:96,1,140
128,128,33415,2,0,L|256:64,1,140
256,64,33784,2,0,L|384:160,1,140
368,148,34154,1,0,0:0:0:0:
368,148,34523,2,0,B|288:224|288:224|256:192,1,140
256,192,34893,1,0,0:0:0:0:
256,192,35262,1,0,0:0:0:0:
256,192,35632,1,0,0:0:0:0:
256,192,36001,2,0,L|128:96,1,140
144,108,36371,2,0,L|256:192,1,140
256,192,36740,5,0,0:0:0:0:
256,192,37110,1,0,0:0:0:0:
256,192,37479,2,0,B|352:128|352:128|416:192,1,140
160,192,37849,1,0,0:0:0:0:
352,192,38218,1,0,0:0:0:0:
96,288,38588,2,0,P|224:352|288:352,1,140
224,352,38957,6,0,P|320:352|384:320,1,140
352,320,39327,1,0,0:0:0:0:
352,320,39696,1,0,0:0:0:0:
352,320,40066,2,0,L|480:192,1,140
256,64,40435,1,0,0:0:0:0:
160,160,40805,1,0,0:0:0:0:
256,224,41174,1,0,0:0:0:0:
160,64,41544,1,0,0:0:0:0:
160,64,41913,2,0,L|256:192,1,140
244,176,42283,5,0,0:0:0:0:
256,192,42652,2,0,L|352:320,1,140
340,304,43022,1,0,0:0:0:0:
352,192,43391,1,0,0:0:0:0:
352,192,44130,1,0,0:0:0:0:
352,192,44500,1,0,0:0:0:0:
224,192,44869,1,0,0:0:0:0:
224,192,45239,2,0,L|160:64,1,140
160,64,45608,1,0,0:0:0:0:
160,64,45978,1,0,0:0:0:0:
96,128,46347,2,0,L|192:256,1,140
180,240,46717,5,0,0:0:0:0:
352,128,47086,1,0,0:0:0:0:
352,224,47456,1,0,0:0:0:0:
288,192,47825,1,0,0:0:0:0:
288,192,48195,2,0,L|128:192,1,140
128,192,48564,1,0,0:0:0:0:
128,192,48934,5,0,0:0:0:0:
192,288,49303,1,0,0:0:0:0:
192,288,49673,2,0,L|352:288,1,140
332,288,50042,1,0,0:0:0:0:
416,288,50412,1,0,0:0:0:0:
416,288,50781,1,0,0:0:0:0:
416,288,51151,2,0,B|384:128|384:128|288:32,1,280
320,64,51890,1,0,0:0:0:0:
320,64,52259,2,0,L|160:64,1,140
160,128,52629,2,0,L|320:128,1,140
320,128,52998,1,0,0:0:0:0:
320,128,53368,1,0,0:0:0:0:
192,224,53737,1,0,0:0:0:0:
192,224,54107,1,0,0:0:0:0:
96,288,55585,1,0,0:0:0:0:
96,288,55954,6,0,L|256:288,1,140
256,192,56324,1,0,0:0:0:0:
256,192,56693,2,0,L|256:32,1,140
256,52,57063,1,0,0:0:0:0:
256,64,57432,1,0,0:0:0:0:
256,64,58171,2,0,L|96:64,1,140
128,128,58910,2,0,L|288:128,1,140
256,192,59649,2,0,L|96:192,1,140
128,256,60019,1,0,0:0:0:0:
192,320,60388,1,0,0:0:0:0:
256,352,60758,1,0,0:0:0:0:
320,320,61127,1,0,0:0:0:0:
416,224,61497,6,0,L|256:160,1,140
256,160,61866,1,0,0:0:0:0:
224,128,62236,1,0,0:0:0:0:
192,96,62605,1,0,0:0:0:0:
192,96,62975,2,0,L|384:32,1,140
352,128,63344,1,0,0:0:0:0:
128,192,63714,1,0,0:0:0:0:
352,256,64083,1,0,0:0:0:0:
128,320,64453,1,0,0:0:0:0:
