osu file format v14

[General]
AudioFilename: audio.mp3
AudioLeadIn: 0
PreviewTime: 43517
Countdown: 0
SampleSet: Soft
StackLeniency: 0.3
Mode: 0
LetterboxInBreaks: 0
EpilepsyWarning: 1
WidescreenStoryboard: 1

[Editor]
Bookmarks: 13517,19142,27392,30017,49517,61517,66017,69017,75017,78017,90017,109517,115142,118517,124517
DistanceSpacing: 0.9
BeatDivisor: 4
GridSize: 8
TimelineZoom: 1.8

[Metadata]
Title:Myosotis
TitleUnicode:Myosotis
Artist:M2U
ArtistUnicode:M2U
Creator:JeirYagtama
Version:LV 9
Source:Deemo
Tags:NICODE Guriri Lucy rayark Mobile collection Vol. 2 Magnolia forget-me-not Razor Sharp Finshie Album Diversity
BeatmapID:1362926
BeatmapSetID:642896

[Difficulty]
HPDrainRate:5
CircleSize:3.3
OverallDifficulty:7
ApproachRate:8
SliderMultiplier:1.4
SliderTickRate:1

[Events]
//Background and Video events
0,0,"76786e1b-8767-4b75-cbd8-0a813ab1925e.png",0,0
//Break Periods
//Storyboard Layer 0 (Background)
//Storyboard Layer 1 (Fail)
//Storyboard Layer 2 (Pass)
//Storyboard Layer 3 (Foreground)
//Storyboard Sound Samples

[TimingPoints]
1517,375,4,2,2,60,1,0
12579,-100,4,2,2,5,0,0
12767,-100,4,2,2,60,0,0
13329,-100,4,2,2,5,0,0
13517,-100,4,2,2,60,0,0
16423,-100,4,2,2,60,0,0
16517,-100,4,2,2,60,0,0
17923,-100,4,2,1,5,0,0
18017,-100,4,2,1,60,0,0
19517,-90.9090909090909,4,1,0,60,0,0
19892,-90.9090909090909,4,2,1,60,0,0
22517,-90.9090909090909,4,1,0,60,0,0
22704,-90.9090909090909,4,2,1,60,0,0
23267,-90.9090909090909,4,1,0,60,0,0
23454,-90.9090909090909,4,2,1,60,0,0
24017,-90.9090909090909,4,1,0,60,0,0
24204,-90.9090909090909,4,2,1,60,0,0
25517,-90.9090909090909,4,1,1,60,0,0
25704,-90.9090909090909,4,2,1,60,0,0
27017,-90.9090909090909,4,1,0,60,0,0
27204,-90.9090909090909,4,2,1,60,0,0
28517,-90.9090909090909,4,1,0,60,0,0
28704,-90.9090909090909,4,2,1,60,0,0
30017,-90.9090909090909,4,1,0,60,0,0
30204,-90.9090909090909,4,2,0,60,0,0
32642,-90.9090909090909,4,2,0,60,0,0
33017,-100,4,2,1,60,0,0
39017,-100,4,2,3,60,0,0
39767,-100,4,1,3,60,0,0
39954,-100,4,2,1,60,0,0
40517,-100,4,2,3,60,0,0
40798,-100,4,2,3,60,0,0
40892,-100,4,2,3,60,0,0
41173,-100,4,2,3,60,0,0
41267,-100,4,1,0,60,0,0
41454,-100,4,2,1,60,0,0
41548,-100,4,2,1,60,0,0
41642,-100,4,2,1,60,0,0
43517,-90.9090909090909,4,2,4,60,0,0
44267,-90.9090909090909,4,2,1,60,0,0
45017,-90.9090909090909,4,2,4,60,0,0
45767,-90.9090909090909,4,2,1,60,0,0
46517,-90.9090909090909,4,2,4,60,0,0
47267,-90.9090909090909,4,2,1,60,0,0
49517,-90.9090909090909,4,2,4,60,0,0
50267,-90.9090909090909,4,2,1,60,0,0
51017,-90.9090909090909,4,2,4,60,0,0
51767,-90.9090909090909,4,2,1,60,0,0
52517,-90.9090909090909,4,2,4,60,0,0
53267,-90.9090909090909,4,2,1,60,0,0
54017,-90.9090909090909,4,2,4,60,0,0
54767,-90.9090909090909,4,2,1,60,0,0
54954,-90.9090909090909,4,2,4,60,0,0
55142,-90.9090909090909,4,2,1,60,0,0
55329,-90.9090909090909,4,2,4,60,0,0
56267,-90.9090909090909,4,2,1,60,0,0
57017,-90.9090909090909,4,2,4,60,0,0
57767,-90.9090909090909,4,2,1,60,0,0
58517,-90.9090909090909,4,2,4,60,0,0
59267,-90.9090909090909,4,2,1,60,0,0
60017,-90.9090909090909,4,2,4,60,0,0
60767,-90.9090909090909,4,2,1,60,0,0
61517,-90.9090909090909,4,2,4,60,0,0
62267,-90.9090909090909,4,2,1,60,0,0
63017,-90.9090909090909,4,2,4,60,0,0
63767,-90.9090909090909,4,2,1,60,0,0
64517,-90.9090909090909,4,2,4,60,0,0
65267,-90.9090909090909,4,2,1,60,0,0
66017,-90.9090909090909,4,2,4,60,0,0
68923,-90.9090909090909,4,2,4,60,0,0
69017,-90.9090909090909,4,2,4,60,0,0
70892,-76.9230769230769,4,2,4,60,0,0
71267,-66.6666666666667,4,2,4,60,0,0
71642,-125,4,2,1,60,0,0
71923,-125,4,2,1,60,0,0
72017,-90.9090909090909,4,2,4,60,0,0
72767,-90.9090909090909,4,2,1,60,0,0
73517,-90.9090909090909,4,2,4,60,0,0
74267,-90.9090909090909,4,2,1,60,0,0
75017,-90.9090909090909,4,2,4,60,0,0
77642,-90.9090909090909,4,2,4,60,0,0
77829,-90.9090909090909,4,2,1,5,0,0
78017,-125,4,2,1,70,0,1
78298,-125,4,2,1,5,0,1
78392,-125,4,2,1,70,0,1
78673,-125,4,2,1,5,0,1
78767,-90.9090909090909,4,2,1,70,0,1
79142,-90.9090909090909,4,2,4,70,0,1
79892,-90.9090909090909,4,2,1,70,0,1
80079,-90.9090909090909,4,2,4,70,0,1
80267,-90.9090909090909,4,2,1,70,0,1
80454,-90.9090909090909,4,2,4,70,0,1
80642,-135.135135135135,4,2,1,70,0,1
80923,-135.135135135135,4,2,1,5,0,1
81017,-90.9090909090909,4,2,4,70,0,1
81298,-90.9090909090909,4,2,1,5,0,1
81392,-90.9090909090909,4,2,1,70,0,1
81673,-90.9090909090909,4,2,1,5,0,1
81767,-90.9090909090909,4,2,1,70,0,1
81860,-90.9090909090909,4,2,4,70,0,1
82329,-90.9090909090909,4,2,1,70,0,1
82892,-90.9090909090909,4,2,4,70,0,1
83267,-90.9090909090909,4,2,1,70,0,1
83454,-90.9090909090909,4,2,4,70,0,1
83642,-90.9090909090909,4,2,1,70,0,1
84017,-125,4,2,4,70,0,1
84298,-111.111111111111,4,2,4,70,0,1
84579,-90.9090909090909,4,2,1,70,0,1
84954,-90.9090909090909,4,2,4,70,0,1
85892,-90.9090909090909,4,2,1,70,0,1
86079,-90.9090909090909,4,2,4,70,0,1
86267,-90.9090909090909,4,2,1,70,0,1
86454,-90.9090909090909,4,2,4,70,0,1
86642,-135.135135135135,4,2,1,70,0,1
86923,-135.135135135135,4,2,1,5,0,1
87017,-90.9090909090909,4,2,4,70,0,1
87392,-90.9090909090909,4,2,1,70,0,1
87579,-90.9090909090909,4,2,4,70,0,1
87767,-90.9090909090909,4,2,1,70,0,1
87954,-83.3333333333333,4,2,1,70,0,1
88235,-83.3333333333333,4,2,1,5,0,1
88329,-83.3333333333333,4,2,4,70,0,1
88704,-83.3333333333333,4,2,1,70,0,1
88985,-83.3333333333333,4,2,1,5,0,1
89079,-83.3333333333333,4,2,4,70,0,1
89267,-83.3333333333333,4,2,1,70,0,1
89923,-83.3333333333333,4,2,1,5,0,1
90017,-125,4,2,1,70,0,1
90298,-125,4,2,1,5,0,1
90392,-125,4,2,1,70,0,1
90673,-125,4,2,1,5,0,1
90767,-90.9090909090909,4,2,1,70,0,1
90860,-90.9090909090909,4,2,4,70,0,1
91892,-90.9090909090909,4,2,1,70,0,1
92079,-90.9090909090909,4,2,4,70,0,1
92267,-90.9090909090909,4,2,1,70,0,1
92454,-90.9090909090909,4,2,4,70,0,1
92642,-135.135135135135,4,2,1,70,0,1
92923,-135.135135135135,4,2,1,5,0,1
93017,-90.9090909090909,4,2,4,70,0,1
93767,-90.9090909090909,4,2,1,70,0,1
93860,-90.9090909090909,4,2,4,70,0,1
94329,-90.9090909090909,4,2,1,70,0,1
94610,-90.9090909090909,4,2,4,70,0,1
94704,-90.9090909090909,4,2,1,70,0,1
94892,-90.9090909090909,4,2,4,70,0,1
95267,-90.9090909090909,4,2,1,70,0,1
95454,-90.9090909090909,4,2,4,70,0,1
95642,-90.9090909090909,4,2,1,70,0,1
95829,-90.9090909090909,4,2,4,70,0,1
96017,-125,4,2,4,70,0,1
96298,-111.111111111111,4,2,4,70,0,1
96579,-90.9090909090909,4,2,1,70,0,1
96767,-90.9090909090909,4,2,1,70,0,1
96954,-90.9090909090909,4,2,4,70,0,1
97892,-90.9090909090909,4,2,1,70,0,1
98079,-90.9090909090909,4,2,4,70,0,1
98267,-90.9090909090909,4,2,1,70,0,1
98454,-90.9090909090909,4,2,4,70,0,1
98642,-135.135135135135,4,2,1,70,0,1
99017,-90.9090909090909,4,2,4,70,0,1
99767,-90.9090909090909,4,2,1,70,0,1
99954,-90.9090909090909,4,2,4,70,0,1
100704,-83.3333333333333,4,2,1,70,0,1
101079,-83.3333333333333,4,2,4,70,0,1
101267,-83.3333333333333,4,2,1,60,0,1
101923,-83.3333333333333,4,2,1,5,0,1
102017,-90.9090909090909,4,2,1,60,0,0
103048,-90.9090909090909,4,2,1,60,0,0
103142,-90.9090909090909,4,2,1,60,0,0
103517,-90.9090909090909,4,2,0,60,0,0
109517,-90.9090909090909,4,1,0,60,0,0
110079,-90.9090909090909,4,2,4,60,0,0
110642,-90.9090909090909,4,2,1,60,0,0
110829,-90.9090909090909,4,2,4,60,0,0
111392,-90.9090909090909,4,2,1,60,0,0
111579,-90.9090909090909,4,2,4,60,0,0
112142,-90.9090909090909,4,2,1,60,0,0
112517,-90.9090909090909,4,2,4,60,0,0
116642,-90.9090909090909,4,2,1,60,0,0
118142,-90.9090909090909,4,2,1,60,0,0
118517,-90.9090909090909,4,2,0,60,0,0
124517,-90.9090909090909,4,2,4,60,0,0
125267,-90.9090909090909,4,2,1,60,0,0
127517,-90.9090909090909,4,2,4,60,0,0
130423,-90.9090909090909,4,2,1,5,0,0
130517,-90.9090909090909,4,2,1,60,0,0

[Colours]
Combo1 : 192,192,192
Combo2 : 54,31,215

[HitObjects]
58,117,1517,6,0,B|132:80|201:183|228:143|228:143|173:128|164:60,1,280,0|0,0:0|0:0,0:0:0:0:
166,75,3017,5,2,0:0:0:0:
216,51,3392,1,0,0:0:0:0:
285,49,3767,1,2,0:0:0:0:
363,79,4142,1,2,0:0:0:0:
392,167,4517,6,0,B|439:154|454:100|454:100|496:123|399:201|442:271,1,280,2|0,0:0|0:0,0:0:0:0:
442,270,5642,5,0,0:0:0:0:
403,310,6017,1,2,0:0:0:0:
333,314,6392,1,0,0:0:0:0:
258,276,6767,1,2,0:0:0:0:
194,201,7142,1,2,0:0:0:0:
258,109,7517,6,0,B|273:144|305:162|305:162|343:163|393:125,2,140,2|0|2,0:0|0:0|0:0,0:0:0:0:
194,201,8642,1,0,0:0:0:0:
136,104,9017,2,0,B|121:139|89:157|89:157|51:158|0:120,2,140,2|0|0,0:0|0:0|0:0,0:0:0:0:
194,201,10142,1,0,0:0:0:0:
133,292,10517,6,0,B|118:257|86:239|86:239|48:238|-2:275,2,140,2|0|0,0:0|0:0|0:0,0:0:0:0:
195,201,11642,1,0,0:0:0:0:
255,297,12017,2,0,B|270:262|302:244|302:244|340:243|390:280,2,140,2|0|2,0:0|0:0|0:0,0:0:0:0:
193,202,13142,1,0,0:0:0:0:
256,192,13517,12,2,17923,0:0:0:0:
256,192,18017,12,0,19142,0:0:0:0:
43,245,19517,6,0,P|96:192|190:191,1,154.000004699707,4|2,0:0|0:0,0:0:0:0:
271,151,20079,1,0,0:0:0:0:
271,151,20267,6,0,P|195:143|142:90,1,154.000004699707,8|0,0:0|0:0,0:0:0:0:
342,91,21017,2,0,P|418:99|471:152,1,154.000004699707,2|2,0:0|0:0,0:0:0:0:
478,251,21579,1,0,0:0:0:0:
478,251,21767,6,0,L|386:275,1,77.0000023498536,4|0,0:0|0:0,0:0:0:0:
301,199,22142,2,0,L|375:179,1,77.0000023498536,8|0,0:0|0:0,0:0:0:0:
266,299,22517,6,0,P|156:331|92:234,1,231.000007049561,4|0,0:0|0:0,0:0:0:0:
31,141,23267,2,0,P|102:225|205:190,1,231.000007049561,4|0,0:0|0:0,0:0:0:0:
309,160,24017,2,0,P|240:77|136:110,1,231.000007049561,4|0,0:0|0:0,0:0:0:0:
215,177,24767,6,0,L|233:256,1,77.0000023498536,8|0,0:0|0:0,0:0:0:0:
338,335,25142,2,0,L|320:259,1,77.0000023498536,0|0,0:0|0:0,0:0:0:0:
427,164,25517,6,0,B|380:158|361:107|361:107|271:128|225:46,1,231.000007049561,4|0,0:0|0:0,0:0:0:0:
116,87,26267,2,0,B|86:83|66:52|66:52|7:118|63:137|120:159|52:231,1,231.000007049561,4|0,0:0|0:0,0:0:0:0:
78,310,27017,2,0,B|110:286|145:282|145:282|167:318|215:324|215:324|257:286|312:296,1,231.000007049561,4|0,0:0|0:0,0:0:0:0:
325,202,27767,6,0,L|391:243,1,77.0000023498536,4|0,0:0|0:0,0:0:0:0:
503,194,28142,2,0,L|438:154,1,77.0000023498536,8|0,0:0|0:0,0:0:0:0:
347,107,28517,6,0,B|271:100|201:40|201:40|204:74|256:124,1,231.000007049561,4|0,0:0|0:0,0:0:0:0:
111,125,29267,2,0,B|81:124|51:108|51:108|136:195|82:268,1,231.000007049561,8|0,0:0|0:0,0:0:0:0:
256,192,30017,5,4,0:0:0:0:
256,192,30110,12,0,32642,0:0:0:0:
448,192,33017,6,0,P|397:147|327:148,1,140,2|2,0:0|0:0,0:0:0:0:
369,223,33579,1,0,0:0:0:0:
328,297,33767,2,0,P|295:308|259:308,1,70,0|0,0:0|0:0,0:0:0:0:
173,338,34142,2,0,P|168:302|176:269,1,70,0|0,0:0|0:0,0:0:0:0:
195,178,34517,2,0,P|255:159|315:82,1,140,2|2,0:0|0:0,0:0:0:0:
377,47,35079,1,0,0:0:0:0:
453,94,35267,6,0,P|480:123|504:174,1,70,0|0,0:0|0:0,0:0:0:0:
414,175,35642,2,0,P|397:208|373:231,1,70,2|0,0:0|0:0,0:0:0:0:
388,333,36017,2,0,P|345:277|277:272,1,140,0|2,0:0|0:0,0:0:0:0:
308,350,36579,1,0,0:0:0:0:
224,338,36767,1,0,0:0:0:0:
40,338,37142,5,2,0:0:0:0:
85,259,37329,1,0,0:0:0:0:
55,175,37517,1,2,0:0:0:0:
234,90,37892,1,0,0:0:0:0:
262,176,38079,1,0,0:0:0:0:
331,228,38267,6,0,P|372:223|420:226,1,70,2|0,0:0|0:0,0:0:0:0:
474,139,38642,2,0,P|439:138|404:143,1,70,2|0,0:0|0:0,0:0:0:0:
331,228,39017,6,0,P|288:268|289:346,1,140,2|2,0:0|0:0,0:0:0:0:
371,307,39579,1,0,0:0:0:0:
462,343,39767,2,0,B|462:306|462:306|454:273,1,70,0|0,0:0|0:0,0:0:0:0:
410,207,40142,2,0,B|410:170|410:170|418:137,1,70,0|0,0:0|0:0,0:0:0:0:
406,50,40517,6,0,P|351:48|302:67,1,105,2|0,0:0|0:0,0:0:0:0:
207,130,40892,2,0,P|256:111|309:114,1,105,2|0,0:0|0:0,0:0:0:0:
417,137,41267,2,0,P|365:134|316:152,1,105
312,248,41642,6,0,P|306:281|312:322,1,70,0|0,0:0|0:0,0:0:0:0:
225,342,42017,1,2,0:0:0:0:
138,248,42392,6,0,P|144:281|138:322,1,70,0|0,0:0|0:0,0:0:0:0:
225,342,42767,1,0,0:0:0:0:
226,160,43142,1,0,0:0:0:0:
226,160,43517,6,0,B|268:173|305:153|305:153|338:183|396:183,1,154.000004699707,2|0,0:0|0:0,0:0:0:0:
462,141,44079,1,0,0:0:0:0:
394,67,44267,2,0,B|353:54|316:74|316:74|283:44|250:45,1,154.000004699707,8|0,0:0|0:0,0:0:0:0:
152,82,44829,1,0,0:0:0:0:
94,176,45017,2,0,P|127:210|110:321,1,154.000004699707,2|0,0:0|0:0,0:0:0:0:
212,347,45579,1,0,0:0:0:0:
296,292,45767,2,0,P|278:219|321:157,1,154.000004699707,8|0,0:0|0:0,0:0:0:0:
371,235,46329,1,0,0:0:0:0:
446,294,46517,6,0,P|464:221|421:159,1,154.000004699707,2|2,0:0|0:0,0:0:0:0:
434,67,47079,1,0,0:0:0:0:
338,73,47267,2,0,B|277:105|251:46|174:84,1,154.000004699707,8|0,0:0|0:0,0:0:0:0:
115,130,47829,1,0,0:0:0:0:
193,179,48017,2,0,B|256:147|282:206|343:174,1,154.000004699707,2|0,0:0|0:0,0:0:0:0:
417,235,48579,1,0,0:0:0:0:
381,328,48767,2,0,B|360:316|331:335|331:335|296:319|254:348,1,115.50000352478,8|0,0:0|0:0,0:0:0:0:
241,297,49142,2,0,B|221:308|192:289|192:289|157:305|132:286,1,115.50000352478,0|0,0:0|0:0,0:0:0:0:
113,239,49517,6,0,P|57:168|55:99,1,154.000004699707,2|0,0:0|0:0,0:0:0:0:
145,145,50079,1,0,0:0:0:0:
247,178,50267,2,0,P|191:107|189:38,1,154.000004699707,8|0,0:0|0:0,0:0:0:0:
279,84,50829,1,0,0:0:0:0:
349,143,51017,2,0,P|399:199|405:231,1,77.0000023498536,2|0,0:0|0:0,0:0:0:0:
350,294,51392,2,0,P|330:261|299:237,1,77.0000023498536,2|0,0:0|0:0,0:0:0:0:
228,308,51767,6,0,P|195:317|156:335,1,77.0000023498536,8|0,0:0|0:0,0:0:0:0:
68,272,52142,2,0,P|102:255|139:244,1,77.0000023498536,0|0,0:0|0:0,0:0:0:0:
126,150,52517,2,0,P|89:160|54:177,1,77.0000023498536,2|0,0:0|0:0,0:0:0:0:
139,244,52892,2,0,P|173:227|210:216,1,77.0000023498536,2|0,0:0|0:0,0:0:0:0:
281,189,53267,2,0,P|244:199|209:216,1,77.0000023498536,8|0,0:0|0:0,0:0:0:0:
126,150,53642,2,0,P|160:133|197:122,1,77.0000023498536,0|0,0:0|0:0,0:0:0:0:
292,96,54017,6,0,P|350:121|365:231,1,154.000004699707,2|2,0:0|0:0,0:0:0:0:
343,294,54579,1,2,0:0:0:0:
433,313,54767,1,8,0:0:0:0:
479,224,54954,1,2,0:0:0:0:
479,224,55048,1,2,0:0:0:0:
479,224,55142,1,8,0:0:0:0:
425,139,55329,1,2,0:0:0:0:
356,65,55517,6,0,P|301:114|197:101,1,154.000004699707,2|0,0:0|0:0,0:0:0:0:
135,154,56079,1,0,0:0:0:0:
92,65,56267,2,0,P|167:65|224:115,1,154.000004699707,8|0,0:0|0:0,0:0:0:0:
265,206,56829,1,0,0:0:0:0:
333,131,57017,2,0,P|362:201|335:271,1,154.000004699707,2|0,0:0|0:0,0:0:0:0:
422,319,57579,1,0,0:0:0:0:
481,238,57767,2,0,P|453:167|482:98,1,154.000004699707,8|0,0:0|0:0,0:0:0:0:
395,62,58329,1,0,0:0:0:0:
308,94,58517,6,0,B|260:61|195:69|195:69|195:94|213:103,1,154.000004699707,2|2,0:0|0:0,0:0:0:0:
119,123,59079,1,0,0:0:0:0:
114,215,59267,2,0,B|162:248|227:240|227:240|227:215|208:205,1,154.000004699707,8|0,0:0|0:0,0:0:0:0:
302,178,59829,1,0,0:0:0:0:
326,79,60017,2,0,P|368:105|397:221,1,154.000004699707,2|0,0:0|0:0,0:0:0:0:
477,253,60579,1,0,0:0:0:0:
393,294,60767,2,0,B|364:289|364:289|341:298|341:298|318:292|318:292|261:315,1,115.50000352478,8|0,0:0|0:0,0:0:0:0:
248,269,61142,2,0,B|213:283|213:283|190:277|190:277|167:286|167:286|138:281,1,115.50000352478,0|0,0:0|0:0,0:0:0:0:
102,245,61517,6,0,B|76:199|76:168|76:168|85:137|134:88,1,154.000004699707,2|0,0:0|0:0,0:0:0:0:
177,187,62079,1,0,0:0:0:0:
276,178,62267,2,0,B|250:132|250:101|250:101|259:70|308:21,1,154.000004699707,8|0,0:0|0:0,0:0:0:0:
354,117,62829,1,0,0:0:0:0:
354,217,63017,6,0,L|320:294,1,77.0000023498536,0|0,0:0|0:0,0:0:0:0:
214,327,63392,2,0,L|245:256,1,77.0000023498536,2|0,0:0|0:0,0:0:0:0:
165,224,63767,2,0,L|133:294,1,77.0000023498536,8|0,0:0|0:0,0:0:0:0:
245,256,64142,2,0,L|276:185,1,77.0000023498536,0|0,0:0|0:0,0:0:0:0:
198,154,64517,2,0,L|166:224,1,77.0000023498536,2|0,0:0|0:0,0:0:0:0:
57,263,64892,2,0,L|88:192,1,77.0000023498536,2|0,0:0|0:0,0:0:0:0:
230,83,65267,2,0,L|198:153,1,77.0000023498536,8|0,0:0|0:0,0:0:0:0:
88,192,65642,2,0,L|119:121,1,77.0000023498536,0|0,0:0|0:0,0:0:0:0:
197,153,66017,5,2,0:0:0:0:
197,153,66392,2,0,P|241:158|281:189,1,77.0000023498536,2|0,0:0|0:0,0:0:0:0:
280,266,66767,2,0,P|241:263|208:244,1,77.0000023498536,2|0,0:0|0:0,0:0:0:0:
268,174,67142,2,0,P|312:179|352:210,1,77.0000023498536,2|0,0:0|0:0,0:0:0:0:
351,287,67517,2,0,P|312:284|279:265,1,77.0000023498536,2|0,0:0|0:0,0:0:0:0:
339,195,67892,2,0,P|407:157|426:68,1,154.000004699707,2|2,0:0|0:0,0:0:0:0:
337,101,68454,1,0,0:0:0:0:
257,141,68642,2,0,P|195:173|172:226,1,115.50000352478,2|0,0:0|0:0,0:0:0:0:
166,298,69017,5,2,0:0:0:0:
215,319,69204,1,2,0:0:0:0:
284,312,69392,1,2,0:0:0:0:
346,266,69579,1,2,0:0:0:0:
351,181,69767,1,2,0:0:0:0:
404,175,69954,1,2,0:0:0:0:
460,134,70142,1,2,0:0:0:0:
491,63,70329,1,2,0:0:0:0:
382,63,70517,6,0,L|383:24,3,38.5000011749268,2|2|2|2,0:0|0:0|0:0|0:0,0:0:0:0:
304,117,70892,2,0,L|302:174,3,45.4999979171754,2|2|2|2,0:0|0:0|0:0|0:0,0:0:0:0:
386,200,71267,2,0,L|388:260,3,52.5000020027161,2|0|2|0,0:0|0:0|0:0|0:0,0:0:0:0:
315,318,71642,2,0,P|268:324|229:351,1,84,8|0,0:0|0:0,0:0:0:0:
178,261,72017,6,0,P|121:255|55:179,1,154.000004699707,0|0,0:0|0:0,0:0:0:0:
149,168,72579,1,0,0:0:0:0:
133,69,72767,2,0,P|179:128|253:142,1,154.000004699707,8|0,0:0|0:0,0:0:0:0:
343,99,73329,1,0,0:0:0:0:
253,142,73517,6,0,P|284:175|310:220,1,77.0000023498536,2|0,0:0|0:0,0:0:0:0:
429,229,73892,2,0,P|407:197|380:169,1,77.0000023498536,2|0,0:0|0:0,0:0:0:0:
350,265,74267,2,0,P|381:298|407:343,1,77.0000023498536,8|0,0:0|0:0,0:0:0:0:
282,319,74642,2,0,P|260:287|233:259,1,77.0000023498536,0|0,0:0|0:0,0:0:0:0:
257,82,75017,5,2,0:0:0:0:
256,192,75204,12,0,77642,0:0:0:0:
63,137,78017,6,0,B|61:129|106:144|126:104|126:104|140:78|172:89|172:89|155:113|156:134,1,168,0|0,0:0|0:0,0:0:0:0:
160,216,78767,6,0,P|185:235|231:253,1,77.0000023498536,4|0,0:0|0:0,0:0:0:0:
257,164,79142,2,0,P|282:183|328:201,1,77.0000023498536,2|2,0:0|0:0,0:0:0:0:
327,300,79517,1,2,0:0:0:0:
327,300,79610,1,2,0:0:0:0:
327,300,79704,1,0,0:0:0:0:
416,278,79892,6,0,B|454:267|454:267|509:264,1,77.0000023498536,4|2,0:0|0:0,0:0:0:0:
436,183,80267,2,0,B|474:172|474:172|512:170,1,77.0000023498536,4|2,0:0|0:0,0:0:0:0:
439,99,80642,6,0,B|401:101|401:101|353:112,1,77.7000018969727,12|0,0:0|0:0,0:0:0:0:
274,100,81017,6,0,B|275:137|275:137|298:174,1,77.0000023498536,2|0,0:0|0:0,0:0:0:0:
292,271,81392,2,0,B|263:255|236:283|236:283|204:270|204:270|181:287|128:286,1,154.000004699707,8|8,0:0|0:0,0:0:0:0:
74,325,81954,5,2,0:0:0:0:
74,325,82048,1,2,0:0:0:0:
74,325,82142,1,2,0:0:0:0:
40,237,82329,2,0,B|21:218|13:183|13:183|16:150|42:115,1,115.50000352478,12|0,0:0|0:0,0:0:0:0:
54,92,82704,1,8,0:0:0:0:
105,178,82892,1,2,0:0:0:0:
174,105,83079,1,2,0:0:0:0:
218,194,83267,6,0,L|326:178,1,77.0000023498536,4|2,0:0|0:0,0:0:0:0:
294,132,83548,1,2,0:0:0:0:
272,86,83642,2,0,L|238:45,2,38.5000011749268,4|0|0,0:0|0:0|0:0,0:0:0:0:
386,46,84017,6,0,L|379:116,1,56,2|0,0:0|0:0,0:0:0:0:
449,156,84298,6,0,L|456:237,1,62.9999980773926,2|0,0:0|0:0,0:0:0:0:
373,244,84579,6,0,L|363:336,1,77.0000023498536,8|4,0:0|0:0,0:0:0:0:
263,252,84954,2,0,L|253:160,1,77.0000023498536,0|2,0:0|0:0,0:0:0:0:
166,222,85329,1,0,0:0:0:0:
166,222,85423,1,0,0:0:0:0:
166,222,85517,1,0,0:0:0:0:
74,182,85704,1,0,0:0:0:0:
53,83,85892,6,0,B|92:86|92:86|143:77,1,77.0000023498536,4|2,0:0|0:0,0:0:0:0:
223,43,86267,2,0,B|264:38|264:38|313:49,1,77.0000023498536,4|2,0:0|0:0,0:0:0:0:
331,135,86642,6,0,B|371:141|371:141|424:130,1,77.7000018969727,12|0,0:0|0:0,0:0:0:0:
470,199,87017,6,0,P|459:245|481:302,1,77.0000023498536,2|0,0:0|0:0,0:0:0:0:
372,264,87392,2,0,P|383:310|361:367,1,77.0000023498536,8|2,0:0|0:0,0:0:0:0:
377,338,87673,1,2,0:0:0:0:
377,338,87767,1,4,0:0:0:0:
276,330,87954,6,0,B|248:319|215:331|215:331|195:305|151:287,1,125.999996154785,12|0,0:0|0:0,0:0:0:0:
75,297,88329,2,0,P|91:245|116:218,1,83.9999974365235,2|2,0:0|0:0,0:0:0:0:
58,143,88704,2,0,B|98:182|136:166|136:166|152:205|229:216,1,167.999994873047,12|2,0:0|0:0,0:0:0:0:
270,273,89267,1,12,0:0:0:0:
317,184,89454,1,12,0:0:0:0:
235,124,89642,2,0,P|180:87|166:26,1,125.999996154785,12|0,0:0|0:0,0:0:0:0:
253,44,90017,6,0,B|293:58|293:58|351:43,1,84,0|0,0:0|0:0,0:0:0:0:
391,99,90392,2,0,B|431:85|431:85|489:100,1,84,0|0,0:0|0:0,0:0:0:0:
475,187,90767,6,0,P|469:252|444:286,1,77.0000023498536,12|2,0:0|0:0,0:0:0:0:
388,208,91142,2,0,L|312:194,1,77.0000023498536,2|2,0:0|0:0,0:0:0:0:
276,165,91423,1,2,0:0:0:0:
232,181,91517,2,0,L|208:138,2,38.5000011749268,2|2|2,0:0|0:0|0:0,0:0:0:0:
235,281,91892,6,0,L|135:286,1,77.0000023498536,4|2,0:0|0:0,0:0:0:0:
91,231,92267,2,0,L|14:234,1,77.0000023498536,4|2,0:0|0:0,0:0:0:0:
61,116,92642,6,0,L|151:114,1,77.7000018969727,8|0,0:0|0:0,0:0:0:0:
254,122,93017,6,0,P|274:77|334:51,1,115.50000352478,2|0,0:0|0:0,0:0:0:0:
338,138,93392,2,0,B|352:177|352:177|389:208,1,77.0000023498536,2|2,0:0|0:0,0:0:0:0:
450,140,93767,1,4,0:0:0:0:
496,240,93954,1,2,0:0:0:0:
496,240,94048,1,2,0:0:0:0:
496,240,94142,1,2,0:0:0:0:
443,310,94329,6,0,B|415:308|386:326|386:326|360:306|311:296,1,115.50000352478,12|2,0:0|0:0,0:0:0:0:
336,302,94704,1,4,0:0:0:0:
255,347,94892,1,2,0:0:0:0:
195,276,95079,1,2,0:0:0:0:
95,265,95267,6,0,L|53:172,1,77.0000023498536,4|2,0:0|0:0,0:0:0:0:
104,166,95548,1,2,0:0:0:0:
94,116,95642,2,0,L|66:62,2,38.5000011749268,4|0|0,0:0|0:0|0:0,0:0:0:0:
178,56,96017,6,0,L|258:45,1,56,2|0,0:0|0:0,0:0:0:0:
310,131,96298,6,0,L|247:138,1,62.9999980773926,2|0,0:0|0:0,0:0:0:0:
327,39,96579,6,0,L|412:30,1,77.0000023498536,8|4,0:0|0:0,0:0:0:0:
445,121,96954,2,0,L|466:230,1,77.0000023498536,2|2,0:0|0:0,0:0:0:0:
490,292,97329,1,2,0:0:0:0:
490,292,97423,1,2,0:0:0:0:
490,292,97517,1,2,0:0:0:0:
403,342,97704,1,2,0:0:0:0:
350,256,97892,6,0,B|301:259|301:259|256:274,1,77.0000023498536,12|2,0:0|0:0,0:0:0:0:
183,287,98267,2,0,B|130:304|130:304|89:305,1,77.0000023498536,4|2,0:0|0:0,0:0:0:0:
10,237,98642,6,0,B|49:222|49:222|103:218,1,77.7000018969727,12|0,0:0|0:0,0:0:0:0:
97,134,99017,6,0,P|153:164|177:216,1,115.50000352478,2|0,0:0|0:0,0:0:0:0:
231,276,99392,1,2,0:0:0:0:
268,200,99579,1,2,0:0:0:0:
304,123,99767,1,4,0:0:0:0:
338,45,99954,1,2,0:0:0:0:
338,45,100048,1,0,0:0:0:0:
338,45,100142,1,2,0:0:0:0:
437,53,100329,1,2,0:0:0:0:
470,147,100517,1,2,0:0:0:0:
470,147,100704,6,0,P|441:218|398:327,1,167.999994873047,12|2,0:0|0:0,0:0:0:0:
297,308,101267,2,0,B|198:304|155:268|155:268|224:278|273:262|293:214,1,293.999991027832,4|0,0:0|0:0,0:0:0:0:
206,179,102017,2,0,P|172:154|151:124,1,77.0000023498536,2|0,0:0|0:0,0:0:0:0:
180,37,102392,2,0,P|211:59|234:90,1,77.0000023498536,2|0,0:0|1:0,0:0:0:0:
329,78,102673,1,0,0:0:0:0:
329,78,102767,2,0,P|388:55|443:69,1,115.50000352478,2|0,0:0|0:0,0:0:0:0:
458,180,103142,5,12,0:0:0:0:
317,299,103517,2,0,P|255:250|257:170,2,154.000004699707,4|0|4,0:0|0:0|0:0,0:0:0:0:
458,180,104642,1,0,0:0:0:0:
252,179,105017,6,0,B|179:220|112:186|112:186|126:234|193:241,1,231.000007049561,4|0,0:0|0:0,0:0:0:0:
192,266,105673,1,0,0:0:0:0:
223,280,105767,2,0,P|250:349|321:373,2,154.000004699707,4|0|4,0:0|0:0|0:0,0:0:0:0:
96,68,106892,1,0,0:0:0:0:
269,116,107267,6,0,B|301:89|287:43|287:43|331:84|316:187,1,231.000007049561,4|0,0:0|0:0,0:0:0:0:
278,274,108017,2,0,B|269:320|248:342|248:342|220:327|201:280,1,154.000004699707,4|2,0:0|0:0,0:0:0:0:
182,190,108579,1,2,0:0:0:0:
181,97,108767,1,2,0:0:0:0:
261,142,108954,1,2,0:0:0:0:
350,123,109142,1,2,0:0:0:0:
320,213,109329,1,2,0:0:0:0:
320,213,109517,6,0,P|276:273|176:267,1,154.000004699707,4|0,0:0|0:0,0:0:0:0:
236,197,110079,1,2,0:0:0:0:
236,197,110173,1,2,0:0:0:0:
236,197,110267,2,0,P|229:154|236:107,1,77.0000023498536,2|0,0:0|0:0,0:0:0:0:
139,118,110642,1,4,0:0:0:0:
47,118,110829,1,0,0:0:0:0:
139,118,111017,6,0,P|142:156|135:194,1,77.0000023498536,2|2,0:0|0:0,0:0:0:0:
102,279,111392,1,4,0:0:0:0:
184,319,111579,1,2,0:0:0:0:
247,252,111767,6,0,P|285:242|323:242,1,77.0000023498536,2|2,0:0|0:0,0:0:0:0:
390,178,112142,1,4,0:0:0:0:
309,133,112329,5,0,0:0:0:0:
309,133,112423,1,0,0:0:0:0:
309,133,112517,6,0,P|229:140|170:91,1,154.000004699707,2|0,0:0|0:0,0:0:0:0:
82,45,113079,5,0,0:0:0:0:
82,45,113173,1,0,0:0:0:0:
82,45,113267,6,0,P|162:52|221:3,1,154.000004699707,2|2,0:0|0:0,0:0:0:0:
271,83,113829,1,2,0:0:0:0:
356,119,114017,1,2,0:0:0:0:
416,49,114204,1,2,0:0:0:0:
447,136,114392,2,0,L|477:221,1,77.0000023498536,2|2,0:0|0:0,0:0:0:0:
411,288,114767,1,2,0:0:0:0:
342,226,114954,5,0,0:0:0:0:
342,226,115048,1,0,0:0:0:0:
342,226,115142,2,0,L|304:180,4,38.5000011749268,0|0|0|0|2,0:0|0:0|0:0|0:0|0:0,0:0:0:0:
195,164,115892,2,0,L|157:118,4,38.5000011749268,0|0|0|2|0,0:0|0:0|0:0|0:0|0:0,0:0:0:0:
114,71,116642,1,4,0:0:0:0:
256,192,117017,12,2,118142,0:0:0:0:
74,107,118517,6,0,P|114:89|171:77,2,77.0000023498536,4|0|0,0:0|0:0|0:0,0:0:0:0:
72,191,119079,1,0,0:0:0:0:
74,275,119267,2,0,P|114:293|171:305,2,77.0000023498536,4|0|0,0:0|0:0|0:0,0:0:0:0:
72,191,119829,1,0,0:0:0:0:
156,191,120017,2,0,L|255:191,2,77.0000023498536,4|0|2,0:0|0:0|0:0,0:0:0:0:
72,191,120579,1,0,0:0:0:0:
72,191,120767,2,0,P|47:155|31:117,1,77.0000023498536,2|0,0:0|0:0,0:0:0:0:
121,96,121142,2,0,P|146:60|162:22,1,77.0000023498536,2|0,0:0|0:0,0:0:0:0:
238,77,121517,6,0,P|275:67|307:48,2,77.0000023498536,4|0|0,0:0|0:0|0:0,0:0:0:0:
190,157,122079,1,0,0:0:0:0:
274,194,122267,2,0,P|311:183|343:164,2,77.0000023498536,4|0|0,0:0|0:0|0:0,0:0:0:0:
204,254,122829,1,0,0:0:0:0:
288,291,123017,2,0,P|325:280|357:261,2,77.0000023498536,4|0|0,0:0|0:0|0:0,0:0:0:0:
204,254,123579,1,0,0:0:0:0:
117,305,123767,2,0,P|81:292|37:254,1,77.0000023498536,2|0,0:0|0:0,0:0:0:0:
53,168,124142,2,0,P|83:145|119:132,1,77.0000023498536,2|0,0:0|0:0,0:0:0:0:
318,73,124517,6,0,L|242:84,1,77.0000023498536,2|0,0:0|0:0,0:0:0:0:
390,153,124892,1,0,0:0:0:0:
424,67,125079,1,0,0:0:0:0:
390,153,125267,2,0,L|313:163,1,77.0000023498536,8|0,0:0|0:0,0:0:0:0:
255,254,125642,1,0,0:0:0:0:
221,168,125829,1,0,0:0:0:0:
255,254,126017,6,0,L|331:264,1,77.0000023498536,2|0,0:0|0:0,0:0:0:0:
429,286,126392,2,0,P|454:254|472:205,1,77.0000023498536,0|0,0:0|0:0,0:0:0:0:
374,185,126767,2,0,P|349:153|331:104,1,77.0000023498536,2|0,0:0|0:0,0:0:0:0:
433,104,127142,2,0,P|458:72|476:23,1,77.0000023498536,2|0,0:0|0:0,0:0:0:0:
334,119,127517,5,2,0:0:0:0:
256,192,127610,12,0,130517,1:0:0:0:
