osu file format v14

[General]
AudioFilename: audio.mp3
AudioLeadIn: 0
PreviewTime: 43517
Countdown: 0
SampleSet: Soft
StackLeniency: 1
Mode: 2
LetterboxInBreaks: 0
WidescreenStoryboard: 0

[Editor]
DistanceSpacing: 1.3
BeatDivisor: 4
GridSize: 16
TimelineZoom: 2.4

[Metadata]
Title:Myosotis
TitleUnicode:Myosotis
Artist:M2U
ArtistUnicode:M2U
Creator:Deif
Version:Rain
Source:Deemo
Tags:NICODE Guriri Lucy rayark Mobile collection Vol. 2 Magnolia forget-me-not dubstep Ascendance
BeatmapID:986068
BeatmapSetID:460422

[Difficulty]
HPDrainRate:6
CircleSize:3.6
OverallDifficulty:8.7
ApproachRate:8.7
SliderMultiplier:2.09999990463257
SliderTickRate:1

[Events]
//Background and Video events
0,0,"BG.jpg",0,0
//Break Periods
//Storyboard Layer 0 (Background)
//Storyboard Layer 1 (Fail)
//Storyboard Layer 2 (Pass)
//Storyboard Layer 3 (Foreground)
//Storyboard Sound Samples

[TimingPoints]
1517,375,4,2,1,60,1,0
1517,-133.333333333333,4,2,1,60,0,0
19517,-100,4,2,1,60,0,0
33017,-133.333333333333,4,2,1,60,0,0
78017,-200,4,2,1,70,0,0
78767,-66.6666666666667,4,2,1,70,0,1
79892,-100,4,2,1,70,0,1
80642,-66.6666666666667,4,2,1,70,0,1
81017,-200,4,2,1,70,0,0
81392,-100,4,2,1,70,0,0
81767,-66.6666666666667,4,2,1,70,0,1
84017,-200,4,2,1,70,0,0
84298,-66.6666666666667,4,2,1,70,0,1
84767,-100,4,2,1,70,0,1
85142,-66.6666666666667,4,2,1,70,0,1
85892,-100,4,2,1,70,0,1
86642,-66.6666666666667,4,2,1,70,0,1
87017,-200,4,2,1,70,0,0
87392,-66.6666666666667,4,2,1,70,0,1
88517,-100,4,2,1,70,0,1
90017,-200,4,2,1,70,0,0
90392,-100,4,2,1,70,0,0
90767,-66.6666666666667,4,2,1,70,0,1
91892,-100,4,2,1,70,0,1
92642,-66.6666666666667,4,2,1,70,0,1
93017,-200,4,2,1,70,0,0
93392,-100,4,2,1,70,0,0
93767,-66.6666666666667,4,2,1,70,0,1
96017,-200,4,2,1,70,0,0
96298,-66.6666666666667,4,2,1,70,0,1
96954,-100,4,2,1,70,0,1
97142,-66.6666666666667,4,2,1,70,0,1
97892,-100,4,2,1,70,0,1
98642,-66.6666666666667,4,2,1,70,0,1
99017,-200,4,2,1,70,0,0
99767,-100,4,2,1,70,0,0
100517,-66.6666666666667,4,2,1,70,0,1
101267,-200,4,2,1,60,0,0
102017,-133.333333333333,4,2,1,60,0,0
103142,-100,4,2,1,60,0,0
103517,-133.333333333333,4,2,1,60,0,0

[Colours]
Combo1 : 0,128,128
Combo2 : 255,255,0
Combo3 : 0,255,255
Combo4 : 128,128,0

[HitObjects]
64,192,1517,6,0,P|112:336|256:336,2,314.999997711182,2|0|2,0:3|0:3|0:0,0:0:0:0:
208,192,3392,1,0,0:0:0:0:
336,192,3767,1,0,0:0:0:0:
447,191,4142,1,0,0:0:0:0:
256,336,4517,6,0,P|404:332|448:192,1,314.999997711182,2|0,0:3|0:0,0:0:0:0:
256,192,5642,1,0,0:0:0:0:
64,192,6017,2,0,P|64:112|128:80,1,157.499998855591,2|0,0:3|0:0,0:0:0:0:
320,80,6767,1,0,0:0:0:0:
192,80,7142,1,0,0:0:0:0:
386,79,7517,6,0,P|451:117|448:192,1,157.499998855591,2|0,0:3|0:0,0:0:0:0:
192,304,8267,2,0,P|126:267|130:192,1,157.499998855591,0|0,0:0|0:0,0:0:0:0:
448,192,9017,2,0,P|416:240|320:256,2,157.499998855591,2|0|0,0:3|0:0|0:0,0:0:0:0:
256,192,10142,1,0,0:0:0:0:
64,192,10517,6,0,P|112:224|208:208,1,157.499998855591,2|0,0:3|0:0,0:0:0:0:
352,192,11267,1,0,0:0:0:0:
160,192,11642,1,0,0:0:0:0:
400,192,12017,2,0,P|416:128|352:64,1,157.499998855591,2|0,0:3|0:0,0:0:0:0:
153,65,12767,2,0,P|98:117|112:192,1,157.499998855591,0|0,0:0|0:0,0:0:0:0:
256,192,13517,12,0,18017,0:0:0:0:
256,192,19517,5,4,1:0:0:0:
368,192,19892,2,0,P|304:160|240:208,1,157.499992847443,2|0,0:0|0:0,0:0:0:0:
400,192,20267,2,0,P|480:128|432:48,1,209.999990463257,8|2,1:3|0:0,0:0:0:0:
320,48,20829,1,2,0:0:0:0:
64,48,21017,6,0,P|80:128|176:208,1,209.999990463257,4|2,3:0|0:0,0:0:0:0:
336,208,21579,2,0,L|400:208,1,52.4999976158143,2|0,0:0|0:0,0:0:0:0:
176,176,21767,2,0,L|64:176,1,104.999995231629,8|0,1:3|0:0,0:0:0:0:
224,192,22142,2,0,L|112:192,1,104.999995231629,4|0,1:2|0:1,0:0:0:0:
384,112,22517,6,0,L|480:64,1,104.999995231629,4|0,1:0|0:0,0:0:0:0:
432,96,22798,1,2,0:0:0:0:
384,112,22892,2,0,L|290:65,1,104.999995231629,2|2,0:0|0:0,0:0:0:0:
32,64,23267,2,0,L|125:110,1,104.999995231629,8|0,1:3|0:0,0:0:0:0:
264,160,23642,2,0,L|328:192,1,52.4999976158143,2|2,0:0|0:0,0:0:0:0:
240,224,23829,2,0,L|176:192,1,52.4999976158143,0|2,0:0|0:0,0:0:0:0:
352,208,24017,6,0,L|448:256,1,104.999995231629,4|0,3:0|0:0,0:0:0:0:
480,288,24298,1,2,0:0:0:0:
448,320,24392,1,0,0:0:0:0:
400,320,24486,1,2,0:0:0:0:
368,288,24580,1,0,0:0:0:0:
400,256,24673,1,0,0:0:0:0:
224,192,24767,2,0,L|144:112,1,104.999995231629,8|4,1:3|0:0,0:0:0:0:
362,117,25142,2,0,L|288:192,1,104.999995231629,4|0,0:0|0:0,0:0:0:0:
32,192,25517,6,0,L|48:304,1,104.999995231629,4|0,1:0|0:0,0:0:0:0:
160,128,25892,2,0,L|176:240,1,104.999995231629,2|2,0:0|0:0,0:0:0:0:
480,192,26267,2,0,L|464:304,1,104.999995231629,8|0,1:3|0:0,0:0:0:0:
352,128,26642,1,2,0:0:0:0:
370,175,26735,1,0,0:0:0:0:
349,222,26829,1,2,0:0:0:0:
302,241,26923,1,0,0:0:0:0:
80,224,27017,6,0,P|64:160|176:112,1,209.999990463257,4|2,3:0|0:0,0:0:0:0:
64,224,27579,1,2,0:0:0:0:
384,224,27767,2,0,L|496:224,1,104.999995231629,0|4,1:3|0:0,0:0:0:0:
368,224,28142,2,0,L|443:150,1,104.999995231629,4|2,0:0|0:0,0:0:0:0:
120,224,28517,6,0,L|16:224,1,104.999995231629,4|2,1:0|0:0,0:0:0:0:
80,224,28798,1,2,0:0:0:0:
144,224,28892,2,0,L|64:144,1,104.999995231629,0|0,0:0|0:0,0:0:0:0:
391,224,29267,2,0,L|496:224,1,104.999995231629,8|2,1:3|0:0,0:0:0:0:
432,224,29548,1,2,0:0:0:0:
368,224,29642,2,0,L|448:144,1,104.999995231629,0|2,0:0|0:0,0:0:0:0:
80,224,30017,5,4,1:0:0:0:
256,192,30204,12,2,32642,0:0:0:0:
176,192,33017,6,0,P|256:192|288:128,1,157.499998855591,4|2,0:0|0:0,0:0:0:0:
96,112,33767,2,0,L|48:176,1,78.7499994277954,2|0,0:0|0:0,0:0:0:0:
192,112,34142,2,0,L|240:176,1,78.7499994277954,2|2,0:0|0:0,0:0:0:0:
48,256,34517,6,0,P|128:256|160:192,1,157.499998855591,2|2,0:0|0:0,0:0:0:0:
64,192,35079,1,0,0:0:0:0:
176,192,35267,2,0,L|256:192,1,78.7499994277954,2|2,0:0|0:0,0:0:0:0:
384,192,35642,2,0,L|304:192,1,78.7499994277954,2|0,0:0|0:0,0:0:0:0:
144,192,36017,6,0,P|96:176|144:112,1,157.499998855591,2|2,0:0|0:0,0:0:0:0:
256,112,36579,1,0,0:0:0:0:
64,96,36767,2,0,P|128:64|224:64,1,157.499998855591,2|2,0:0|0:0,0:0:0:0:
336,64,37329,1,2,0:0:0:0:
224,112,37517,6,0,L|144:112,2,78.7499994277954,2|0|2,0:0|0:0|0:0,0:0:0:0:
336,112,38079,2,0,L|384:112,1,39.3749997138977,2|0,0:0|0:0,0:0:0:0:
208,192,38267,2,0,L|128:192,1,78.7499994277954,2|0,0:3|0:0,0:0:0:0:
304,192,38642,2,0,L|384:192,1,78.7499994277954,2|0,0:3|0:0,0:0:0:0:
128,192,39017,6,0,P|160:128|240:96,1,157.499998855591,4|0,0:3|0:0,0:0:0:0:
128,192,39579,1,0,0:0:0:0:
256,192,39767,2,0,L|336:192,1,78.7499994277954,0|0,1:0|0:0,0:0:0:0:
208,192,40142,1,4,0:3:0:0:
336,192,40329,1,0,0:0:0:0:
80,192,40517,5,4,0:3:0:0:
400,192,40892,1,6,0:0:0:0:
144,192,41267,1,6,0:0:0:0:
464,192,41642,1,2,0:0:0:0:
384,192,41829,1,2,0:0:0:0:
128,192,42017,6,0,L|64:128,1,78.7499994277954,4|0,0:3|0:0,0:0:0:0:
224,128,42392,2,0,L|160:64,1,78.7499994277954,6|0,0:0|0:0,0:0:0:0:
384,192,42767,2,0,L|448:128,1,78.7499994277954,0|2,1:0|0:0,0:0:0:0:
368,128,43048,1,2,0:0:0:0:
304,128,43142,1,4,0:3:0:0:
352,128,43235,1,0,0:0:0:0:
384,128,43329,1,0,0:0:0:0:
129,128,43517,6,0,L|208:128,1,78.7499994277954,4|0,1:0|0:0,0:0:0:0:
304,128,43892,2,0,L|383:128,1,78.7499994277954,2|2,0:0|0:0,0:0:0:0:
128,128,44267,2,0,L|192:192,1,78.7499994277954,8|0,1:3|0:0,0:0:0:0:
352,192,44642,1,2,0:0:0:0:
184,183,44829,1,2,0:0:0:0:
464,192,45017,6,0,L|416:256,1,78.7499994277954,6|0,3:0|0:0,0:0:0:0:
304,192,45392,2,0,L|352:128,1,78.7499994277954,2|2,0:0|0:0,0:0:0:0:
48,192,45767,2,0,L|96:256,1,78.7499994277954,8|0,1:3|0:0,0:0:0:0:
208,192,46142,1,2,0:0:0:0:
96,192,46329,1,2,0:0:0:0:
352,192,46517,6,0,B|416:192|416:192|336:240,1,157.499998855591,6|2,3:0|0:0,0:0:0:0:
448,208,47079,1,2,0:0:0:0:
160,192,47267,2,0,B|96:192|96:192|176:240,1,157.499998855591,8|2,3:0|0:0,0:0:0:0:
64,208,47829,1,2,0:0:0:0:
352,192,48017,6,0,L|416:144,1,78.7499994277954,6|0,3:0|0:0,0:0:0:0:
352,128,48298,1,0,0:0:0:0:
289,144,48392,2,0,L|352:192,1,78.7499994277954,0|0,0:0|0:0,0:0:0:0:
160,192,48767,2,0,P|80:192|48:176,1,118.124999141693,10|2,0:1|0:1,0:0:0:0:
160,192,49142,2,0,P|218:186|256:208,1,78.7499994277954,2|2,0:1|0:0,0:0:0:0:
272,208,49423,1,2,0:0:0:0:
96,240,49517,6,0,L|32:304,1,78.7499994277954,6|0,3:3|0:0,0:0:0:0:
144,240,49892,2,0,L|208:304,1,78.7499994277954,2|0,0:0|0:3,0:0:0:0:
368,240,50267,2,0,L|304:176,1,78.7499994277954,8|0,1:3|0:3,0:0:0:0:
208,192,50642,2,0,L|272:128,1,78.7499994277954,2|4,0:0|0:3,0:0:0:0:
432,144,51017,6,0,L|368:80,1,78.7499994277954,6|0,3:0|0:0,0:0:0:0:
80,144,51392,2,0,L|144:80,1,78.7499994277954,2|2,0:0|0:0,0:0:0:0:
320,240,51767,2,0,L|256:304,1,78.7499994277954,8|0,1:3|0:0,0:0:0:0:
112,240,52142,2,0,L|176:304,1,78.7499994277954,2|2,0:0|0:0,0:0:0:0:
432,192,52517,6,0,L|352:192,1,78.7499994277954,6|0,3:0|0:0,0:0:0:0:
224,128,52892,1,2,0:0:0:0:
336,128,53079,1,2,0:0:0:0:
80,192,53267,2,0,L|160:192,1,78.7499994277954,10|0,1:3|0:0,0:0:0:0:
288,256,53642,1,2,0:0:0:0:
176,256,53829,1,2,0:0:0:0:
464,192,54017,6,0,P|448:80|416:48,1,157.499998855591,6|10,1:0|1:0,0:0:0:0:
160,80,54579,1,10,1:0:0:0:
336,80,54767,2,0,L|256:80,1,78.7499994277954,10|10,1:3|1:0,0:0:0:0:
208,80,55048,1,2,1:3:0:0:
48,80,55142,2,0,L|128:80,1,78.7499994277954,10|4,1:0|0:0,0:0:0:0:
383,256,55517,6,0,L|304:256,1,78.7499994277954,4|0,1:2|0:0,0:0:0:0:
208,256,55892,2,0,L|129:256,1,78.7499994277954,2|2,0:0|0:0,0:0:0:0:
384,256,56267,2,0,L|320:192,1,78.7499994277954,8|0,1:3|0:0,0:0:0:0:
160,208,56642,1,2,0:0:0:0:
328,201,56829,1,2,0:0:0:0:
48,192,57017,6,0,L|96:128,1,78.7499994277954,6|0,3:0|0:0,0:0:0:0:
208,192,57392,2,0,L|160:256,1,78.7499994277954,2|2,0:0|0:0,0:0:0:0:
464,192,57767,2,0,L|416:128,1,78.7499994277954,8|0,1:3|0:0,0:0:0:0:
304,192,58142,1,2,0:3:0:0:
416,192,58329,1,2,0:0:0:0:
160,192,58517,6,0,B|96:192|96:192|176:144,1,157.499998855591,6|2,3:0|0:0,0:0:0:0:
64,176,59079,1,2,0:3:0:0:
352,192,59267,2,0,B|416:192|416:192|336:144,1,157.499998855591,8|2,3:0|0:0,0:0:0:0:
448,176,59829,1,2,0:0:0:0:
160,192,60017,6,0,L|96:240,1,78.7499994277954,6|0,1:3|0:0,0:0:0:0:
160,256,60298,1,4,0:3:0:0:
223,240,60392,2,0,L|160:192,1,78.7499994277954,0|6,0:0|3:0,0:0:0:0:
352,192,60767,2,0,P|432:192|464:208,1,118.124999141693,10|2,1:3|0:1,0:0:0:0:
352,192,61142,2,0,P|294:198|256:176,1,78.7499994277954,4|2,0:2|0:0,0:0:0:0:
240,176,61423,1,2,0:0:0:0:
416,144,61517,6,0,L|480:80,1,78.7499994277954,6|0,3:3|0:0,0:0:0:0:
368,144,61892,2,0,L|304:80,1,78.7499994277954,2|4,0:0|0:3,0:0:0:0:
144,144,62267,2,0,L|208:208,1,78.7499994277954,8|4,1:3|0:3,0:0:0:0:
304,192,62642,2,0,L|240:256,1,78.7499994277954,2|4,0:0|0:3,0:0:0:0:
80,240,63017,6,0,L|144:304,1,78.7499994277954,6|0,1:3|0:0,0:0:0:0:
432,240,63392,2,0,L|368:304,1,78.7499994277954,2|2,0:0|0:0,0:0:0:0:
192,144,63767,2,0,L|256:80,1,78.7499994277954,8|0,1:3|0:0,0:0:0:0:
400,144,64142,2,0,L|336:80,1,78.7499994277954,2|2,0:0|0:0,0:0:0:0:
80,192,64517,6,0,L|160:192,1,78.7499994277954,6|0,1:3|0:0,0:0:0:0:
288,256,64892,1,2,0:0:0:0:
176,256,65079,1,2,0:0:0:0:
432,192,65267,2,0,L|352:192,1,78.7499994277954,8|0,1:3|0:0,0:0:0:0:
224,128,65642,1,4,1:2:0:0:
336,128,65829,1,2,0:0:0:0:
64,128,66017,6,0,L|128:192,1,78.7499994277954,6|2,1:0|0:0,0:0:0:0:
224,192,66392,1,4,1:2:0:0:
64,128,66579,1,2,0:0:0:0:
224,192,66767,2,0,L|160:256,1,78.7499994277954,2|2,1:0|0:0,0:0:0:0:
64,256,67142,1,4,1:3:0:0:
224,192,67329,1,2,0:0:0:0:
384,128,67517,6,0,L|320:192,1,78.7499994277954,4|2,1:3|0:0,0:0:0:0:
128,128,67892,2,0,L|192:192,1,78.7499994277954,2|0,1:0|0:1,0:0:0:0:
328,200,68267,2,0,L|384:256,1,78.7499994277954,4|2,1:2|0:0,0:0:0:0:
183,200,68642,2,0,L|128:256,1,78.7499994277954,2|2,1:0|0:0,0:0:0:0:
384,192,69017,5,4,1:2:0:0:
448,272,69204,1,4,3:0:0:0:
288,192,69392,1,2,1:3:0:0:
336,320,69579,1,4,3:0:0:0:
128,192,69767,1,4,1:2:0:0:
64,272,69954,1,4,3:0:0:0:
224,192,70142,1,2,1:3:0:0:
176,320,70329,1,4,3:0:0:0:
448,192,70517,5,6,1:2:0:0:
468,224,70610,1,0,1:0:0:0:
432,240,70704,1,4,1:3:0:0:
452,273,70798,1,0,1:0:0:0:
416,288,70892,1,8,1:3:0:0:
378,283,70985,1,0,1:0:0:0:
305,288,71079,1,4,1:3:0:0:
269,279,71173,1,0,1:0:0:0:
193,288,71267,1,0,1:0:0:0:
173,254,71360,1,0,1:0:0:0:
192,208,71454,1,12,1:3:0:0:
240,192,71548,1,0,1:0:0:0:
400,192,71642,2,0,L|480:192,1,78.7499994277954,8|0,1:0|0:0,0:0:0:0:
160,272,72017,6,0,P|80:208|160:128,1,236.249998283386,4|2,1:0|0:0,0:0:0:0:
336,128,72767,2,0,P|416:144|448:208,1,157.499998855591,8|2,1:3|0:0,0:0:0:0:
368,192,73329,1,2,0:0:0:0:
175,127,73517,6,0,P|100:140|64:206,1,157.499998855591,4|2,1:0|0:0,0:0:0:0:
144,192,74079,1,2,0:0:0:0:
336,256,74267,2,0,P|416:240|448:176,1,157.499998855591,8|4,1:3|0:0,0:0:0:0:
368,192,74829,1,0,0:0:0:0:
112,192,75017,5,4,1:0:0:0:
256,192,75767,12,0,77642,0:0:0:0:
224,112,78017,6,0,B|256:144|288:112|288:112|256:80|224:112|224:112|272:112,1,183.74999165535,4|0,1:3|0:0,0:0:0:0:
432,112,78767,6,0,P|464:192|288:288,1,314.999997711182,10|2,1:0|1:1,0:0:0:0:
144,112,79329,1,2,1:0:0:0:
48,96,79423,2,0,P|32:192|64:240,1,157.499998855591,8|0,0:3|1:0,0:0:0:0:
160,192,79704,1,2,1:0:0:0:
448,224,79892,6,0,L|416:112,1,104.999995231629,10|8,1:0|1:0,0:0:0:0:
160,192,80267,2,0,L|192:304,1,104.999995231629,10|8,1:0|1:0,0:0:0:0:
256,192,80548,1,0,0:0:0:0:
416,192,80642,2,0,P|480:144|384:80,1,236.249998283386,14|0,1:0|0:0,0:0:0:0:
208,192,81017,6,0,L|128:192,1,78.7499964237214,4|0,3:3|0:0,0:0:0:0:
208,192,81392,2,0,P|256:256|208:272,1,157.499992847443,2|0,1:0|0:0,0:0:0:0:
128,272,81767,5,10,1:0:0:0:
384,192,81954,1,4,1:2:0:0:
224,192,82142,1,0,0:0:0:0:
480,192,82329,2,0,B|448:32|448:32|416:112,1,236.249998283386,6|2,1:0|0:0,0:0:0:0:
256,192,82704,5,10,1:0:0:0:
400,192,82892,1,2,1:0:0:0:
256,192,83079,2,0,L|200:128,1,78.7499994277954,8|8,1:0|3:0,0:0:0:0:
304,128,83267,2,0,P|336:208|304:272,1,157.499998855591,10|8,1:0|3:0,0:0:0:0:
208,256,83548,2,0,P|176:176|208:112,1,157.499998855591,2|8,1:0|3:0,0:0:0:0:
288,128,83829,1,2,1:0:0:0:
32,192,84017,5,4,3:0:0:0:
288,192,84298,2,0,L|432:256,1,157.499998855591,12|2,1:2|0:0,0:0:0:0:
272,192,84579,1,2,1:0:0:0:
112,192,84767,2,0,L|48:192,2,52.4999976158143,10|2|2,1:0|0:0|1:0,0:0:0:0:
304,192,85142,6,0,P|400:176|432:128,1,157.499998855591,0|2,1:0|1:0,0:0:0:0:
320,64,85423,2,0,P|224:80|192:128,1,157.499998855591,2|2,0:1|1:0,0:0:0:0:
304,192,85704,1,4,3:0:0:0:
380,188,85797,1,0,0:1:0:0:
208,192,85892,6,0,L|96:192,1,104.999995231629,10|8,1:0|1:0,0:0:0:0:
192,160,86173,1,8,1:3:0:0:
256,160,86267,1,10,1:0:0:0:
307,152,86360,1,8,1:3:0:0:
343,115,86454,1,8,1:0:0:0:
352,64,86548,1,8,3:0:0:0:
96,192,86642,2,0,P|32:144|128:80,1,236.249998283386,2|0,1:0|0:0,0:0:0:0:
304,192,87017,6,0,L|384:192,1,78.7499964237214,4|0,3:0|0:0,0:0:0:0:
304,192,87392,1,2,1:0:0:0:
144,192,87579,2,0,L|80:144,2,78.7499994277954,2|2|8,1:0|1:0|1:0,0:0:0:0:
304,192,87954,2,0,B|336:32|336:32|176:32,1,314.999997711182,6|2,1:2|1:0,0:0:0:0:
336,32,88517,5,4,3:0:0:0:
80,32,88704,2,0,P|48:128|144:160,1,209.999990463257,10|0,1:0|1:0,0:0:0:0:
384,192,89267,2,0,P|416:224|432:288,1,104.999995231629,10|2,1:0|1:0,0:0:0:0:
128,192,89642,2,0,P|96:160|80:96,1,104.999995231629,6|0,1:2|0:0,0:0:0:0:
384,192,90017,6,0,L|464:192,1,78.7499964237214,4|0,3:0|0:0,0:0:0:0:
368,192,90392,2,0,P|316:144|368:96,1,157.499992847443,4|0,3:0|0:0,0:0:0:0:
208,96,90767,5,10,1:0:0:0:
128,96,90860,1,0,0:0:0:0:
80,96,90954,1,2,1:0:0:0:
272,96,91142,1,0,1:0:0:0:
352,96,91235,1,2,1:0:0:0:
400,96,91329,1,0,0:0:0:0:
336,144,91423,2,0,P|352:208|432:240,1,157.499998855591,2|0,1:0|1:0,0:0:0:0:
368,304,91704,1,2,1:0:0:0:
288,304,91798,1,0,1:0:0:0:
112,304,91892,6,0,P|64:288|48:240,1,104.999995231629,10|8,1:0|1:0,0:0:0:0:
128,240,92173,1,0,0:0:0:0:
208,240,92267,2,0,P|160:223|145:175,1,104.999995231629,10|8,1:0|1:0,0:0:0:0:
224,176,92548,1,0,0:0:0:0:
480,192,92642,2,0,P|480:128|400:96,1,157.499998855591,2|0,1:2|0:0,0:0:0:0:
144,96,93017,6,0,L|80:96,1,52.4999976158143,12|0,3:0|0:0,0:0:0:0:
196,96,93392,2,0,L|91:96,1,104.999995231629
256,96,93767,5,10,1:0:0:0:
336,96,93860,1,2,1:0:0:0:
256,96,93954,1,0,1:0:0:0:
176,96,94048,2,0,L|336:96,1,157.499998855591,2|0,1:0|0:0,0:0:0:0:
176,96,94329,2,0,P|96:176|176:224,1,236.249998283386,10|0,1:0|1:0,0:0:0:0:
336,224,94704,5,10,1:0:0:0:
192,256,94892,1,2,1:0:0:0:
336,288,95079,1,0,1:0:0:0:
48,192,95267,2,0,P|128:144|192:144,1,157.499998855591,10|2,1:0|1:0,0:0:0:0:
288,144,95548,2,0,P|336:208|288:224,1,157.499998855591,2|2,1:0|1:0,0:0:0:0:
192,224,95829,1,4,1:2:0:0:
448,192,96017,5,4,3:0:0:0:
96,192,96298,2,0,P|128:256|208:272,1,157.499998855591,12|0,1:2|0:0,0:0:0:0:
400,192,96579,1,2,1:0:0:0:
256,192,96767,2,0,L|192:144,2,78.7499994277954,8|2|2,1:0|1:0|1:0,0:0:0:0:
416,96,97142,5,0,1:0:0:0:
352,96,97235,1,2,1:0:0:0:
288,96,97329,1,2,1:0:0:0:
352,128,97423,2,0,L|256:256,1,157.499998855591,2|2,1:0|1:0,0:0:0:0:
336,304,97704,1,2,1:0:0:0:
416,304,97798,1,0,0:0:0:0:
256,304,97892,6,0,P|208:288|192:240,1,104.999995231629,10|8,1:0|1:0,0:0:0:0:
272,240,98173,1,8,3:0:0:0:
352,240,98267,2,0,P|400:223|415:175,1,104.999995231629,10|8,1:0|1:0,0:0:0:0:
336,176,98548,1,8,3:0:0:0:
80,192,98642,2,0,P|80:128|160:96,1,157.499998855591,2|0,1:0|0:0,0:0:0:0:
416,192,99017,6,0,B|464:192|464:192|432:176,1,78.7499964237214,4|0,3:0|0:0,0:0:0:0:
368,176,99392,2,0,L|432:176,1,52.4999976158143,2|2,1:0|1:0,0:0:0:0:
144,192,99767,5,8,1:0:0:0:
256,192,99954,2,0,L|368:192,1,104.999995231629,2|2,1:0|1:0,0:0:0:0:
320,144,100235,1,0,1:0:0:0:
144,192,100329,1,8,1:0:0:0:
192,144,100423,1,8,3:0:0:0:
368,192,100517,5,2,1:0:0:0:
240,192,100704,2,0,P|256:96|448:32,1,314.999997711182,4|0,1:2|1:0,0:0:0:0:
336,192,101173,1,0,1:0:0:0:
240,304,101267,2,0,P|338:281|372:187,1,209.999990463257,4|4,1:0|1:2,0:0:0:0:
144,192,102392,6,0,P|112:128|128:80,1,118.124999141693,8|8,0:0|0:0,0:0:0:0:
160,96,102767,1,4,3:0:0:0:
129,120,102860,1,8,0:0:0:0:
91,127,102954,1,2,0:0:0:0:
54,116,103048,1,2,0:0:0:0:
256,192,103142,2,0,L|368:192,1,104.999995231629,6|0,1:2|0:0,0:0:0:0:
96,192,103517,6,0,P|112:272|176:304,1,157.499998855591,4|2,1:2|0:0,0:0:0:0:
416,192,104267,1,4,1:2:0:0:
96,192,104642,1,2,0:0:0:0:
416,192,105017,6,0,P|400:272|336:304,1,157.499998855591,4|0,1:2|0:0,0:0:0:0:
208,192,105579,2,0,L|160:192,1,39.3749997138977,2|2,0:0|0:0,0:0:0:0:
256,192,105767,1,4,1:2:0:0:
416,192,106142,1,2,0:0:0:0:
192,192,106517,6,0,P|256:232|320:192,1,157.499998855591,4|2,1:2|0:0,0:0:0:0:
256,160,107079,1,2,0:0:0:0:
80,192,107267,2,0,P|96:272|160:320,1,157.499998855591,4|0,1:2|0:0,0:0:0:0:
256,336,107829,1,2,0:0:0:0:
432,192,108017,6,0,P|416:272|352:320,1,157.499998855591,4|8,1:2|1:2,0:0:0:0:
256,336,108579,1,2,0:0:0:0:
192,336,108673,1,2,0:0:0:0:
256,336,108767,2,0,L|336:336,1,78.7499994277954,4|2,1:2|0:0,0:0:0:0:
144,192,109142,2,0,L|224:192,1,78.7499994277954,8|8,1:2|1:2,0:0:0:0:
480,192,109517,6,0,P|448:128|368:112,1,157.499998855591,4|8,1:0|1:0,0:0:0:0:
208,112,110079,2,0,L|192:160,1,39.3749997138977,2|2,0:0|0:0,0:0:0:0:
272,160,110267,2,0,L|304:256,1,78.7499994277954,2|4,0:0|1:3,0:0:0:0:
160,240,110642,1,8,1:0:0:0:
304,256,110829,1,4,3:0:0:0:
144,288,111017,6,0,L|64:288,1,78.7499994277954,6|2,1:3|0:0,0:0:0:0:
208,288,111392,2,0,L|144:224,1,78.7499994277954,8|2,1:0|0:0,0:0:0:0:
400,224,111767,2,0,L|345:280,1,78.7499994277954,2|4,0:1|3:0,0:0:0:0:
240,192,112142,1,10,1:0:0:0:
400,192,112329,1,2,0:0:0:0:
112,192,112517,6,0,P|80:144|128:64,1,157.499998855591,6|8,1:3|1:0,0:0:0:0:
256,64,113079,2,0,L|304:64,1,39.3749997138977,2|2,0:0|0:0,0:0:0:0:
256,64,113267,2,0,L|176:64,1,78.7499994277954,2|4,0:1|3:0,0:0:0:0:
48,192,113642,2,0,L|128:192,1,78.7499994277954,8|2,1:0|1:0,0:0:0:0:
256,320,114017,6,0,L|176:320,1,78.7499994277954,6|2,1:3|0:1,0:0:0:0:
304,192,114392,2,0,L|384:192,2,78.7499994277954,8|2|2,1:0|0:1|0:1,0:0:0:0:
208,192,114954,2,0,L|240:160,1,39.3749997138977,4|2,3:0|0:0,0:0:0:0:
304,192,115142,2,0,L|336:160,1,39.3749997138977,10|0,1:0|0:0,0:0:0:0:
400,192,115329,2,0,L|432:160,1,39.3749997138977,2|0,1:0|1:0,0:0:0:0:
272,192,115517,6,0,L|112:192,1,157.499998855591,6|10,1:3|1:0,0:0:0:0:
168,168,115985,1,0,0:0:0:0:
224,144,116079,1,2,1:0:0:0:
192,96,116173,1,0,0:0:0:0:
112,144,116267,2,0,L|32:144,1,78.7499994277954,2|8,1:0|3:0,0:0:0:0:
192,96,116642,2,0,L|112:96,1,78.7499994277954,8|0,1:0|1:0,0:0:0:0:
384,192,117017,5,4,1:0:0:0:
256,192,117204,12,0,118329,0:0:0:0:
448,256,118517,6,0,L|384:192,1,78.7499994277954,6|2,1:3|0:0,0:0:0:0:
288,192,118892,1,2,0:0:0:0:
448,256,119079,1,0,0:0:0:0:
288,192,119267,2,0,L|352:128,1,78.7499994277954,6|2,1:3|0:0,0:0:0:0:
448,128,119642,1,2,0:0:0:0:
288,192,119829,1,0,0:0:0:0:
128,256,120017,6,0,L|192:192,1,78.7499994277954,6|2,1:3|0:0,0:0:0:0:
384,256,120392,2,0,L|320:192,1,78.7499994277954,2|2,0:0|0:0,0:0:0:0:
184,184,120767,2,0,L|128:128,1,78.7499994277954,6|2,1:3|0:0,0:0:0:0:
329,184,121142,2,0,L|384:128,1,78.7499994277954,2|2,0:0|0:0,0:0:0:0:
128,192,121517,5,6,1:0:0:0:
80,112,121704,1,2,0:0:0:0:
240,192,121892,1,2,0:0:0:0:
192,64,122079,1,0,0:0:0:0:
384,192,122267,1,6,1:0:0:0:
432,112,122454,1,2,0:0:0:0:
272,192,122642,1,2,0:0:0:0:
320,64,122829,1,0,0:0:0:0:
64,192,123017,6,0,L|144:192,1,78.7499994277954,6|2,1:0|0:0,0:0:0:0:
320,192,123392,1,2,0:0:0:0:
192,192,123579,1,0,0:0:0:0:
369,192,123767,2,0,L|448:192,1,78.7499994277954,6|2,1:3|0:0,0:0:0:0:
143,192,124142,2,0,L|63:192,1,78.7499994277954,2|2,0:0|0:0,0:0:0:0:
352,112,124517,6,0,P|432:176|352:256,1,236.249998283386,4|2,1:0|0:0,0:0:0:0:
176,256,125267,2,0,P|96:240|64:176,1,157.499998855591,8|2,1:3|0:0,0:0:0:0:
144,192,125829,1,2,0:0:0:0:
337,257,126017,6,0,P|412:243|448:176,1,157.499998855591,4|2,1:0|0:0,0:0:0:0:
368,192,126579,1,2,0:0:0:0:
176,128,126767,2,0,P|96:144|64:208,1,157.499998855591,8|4,1:3|0:0,0:0:0:0:
144,192,127329,1,0,0:0:0:0:
400,192,127517,5,4,1:0:0:0:
256,192,128267,12,4,130517,0:0:0:0:
