osu file format v14

[General]
AudioFilename: audio.mp3
AudioLeadIn: 0
PreviewTime: 43517
Countdown: 0
SampleSet: Soft
StackLeniency: 1
Mode: 2
LetterboxInBreaks: 0
WidescreenStoryboard: 0

[Editor]
DistanceSpacing: 1.3
BeatDivisor: 4
GridSize: 16
TimelineZoom: 1

[Metadata]
Title:Myosotis
TitleUnicode:Myosotis
Artist:M2U
ArtistUnicode:M2U
Creator:Deif
Version:Overdose
Source:Deemo
Tags:NICODE Guriri Lucy rayark Mobile collection Vol. 2 Magnolia forget-me-not dubstep Ascendance
BeatmapID:986067
BeatmapSetID:460422

[Difficulty]
HPDrainRate:7
CircleSize:4
OverallDifficulty:9.1
ApproachRate:9.1
SliderMultiplier:2.49999990463257
SliderTickRate:1

[Events]
//Background and Video events
0,0,"BG.jpg",0,0
//Break Periods
//Storyboard Layer 0 (Background)
//Storyboard Layer 1 (Fail)
//Storyboard Layer 2 (Pass)
//Storyboard Layer 3 (Foreground)
//Storyboard Sound Samples

[TimingPoints]
1517,375,4,2,1,60,1,0
1517,-133.333333333333,4,2,1,60,0,0
19517,-100,4,2,1,60,0,0
33017,-133.333333333333,4,2,1,60,0,0
78017,-200,4,2,1,70,0,0
78767,-66.6666666666667,4,2,1,70,0,1
79892,-100,4,2,1,70,0,1
80642,-66.6666666666667,4,2,1,70,0,1
81017,-200,4,2,1,70,0,0
81392,-100,4,2,1,70,0,0
81767,-66.6666666666667,4,2,1,70,0,1
84017,-200,4,2,1,70,0,0
84298,-66.6666666666667,4,2,1,70,0,1
84954,-100,4,2,1,70,0,1
85142,-66.6666666666667,4,2,1,70,0,1
85892,-100,4,2,1,70,0,1
86642,-66.6666666666667,4,2,1,70,0,1
87017,-200,4,2,1,70,0,0
87392,-66.6666666666667,4,2,1,70,0,1
88517,-100,4,2,1,70,0,1
90017,-200,4,2,1,70,0,0
90392,-100,4,2,1,70,0,0
90767,-66.6666666666667,4,2,1,70,0,1
91892,-100,4,2,1,70,0,1
92642,-66.6666666666667,4,2,1,70,0,1
93017,-200,4,2,1,70,0,0
93392,-100,4,2,1,70,0,0
93767,-66.6666666666667,4,2,1,70,0,1
96017,-200,4,2,1,70,0,0
96298,-66.6666666666667,4,2,1,70,0,1
96954,-100,4,2,1,70,0,1
97142,-66.6666666666667,4,2,1,70,0,1
97892,-100,4,2,1,70,0,1
98642,-66.6666666666667,4,2,1,70,0,1
99017,-200,4,2,1,70,0,0
99767,-100,4,2,1,70,0,0
100517,-66.6666666666667,4,2,1,70,0,1
101267,-200,4,2,1,60,0,0
102017,-133.333333333333,4,2,1,60,0,0
103142,-100,4,2,1,60,0,0
103517,-133.333333333333,4,2,1,60,0,0

[Colours]
Combo1 : 0,128,128
Combo2 : 255,255,0
Combo3 : 0,255,255
Combo4 : 128,128,0

[HitObjects]
336,256,1517,6,0,P|400:200|336:160,1,187.5,2|2,0:3|0:0,0:0:0:0:
48,95,2267,2,0,P|215:106|192:272,1,375,0|2,0:3|0:0,0:0:0:0:
80,272,3392,1,0,0:0:0:0:
320,272,3767,1,0,0:0:0:0:
192,272,4142,1,0,0:0:0:0:
463,95,4517,6,0,P|296:106|320:272,1,375,2|0,0:3|0:0,0:0:0:0:
464,272,5642,1,0,0:0:0:0:
144,192,6017,1,2,0:3:0:0:
368,192,6392,1,0,0:0:0:0:
160,144,6767,1,0,0:0:0:0:
352,144,7142,1,0,0:0:0:0:
47,271,7517,6,0,P|51:181|125:128,1,187.5,2|0,0:3|0:0,0:0:0:0:
385,128,8267,2,0,P|458:181|464:272,1,187.5
128,192,9017,2,0,P|64:140|128:88,1,187.5,2|0,0:3|0:0,0:0:0:0:
384,80,9767,2,0,L|197:80,1,187.5,0|0,0:0|0:0,0:0:0:0:
448,80,10517,6,0,P|480:160|448:256,1,187.5,2|0,0:3|0:0,0:0:0:0:
224,288,11267,1,0,0:0:0:0:
416,288,11642,1,0,0:0:0:0:
96,288,12017,2,0,P|112:192|160:112,1,187.5,2|0,0:3|0:0,0:0:0:0:
416,96,12767,2,0,P|400:192|352:272,1,187.5,0|0,0:0|0:0,0:0:0:0:
256,192,13517,12,0,18017,0:0:0:0:
128,192,19517,6,0,L|304:128,1,187.499992847443,4|0,1:0|0:0,0:0:0:0:
400,128,19892,2,0,P|448:176|400:272,1,187.499992847443,2|0,0:0|0:0,0:0:0:0:
128,272,20267,2,0,P|64:224|176:176,1,249.999990463257,8|2,1:3|0:0,0:0:0:0:
336,192,20829,1,2,0:0:0:0:
48,192,21017,6,0,P|112:96|240:80,1,249.999990463257,4|2,3:0|0:0,0:0:0:0:
432,80,21579,1,2,0:0:0:0:
400,80,21625,1,0,0:0:0:0:
368,80,21672,1,0,0:0:0:0:
193,83,21767,2,0,L|64:128,1,124.999995231629,8|0,1:3|0:0,0:0:0:0:
256,192,22142,2,0,L|320:304,1,124.999995231629,4|0,1:2|0:1,0:0:0:0:
256,304,22423,1,0,0:0:0:0:
80,256,22517,6,0,L|192:192,1,124.999995231629,4|0,1:0|0:0,0:0:0:0:
256,192,22798,1,2,0:0:0:0:
432,192,22892,1,2,0:0:0:0:
477,153,22985,1,0,0:0:0:0:
465,95,23079,1,2,0:0:0:0:
408,77,23173,1,0,0:0:0:0:
192,80,23267,2,0,L|256:192,1,124.999995231629,8|0,1:3|0:0,0:0:0:0:
80,192,23642,1,2,0:0:0:0:
34,230,23735,1,2,0:0:0:0:
46,288,23829,1,0,0:0:0:0:
103,306,23923,1,2,0:0:0:0:
320,304,24017,5,4,3:0:0:0:
381,306,24110,1,2,0:0:0:0:
438,280,24204,1,0,0:0:0:0:
475,231,24298,1,2,0:0:0:0:
487,170,24392,1,0,0:0:0:0:
469,111,24485,1,2,0:0:0:0:
425,67,24579,1,0,0:0:0:0:
367,47,24673,1,0,0:0:0:0:
176,48,24767,2,0,L|64:112,1,124.999995231629,8|4,1:3|0:0,0:0:0:0:
339,206,25142,2,0,L|448:144,1,124.999995231629,4|0,0:0|0:0,0:0:0:0:
64,64,25517,6,0,L|48:192,1,124.999995231629,4|0,1:0|0:0,0:0:0:0:
192,272,25892,2,0,L|176:144,1,124.999995231629,2|2,0:0|0:0,0:0:0:0:
480,144,26267,1,8,1:3:0:0:
352,192,26454,1,0,0:0:0:0:
464,240,26642,1,2,0:0:0:0:
433,292,26735,1,0,0:0:0:0:
375,311,26829,1,2,0:0:0:0:
319,287,26923,1,0,0:0:0:0:
128,176,27017,6,0,L|32:96,1,124.999995231629,4|0,3:0|0:0,0:0:0:0:
96,96,27298,1,0,0:0:0:0:
40,80,27392,1,2,0:0:0:0:
96,64,27485,1,0,0:0:0:0:
48,48,27579,1,2,0:0:0:0:
96,32,27673,1,0,0:0:0:0:
288,32,27767,2,0,L|400:96,1,124.999995231629,0|4,1:3|0:0,0:0:0:0:
115,94,28142,2,0,L|224:32,1,124.999995231629,4|2,0:0|0:0,0:0:0:0:
496,112,28517,6,0,P|432:176|400:176,1,124.999995231629,4|2,1:0|0:0,0:0:0:0:
343,168,28798,1,2,0:0:0:0:
290,199,28892,1,0,0:0:0:0:
267,256,28986,1,2,0:0:0:0:
304,304,29080,1,2,0:0:0:0:
256,352,29173,1,0,0:0:0:0:
16,112,29267,2,0,P|80:176|112:176,1,124.999995231629,8|2,1:3|0:0,0:0:0:0:
169,168,29548,1,2,0:0:0:0:
222,199,29642,1,0,0:0:0:0:
245,256,29736,1,2,0:0:0:0:
208,304,29830,1,2,0:0:0:0:
256,352,29923,1,0,0:0:0:0:
496,112,30017,5,4,1:0:0:0:
256,192,30110,12,0,32267,0:0:0:0:
347,144,32642,6,0,L|464:96,1,124.999995231629,2|0,0:0|0:3,0:0:0:0:
160,144,33017,6,0,L|352:144,1,187.5,4|2,0:0|0:0,0:0:0:0:
160,144,33767,2,0,L|80:96,1,93.7500000000001,2|0,0:0|0:0,0:0:0:0:
240,144,34142,2,0,L|160:192,1,93.7500000000001,2|2,0:0|0:0,0:0:0:0:
352,144,34517,6,0,P|432:208|400:272,1,187.5,2|2,0:0|0:0,0:0:0:0:
272,272,35079,1,0,0:0:0:0:
464,192,35267,2,0,L|384:144,1,93.7500000000001,2|2,0:0|0:0,0:0:0:0:
208,96,35642,2,0,L|128:144,1,93.7500000000001,2|0,0:0|0:0,0:0:0:0:
400,192,36017,6,0,P|368:272|272:272,1,187.5,2|2,0:0|0:0,0:0:0:0:
400,192,36579,1,0,0:0:0:0:
112,192,36767,2,0,P|144:112|240:112,1,187.5,2|2,0:0|0:0,0:0:0:0:
112,192,37329,1,2,0:0:0:0:
288,192,37517,6,0,L|320:96,1,93.7500000000001,2|0,0:0|0:0,0:0:0:0:
480,144,37892,2,0,L|400:96,1,93.7500000000001,2|2,0:0|0:0,0:0:0:0:
368,80,38126,1,0,0:0:0:0:
336,64,38173,1,0,0:0:0:0:
176,64,38267,2,0,L|128:144,1,93.7500000000001,2|0,0:3|0:0,0:0:0:0:
336,64,38642,2,0,L|384:144,1,93.7500000000001,2|0,0:3|0:0,0:0:0:0:
96,144,39017,6,0,P|80:208|160:288,1,187.5,4|0,0:3|0:0,0:0:0:0:
256,288,39579,1,0,0:0:0:0:
400,272,39767,2,0,L|432:176,1,93.7500000000001,0|0,1:0|0:0,0:0:0:0:
256,192,40142,2,0,L|224:96,1,93.7500000000001,4|0,0:3|0:0,0:0:0:0:
480,112,40517,6,0,B|400:64|400:64|352:64,1,140.625,4|0,0:3|0:0,0:0:0:0:
144,176,40892,2,0,B|224:128|224:128|272:128,1,140.625,6|0,0:0|0:0,0:0:0:0:
432,128,41267,2,0,P|448:224|384:272,1,187.5,6|2,0:0|0:0,0:0:0:0:
224,256,41829,1,2,0:0:0:0:
352,224,42017,6,0,L|432:176,1,93.7500000000001,4|0,0:3|0:0,0:0:0:0:
320,80,42392,1,6,0:0:0:0:
208,80,42579,2,0,L|160:80,1,46.875,0|0,0:0|0:0,0:0:0:0:
352,80,42767,1,0,1:0:0:0:
412,89,42860,1,0,0:0:0:0:
462,129,42954,1,2,0:0:0:0:
485,189,43048,1,2,0:0:0:0:
472,252,43142,1,4,0:3:0:0:
429,301,43235,1,0,0:0:0:0:
368,321,43329,1,0,0:0:0:0:
305,306,43423,1,0,0:0:0:0:
112,208,43517,6,0,L|160:128,1,93.7500000000001,4|0,1:0|0:0,0:0:0:0:
48,128,43892,2,0,L|0:48,1,93.7500000000001,2|2,0:0|0:0,0:0:0:0:
320,208,44267,2,0,L|368:128,1,93.7500000000001,8|0,1:3|0:0,0:0:0:0:
256,112,44642,1,2,0:0:0:0:
400,112,44829,1,2,0:0:0:0:
117,118,45017,6,0,L|176:192,1,93.7500000000001,6|0,3:0|0:0,0:0:0:0:
336,192,45392,2,0,L|400:112,1,93.7500000000001,2|2,0:0|0:0,0:0:0:0:
66,192,45767,2,0,L|160:192,1,93.7500000000001,8|0,1:3|0:0,0:0:0:0:
336,192,46142,1,2,0:0:0:0:
192,192,46329,1,2,0:0:0:0:
448,192,46517,6,0,L|432:96,1,93.7500000000001,6|0,3:0|0:0,0:0:0:0:
256,112,46892,1,2,0:0:0:0:
400,112,47079,1,2,0:0:0:0:
64,192,47267,2,0,L|80:96,1,93.7500000000001,8|0,1:3|0:0,0:0:0:0:
256,112,47642,1,2,0:0:0:0:
112,112,47829,1,2,0:0:0:0:
448,192,48017,5,6,3:0:0:0:
304,192,48204,2,0,L|258:192,1,46.875,0|0,0:0|0:0,0:0:0:0:
416,192,48392,1,0,0:0:0:0:
454,167,48485,1,0,0:0:0:0:
462,123,48579,1,0,0:0:0:0:
435,86,48673,1,0,0:0:0:0:
256,80,48767,2,0,L|160:80,1,93.7500000000001,10|2,0:1|0:0,0:0:0:0:
112,80,49048,1,2,0:1:0:0:
320,80,49142,1,2,0:1:0:0:
358,104,49235,1,0,0:0:0:0:
366,148,49329,1,2,0:0:0:0:
339,185,49423,1,2,0:0:0:0:
144,192,49517,6,0,L|48:192,1,93.7500000000001,6|0,3:3|0:0,0:0:0:0:
192,256,49892,2,0,L|96:256,1,93.7500000000001,2|2,0:0|0:0,0:0:0:0:
368,192,50267,2,0,L|464:192,1,93.7500000000001,8|0,1:3|0:0,0:0:0:0:
320,256,50642,1,2,0:0:0:0:
208,256,50829,1,2,0:0:0:0:
480,176,51017,6,0,L|432:256,1,93.7500000000001,6|0,3:0|0:0,0:0:0:0:
32,176,51392,2,0,L|112:224,1,93.7500000000001,2|2,0:0|0:0,0:0:0:0:
400,160,51767,2,0,L|480:208,1,93.7500000000001,8|0,1:3|0:0,0:0:0:0:
224,128,52142,1,2,0:0:0:0:
400,160,52329,1,2,0:0:0:0:
144,192,52517,5,6,3:0:0:0:
80,112,52704,1,0,0:0:0:0:
169,42,52892,1,2,0:0:0:0:
48,32,53079,1,2,0:0:0:0:
432,96,53267,2,0,L|416:192,1,93.7500000000001,10|0,1:3|0:0,0:0:0:0:
256,96,53642,2,0,L|352:96,1,93.7500000000001,2|2,0:0|0:0,0:0:0:0:
48,192,54017,6,0,L|32:96,1,93.7500000000001,6|0,1:0|0:0,0:0:0:0:
192,96,54392,1,10,1:0:0:0:
464,192,54579,1,10,1:0:0:0:
48,192,54767,2,0,L|96:272,1,93.7500000000001,10|10,1:3|1:0,0:0:0:0:
256,240,55048,1,2,1:3:0:0:
416,272,55142,1,10,1:0:0:0:
112,192,55329,1,4,0:0:0:0:
400,176,55517,6,0,L|352:256,1,93.7500000000001,4|0,1:2|0:0,0:0:0:0:
464,256,55892,2,0,L|512:336,1,93.7500000000001,2|2,0:0|0:0,0:0:0:0:
192,176,56267,2,0,L|144:256,1,93.7500000000001,8|0,1:3|0:0,0:0:0:0:
256,272,56642,1,2,0:0:0:0:
112,272,56829,1,2,0:0:0:0:
394,265,57017,6,0,L|336:192,1,93.7500000000001,6|0,3:0|0:0,0:0:0:0:
176,192,57392,2,0,L|112:272,1,93.7500000000001,2|2,0:0|0:0,0:0:0:0:
446,192,57767,2,0,L|352:192,1,93.7500000000001,8|0,1:3|0:0,0:0:0:0:
176,192,58142,1,2,0:3:0:0:
335,191,58329,1,2,0:0:0:0:
64,192,58517,6,0,L|112:272,1,93.7500000000001,6|2,3:0|0:0,0:0:0:0:
256,272,58892,1,2,0:0:0:0:
112,272,59079,1,2,0:3:0:0:
448,192,59267,2,0,L|400:272,1,93.7500000000001,8|0,1:3|0:0,0:0:0:0:
256,272,59642,1,2,0:0:0:0:
400,272,59829,1,2,0:0:0:0:
64,192,60017,5,6,1:3:0:0:
208,192,60204,2,0,L|254:192,1,46.875,0|4,0:0|0:3,0:0:0:0:
96,192,60392,1,0,0:0:0:0:
58,217,60485,1,0,0:0:0:0:
50,261,60579,1,6,3:0:0:0:
77,298,60673,1,0,0:0:0:0:
256,304,60767,2,0,L|352:304,1,93.7500000000001,10|2,1:3|0:1,0:0:0:0:
400,304,61048,1,2,0:1:0:0:
192,304,61142,1,4,0:2:0:0:
154,280,61235,1,0,0:0:0:0:
146,236,61329,1,2,0:0:0:0:
173,199,61423,1,2,0:0:0:0:
368,192,61517,6,0,L|464:192,1,93.7500000000001,6|0,1:3|0:0,0:0:0:0:
320,128,61892,2,0,L|416:128,1,93.7500000000001,0|4,0:0|0:3,0:0:0:0:
144,192,62267,2,0,L|48:192,1,93.7500000000001,8|4,1:3|0:3,0:0:0:0:
192,128,62642,1,2,0:0:0:0:
304,128,62829,1,4,0:3:0:0:
32,208,63017,6,0,L|80:128,1,93.7500000000001,6|0,1:3|0:0,0:0:0:0:
480,208,63392,2,0,L|400:160,1,93.7500000000001,2|2,0:0|0:0,0:0:0:0:
112,224,63767,2,0,L|32:176,1,93.7500000000001,8|0,1:3|0:0,0:0:0:0:
288,192,64142,1,2,0:3:0:0:
112,224,64329,1,2,0:0:0:0:
368,192,64517,5,6,1:3:0:0:
432,272,64704,1,0,0:0:0:0:
343,342,64892,1,2,0:0:0:0:
464,352,65079,1,2,0:0:0:0:
80,288,65267,2,0,L|96:192,1,93.7500000000001,8|0,1:3|0:0,0:0:0:0:
256,224,65642,2,0,L|160:224,1,93.7500000000001,4|2,1:2|0:0,0:0:0:0:
464,192,66017,6,0,L|384:240,1,93.7500000000001,6|2,1:0|0:0,0:0:0:0:
224,240,66392,2,0,L|304:192,1,93.7500000000001,4|2,1:2|0:0,0:0:0:0:
48,192,66767,2,0,L|128:144,1,93.7500000000001,2|2,1:0|0:0,0:0:0:0:
288,144,67142,2,0,L|208:192,1,93.7500000000001,4|2,1:3|0:0,0:0:0:0:
464,192,67517,6,0,L|432:96,1,93.7500000000001,4|2,1:3|0:0,0:0:0:0:
160,192,67892,2,0,L|80:144,1,93.7500000000001,2|0,1:0|0:1,0:0:0:0:
352,192,68267,2,0,L|432:144,1,93.7500000000001,4|2,1:2|0:0,0:0:0:0:
48,192,68642,2,0,L|80:96,1,93.7500000000001,2|2,1:0|0:0,0:0:0:0:
448,272,69017,5,4,1:2:0:0:
304,272,69204,1,4,3:0:0:0:
464,224,69392,1,2,1:3:0:0:
312,224,69579,1,4,3:0:0:0:
64,272,69767,1,4,1:2:0:0:
208,272,69954,1,4,3:0:0:0:
48,224,70142,1,2,1:3:0:0:
200,224,70329,1,4,3:0:0:0:
448,192,70517,6,0,L|496:176,1,46.875,6|0,1:2|1:0,0:0:0:0:
288,176,70704,2,0,L|240:160,1,46.875,4|0,1:3|1:0,0:0:0:0:
432,144,70892,2,0,L|480:128,1,46.875,8|0,1:3|1:0,0:0:0:0:
211,113,71079,2,0,L|256:128,1,46.875,4|0,1:3|1:0,0:0:0:0:
460,81,71267,2,0,L|416:96,1,46.875,0|0,1:0|1:0,0:0:0:0:
224,80,71454,2,0,L|176:64,1,46.875,12|0,1:3|1:0,0:0:0:0:
448,48,71642,2,0,L|448:144,1,93.7500000000001,8|0,1:0|0:0,0:0:0:0:
48,208,72017,6,0,P|96:128|192:112,1,187.5,4|2,1:0|0:0,0:0:0:0:
80,64,72579,1,2,0:0:0:0:
464,176,72767,2,0,P|416:256|320:272,1,187.5,8|2,1:3|0:0,0:0:0:0:
176,272,73329,1,2,0:0:0:0:
448,192,73517,6,0,L|352:192,1,93.7500000000001,4|0,1:0|0:0,0:0:0:0:
157,192,73892,2,0,L|64:192,1,93.7500000000001,2|2,0:0|0:0,0:0:0:0:
352,192,74267,2,0,L|432:144,1,93.7500000000001,8|0,1:3|0:0,0:0:0:0:
157,192,74642,1,4,0:0:0:0:
432,144,74829,1,0,0:0:0:0:
80,144,75017,5,4,1:0:0:0:
256,192,75767,12,0,77642,0:0:0:0:
336,192,78017,6,0,P|368:144|256:96,1,218.74999165535,4|0,1:3|0:0,0:0:0:0:
64,96,78767,6,0,P|112:192|272:192,1,281.25,10|0,1:0|0:0,0:0:0:0:
176,304,79142,2,0,P|96:288|64:192,1,187.5,2|2,1:1|1:0,0:0:0:0:
352,192,79423,1,8,0:3:0:0:
416,144,79516,1,4,3:0:0:0:
400,64,79610,1,0,1:0:0:0:
176,96,79704,1,2,1:0:0:0:
448,96,79892,6,0,P|448:160|400:208,1,124.999995231629,10|8,1:0|1:0,0:0:0:0:
240,192,80173,1,0,0:0:0:0:
64,288,80267,2,0,P|64:224|112:176,1,124.999995231629,10|8,1:0|1:0,0:0:0:0:
272,192,80548,1,0,0:0:0:0:
448,96,80642,2,0,P|467:226|349:284,1,281.25,14|0,1:0|0:0,0:0:0:0:
112,288,81017,6,0,P|80:240|80:192,1,93.7499964237214,4|0,3:3|0:0,0:0:0:0:
185,193,81392,2,0,P|177:105|256:64,1,187.499992847443,2|0,1:0|0:0,0:0:0:0:
448,96,81767,6,0,P|432:192|352:240,1,187.5,10|4,1:0|1:2,0:0:0:0:
272,240,82048,2,0,P|288:144|368:96,1,187.5,0|0,1:0|0:0,0:0:0:0:
160,96,82329,1,6,1:0:0:0:
117,116,82375,1,0,0:0:0:0:
85,150,82422,1,0,0:0:0:0:
67,193,82469,1,0,0:0:0:0:
66,239,82516,1,2,0:0:0:0:
112,320,82610,1,2,0:0:0:0:
400,320,82704,5,10,1:0:0:0:
288,240,82892,1,2,1:0:0:0:
432,192,83079,2,0,L|448:96,1,93.7500000000001,8|8,1:0|3:0,0:0:0:0:
208,96,83267,2,0,P|128:96|64:176,1,187.5,10|8,1:0|3:0,0:0:0:0:
320,192,83548,2,0,L|400:144,1,93.7500000000001,2|8,1:0|1:0,0:0:0:0:
192,192,83735,2,0,L|112:144,1,93.7500000000001,8|2,3:0|1:0,0:0:0:0:
432,192,84017,6,0,L|384:240,1,62.4999976158143,4|0,3:0|0:0,0:0:0:0:
80,192,84298,2,0,B|80:96|80:96|160:48,1,187.5,12|2,1:2|0:0,0:0:0:0:
352,48,84579,2,0,L|432:96,1,93.7500000000001,2|0,1:0|0:0,0:0:0:0:
160,336,84767,2,0,L|80:288,1,93.7500000000001,10|2,1:0|0:0,0:0:0:0:
416,272,84954,1,2,1:0:0:0:
304,288,85142,6,0,P|288:224|384:176,1,187.5,0|2,1:0|1:0,0:0:0:0:
192,287,85423,1,2,0:1:0:0:
106,272,85516,1,4,3:0:0:0:
103,185,85610,1,2,1:0:0:0:
320,160,85704,2,0,L|400:208,1,93.7500000000001,4|0,3:0|0:1,0:0:0:0:
192,160,85892,6,0,L|64:160,1,124.999995231629,10|8,1:0|1:0,0:0:0:0:
128,96,86173,1,8,1:3:0:0:
384,96,86267,2,0,L|448:112,1,62.4999976158143,10|8,1:0|1:3,0:0:0:0:
128,96,86454,2,0,L|64:112,1,62.4999976158143,8|8,1:0|3:0,0:0:0:0:
384,96,86642,2,0,P|432:144|320:272,1,281.25,2|0,1:0|0:0,0:0:0:0:
64,192,87017,6,0,B|48:160|80:96,1,93.7499964237214,4|0,3:0|0:0,0:0:0:0:
384,96,87392,2,0,P|448:160|432:256,1,187.5,2|2,1:0|1:0,0:0:0:0:
336,288,87673,1,2,1:0:0:0:
160,240,87767,2,0,L|80:288,1,93.7500000000001,8|0,1:0|0:0,0:0:0:0:
320,112,87954,2,0,P|304:246|176:288,1,281.25,6|0,1:2|0:0,0:0:0:0:
79,288,88329,2,0,L|108:199,1,93.7500000000001,2|0,1:0|0:0,0:0:0:0:
336,64,88517,5,4,3:0:0:0:
48,64,88704,2,0,L|160:128,2,124.999995231629,10|0|0,1:0|0:0|1:0,0:0:0:0:
256,160,89173,1,0,0:0:0:0:
464,192,89267,2,0,L|432:64,1,124.999995231629,10|2,1:0|1:0,0:0:0:0:
240,160,89548,1,0,0:0:0:0:
48,192,89642,2,0,P|96:288|176:304,1,187.499992847443,6|0,1:2|0:0,0:0:0:0:
432,192,90017,6,0,L|336:192,1,93.7499964237214,4|0,3:0|0:0,0:0:0:0:
432,192,90392,2,0,L|240:192,1,187.499992847443,4|0,3:0|0:0,0:0:0:0:
48,192,90767,5,10,1:0:0:0:
128,112,90860,1,0,0:0:0:0:
224,80,90954,1,2,1:0:0:0:
400,80,91142,2,0,L|384:176,1,93.7500000000001,0|2,1:0|1:0,0:0:0:0:
224,208,91329,2,0,L|192:112,1,93.7500000000001,0|2,0:0|1:0,0:0:0:0:
288,176,91517,2,0,L|320:272,1,93.7500000000001,4|0,3:0|1:0,0:0:0:0:
112,304,91704,2,0,L|128:208,1,93.7500000000001,2|0,1:0|1:0,0:0:0:0:
400,80,91892,6,0,P|432:160|416:208,1,124.999995231629,10|8,1:0|1:0,0:0:0:0:
368,224,92173,1,0,0:0:0:0:
160,224,92267,2,0,L|208:176,1,62.4999976158143,10|0,1:0|0:0,0:0:0:0:
416,272,92454,2,0,L|460:227,1,62.4999976158143,8|0,1:0|0:0,0:0:0:0:
160,224,92642,2,0,P|96:144|224:96,1,281.25,2|0,1:2|0:0,0:0:0:0:
432,96,93017,6,0,L|480:96,2,31.2499988079071,12|0|0,3:0|0:0|0:0,0:0:0:0:
112,144,93392,2,0,L|48:144,2,62.4999976158143
368,192,93767,6,0,L|464:192,2,93.7500000000001,10|2|0,1:0|1:0|1:0,0:0:0:0:
272,192,94048,1,2,1:0:0:0:
352,176,94142,2,0,L|256:176,1,93.7500000000001,4|0,1:2|0:0,0:0:0:0:
80,96,94329,1,10,1:0:0:0:
80,144,94375,1,0,0:0:0:0:
96,192,94422,1,0,0:0:0:0:
119,236,94469,1,0,0:0:0:0:
158,259,94516,1,4,3:0:0:0:
224,272,94610,1,0,1:0:0:0:
416,272,94704,5,10,1:0:0:0:
272,240,94892,1,2,1:0:0:0:
400,96,95079,2,0,L|448:176,1,93.7500000000001,0|0,1:0|1:0,0:0:0:0:
256,192,95267,2,0,P|176:144|160:48,1,187.5,10|2,1:0|1:0,0:0:0:0:
354,56,95548,2,0,L|416:128,1,93.7500000000001,2|8,1:0|1:0,0:0:0:0:
158,56,95735,2,0,L|96:128,1,93.7500000000001,2|4,1:0|1:2,0:0:0:0:
416,192,96017,6,0,L|368:240,1,62.4999976158143,4|0,3:0|0:0,0:0:0:0:
80,192,96298,2,0,P|60:112|144:80,1,187.5,12|0,1:2|0:0,0:0:0:0:
304,96,96579,2,0,L|352:176,1,93.7500000000001,2|0,1:0|0:0,0:0:0:0:
128,144,96767,2,0,L|80:64,1,93.7500000000001,8|2,1:0|1:0,0:0:0:0:
368,80,96954,1,2,1:0:0:0:
256,80,97142,5,0,1:0:0:0:
177,127,97235,1,2,1:0:0:0:
144,212,97329,1,2,1:0:0:0:
336,320,97423,1,2,1:0:0:0:
416,272,97516,1,4,3:0:0:0:
449,187,97610,1,2,1:0:0:0:
176,320,97704,2,0,L|96:272,1,93.7500000000001,2|0,1:0|0:0,0:0:0:0:
336,272,97892,6,0,L|368:144,1,124.999995231629,10|8,1:0|1:0,0:0:0:0:
256,112,98173,1,8,3:0:0:0:
48,144,98267,2,0,L|96:192,1,62.4999976158143,10|8,1:0|3:0,0:0:0:0:
304,192,98454,2,0,L|352:240,1,62.4999976158143,8|8,1:0|3:0,0:0:0:0:
48,144,98642,2,0,P|64:240|224:256,1,281.25,2|0,1:0|0:0,0:0:0:0:
464,192,99017,6,0,L|448:96,1,93.7499964237214,4|0,3:0|0:0,0:0:0:0:
160,96,99392,2,0,L|144:128,1,31.2499988079071,2|0,1:0|0:0,0:0:0:0:
352,96,99579,2,0,L|368:64,1,31.2499988079071,2|0,1:0|0:0,0:0:0:0:
48,192,99767,6,0,P|80:256|128:272,1,124.999995231629,8|2,1:0|1:0,0:0:0:0:
384,272,100142,2,0,L|448:272,1,62.4999976158143,2|0,1:0|1:0,0:0:0:0:
208,192,100329,2,0,L|144:192,1,62.4999976158143,8|8,1:0|3:0,0:0:0:0:
367,192,100517,1,2,1:0:0:0:
96,192,100704,6,0,P|256:108|416:192,1,375,4|0,1:2|1:0,0:0:0:0:
352,192,101173,1,0,1:0:0:0:
128,160,101267,2,0,P|48:208|128:240,1,218.74999165535,4|0,1:0|0:0,0:0:0:0:
384,159,102017,6,0,P|448:224|387:242,1,187.5,4|8,1:2|0:0,0:0:0:0:
240,240,102579,2,0,L|192:240,1,46.875,0|8,1:0|0:0,0:0:0:0:
352,240,102767,1,4,3:0:0:0:
397,240,102860,1,8,0:0:0:0:
431,209,102954,1,2,0:0:0:0:
433,164,103048,1,2,0:0:0:0:
128,192,103142,2,0,L|32:272,1,124.999995231629,6|0,1:2|0:0,0:0:0:0:
368,192,103517,6,0,P|432:128|368:96,1,187.5,4|2,1:2|0:0,0:0:0:0:
144,112,104267,1,4,1:2:0:0:
368,112,104642,1,2,0:0:0:0:
48,192,105017,6,0,P|96:272|192:272,1,187.5,4|0,1:2|0:0,0:0:0:0:
336,272,105579,2,0,L|352:224,1,46.875,2|2,0:0|0:0,0:0:0:0:
182,276,105767,2,0,P|92:270|48:192,1,187.5,4|2,1:2|0:0,0:0:0:0:
330,107,106517,6,0,P|419:114|464:193,1,187.5,4|2,1:2|0:0,0:0:0:0:
289,147,107079,2,0,L|304:192,1,46.875,2|0,0:0|0:0,0:0:0:0:
464,191,107267,2,0,P|419:269|330:276,1,187.5,4|0,1:2|0:0,0:0:0:0:
144,192,107829,1,2,0:0:0:0:
416,192,108017,6,0,L|384:48,1,140.625,4|0,1:2|0:0,0:0:0:0:
272,48,108392,2,0,L|176:48,1,93.7500000000001,8|2,1:2|0:0,0:0:0:0:
256,96,108673,1,2,0:0:0:0:
336,96,108767,2,0,L|432:96,1,93.7500000000001,4|2,1:2|0:0,0:0:0:0:
344,144,109048,1,8,0:0:0:0:
256,144,109142,1,8,1:2:0:0:
384,192,109329,1,8,1:2:0:0:
128,192,109517,6,0,P|64:256|128:304,1,187.5,4|8,1:0|1:0,0:0:0:0:
288,304,110079,1,2,0:0:0:0:
208,256,110173,1,2,0:0:0:0:
128,192,110267,1,2,0:0:0:0:
288,128,110454,1,4,1:3:0:0:
96,96,110642,1,8,1:0:0:0:
224,32,110829,1,4,3:0:0:0:
384,192,111017,5,6,1:3:0:0:
224,128,111204,1,2,0:0:0:0:
416,96,111392,1,8,1:0:0:0:
288,32,111579,1,2,0:0:0:0:
128,192,111767,2,0,L|176:272,1,93.7500000000001,2|4,0:1|3:0,0:0:0:0:
384,192,112142,2,0,L|336:272,1,93.7500000000001,10|2,1:0|0:0,0:0:0:0:
256,192,112423,1,0,0:0:0:0:
80,192,112517,6,0,P|48:128|144:80,1,187.5,6|8,1:3|1:0,0:0:0:0:
288,64,113079,2,0,L|240:80,1,46.875,2|2,0:0|0:0,0:0:0:0:
128,96,113267,2,0,L|208:160,1,93.7500000000001,2|4,0:1|3:0,0:0:0:0:
240,192,113517,1,0,0:0:0:0:
272,176,113579,1,0,0:0:0:0:
240,160,113642,1,8,1:0:0:0:
96,192,113829,1,2,1:0:0:0:
288,64,114017,5,6,1:3:0:0:
144,96,114204,1,2,0:1:0:0:
336,192,114392,2,0,L|432:208,1,93.7500000000001,8|2,1:0|0:1,0:0:0:0:
160,192,114767,1,2,0:1:0:0:
352,336,114954,1,4,3:0:0:0:
385,260,115047,1,2,0:0:0:0:
362,183,115141,1,10,1:0:0:0:
296,138,115235,1,8,3:0:0:0:
208,144,115329,2,0,L|256:112,1,46.875,2|0,1:0|1:0,0:0:0:0:
432,112,115517,6,0,P|400:64|320:48,1,140.625,6|0,1:3|0:0,0:0:0:0:
288,48,115845,1,0,0:0:0:0:
256,48,115892,2,0,L|208:48,1,46.875,10|0,1:0|0:0,0:0:0:0:
112,128,116079,2,0,L|160:128,1,46.875,2|0,1:0|0:0,0:0:0:0:
336,128,116267,1,2,1:0:0:0:
480,192,116454,1,8,3:0:0:0:
288,192,116642,1,8,1:0:0:0:
432,256,116829,1,0,1:0:0:0:
125,127,117017,6,0,P|51:173|80:256,1,187.5,4|0,1:0|0:0,0:0:0:0:
272,192,117579,1,0,0:0:0:0:
80,128,117767,2,0,P|48:192|128:256,1,187.5,4|0,0:3|0:0,0:0:0:0:
304,256,118329,1,0,0:0:0:0:
48,192,118517,6,0,L|128:144,1,93.7500000000001,6|2,1:3|0:0,0:0:0:0:
288,144,118892,2,0,L|208:192,1,93.7500000000001,2|0,0:0|0:0,0:0:0:0:
464,192,119267,2,0,L|384:240,1,93.7500000000001,6|2,1:3|0:0,0:0:0:0:
224,240,119642,2,0,L|304:192,1,93.7500000000001,2|0,0:0|0:0,0:0:0:0:
48,192,120017,6,0,L|80:288,1,93.7500000000001,6|2,1:3|0:0,0:0:0:0:
352,192,120392,2,0,L|432:240,1,93.7500000000001,2|2,0:0|0:0,0:0:0:0:
160,192,120767,2,0,L|80:240,1,93.7500000000001,6|2,1:3|0:0,0:0:0:0:
464,192,121142,2,0,L|432:288,1,93.7500000000001,2|2,0:0|0:0,0:0:0:0:
64,112,121517,5,6,1:0:0:0:
208,112,121704,1,2,0:0:0:0:
48,160,121892,1,2,0:0:0:0:
192,160,122079,1,0,0:0:0:0:
448,112,122267,1,6,1:0:0:0:
304,112,122454,1,2,0:0:0:0:
464,160,122642,1,2,0:0:0:0:
320,160,122829,1,0,0:0:0:0:
64,112,123017,6,0,L|80:208,1,93.7500000000001,6|2,1:0|0:0,0:0:0:0:
336,192,123392,1,2,0:0:0:0:
176,192,123579,1,0,0:0:0:0:
432,179,123767,2,0,L|448:272,1,93.7500000000001,6|2,1:3|0:0,0:0:0:0:
160,192,124142,2,0,L|208:112,1,93.7500000000001,2|2,0:0|0:0,0:0:0:0:
464,176,124517,6,0,P|416:256|320:272,1,187.5,4|2,1:0|0:0,0:0:0:0:
432,320,125079,1,2,0:0:0:0:
48,208,125267,2,0,P|96:128|192:112,1,187.5,8|2,1:3|0:0,0:0:0:0:
336,112,125829,1,2,0:0:0:0:
64,192,126017,6,0,L|160:192,1,93.7500000000001,4|0,1:0|0:0,0:0:0:0:
355,192,126392,2,0,L|448:192,1,93.7500000000001,2|2,0:0|0:0,0:0:0:0:
160,192,126767,2,0,L|80:240,1,93.7500000000001,8|0,1:3|0:0,0:0:0:0:
355,192,127142,1,4,0:0:0:0:
80,240,127329,1,0,0:0:0:0:
432,240,127517,5,4,1:0:0:0:
256,192,128267,12,4,130517,0:0:0:0:
