osu file format v14

[General]
AudioFilename: audio.mp3
AudioLeadIn: 0
PreviewTime: 43517
Countdown: 0
SampleSet: Soft
StackLeniency: 1
Mode: 2
LetterboxInBreaks: 0
WidescreenStoryboard: 0

[Editor]
DistanceSpacing: 1
BeatDivisor: 4
GridSize: 8
TimelineZoom: 2

[Metadata]
Title:Myosotis
TitleUnicode:Myosotis
Artist:M2U
ArtistUnicode:M2U
Creator:Deif
Version:Ascendance's Platter
Source:Deemo
Tags:NICODE Guriri Lucy rayark Mobile collection Vol. 2 Magnolia forget-me-not dubstep Ascendance
BeatmapID:1000293
BeatmapSetID:460422

[Difficulty]
HPDrainRate:5
CircleSize:3.2
OverallDifficulty:7.8
ApproachRate:7.8
SliderMultiplier:1.79999990463257
SliderTickRate:1

[Events]
//Background and Video events
0,0,"BG.jpg",0,0
//Break Periods
//Storyboard Layer 0 (Background)
//Storyboard Layer 1 (Fail)
//Storyboard Layer 2 (Pass)
//Storyboard Layer 3 (Foreground)
//Storyboard Sound Samples

[TimingPoints]
1517,375,4,2,1,60,1,0
1517,-133.333333333333,4,2,1,60,0,0
19517,-100,4,2,1,60,0,0
33017,-133.333333333333,4,2,1,60,0,0
78017,-200,4,2,1,70,0,0
78767,-66.6666666666667,4,2,1,70,0,1
79142,-100,4,2,1,70,0,1
79892,-100,4,2,1,70,0,1
80642,-66.6666666666667,4,2,1,70,0,1
81017,-200,4,2,1,70,0,0
81392,-100,4,2,1,70,0,0
81767,-66.6666666666667,4,2,1,70,0,1
83267,-100,4,2,1,70,0,1
84017,-200,4,2,1,70,0,0
84298,-66.6666666666667,4,2,1,70,0,1
84579,-100,4,2,1,70,0,1
84954,-100,4,2,1,70,0,1
85142,-66.6666666666667,4,2,1,70,0,1
85892,-100,4,2,1,70,0,1
86642,-66.6666666666667,4,2,1,70,0,1
87017,-200,4,2,1,70,0,0
87392,-66.6666666666667,4,2,1,70,0,1
88517,-100,4,2,1,70,0,1
90017,-200,4,2,1,70,0,0
90392,-100,4,2,1,70,0,0
90767,-66.6666666666667,4,2,1,70,0,1
91142,-100,4,2,1,70,0,1
91892,-100,4,2,1,70,0,1
92642,-66.6666666666667,4,2,1,70,0,1
93017,-200,4,2,1,70,0,0
93392,-100,4,2,1,70,0,0
93767,-66.6666666666667,4,2,1,70,0,1
94704,-100,4,2,1,70,0,1
96017,-200,4,2,1,70,0,0
96298,-100,4,2,1,70,0,1
96954,-100,4,2,1,70,0,1
97142,-66.6666666666667,4,2,1,70,0,1
97892,-100,4,2,1,70,0,1
98642,-66.6666666666667,4,2,1,70,0,1
99017,-200,4,2,1,70,0,0
99767,-100,4,2,1,70,0,0
100517,-66.6666666666667,4,2,1,70,0,1
101267,-200,4,2,1,60,0,0
102017,-133.333333333333,4,2,1,60,0,0
103142,-100,4,2,1,60,0,0
103517,-133.333333333333,4,2,1,60,0,0

[Colours]
Combo1 : 0,128,128
Combo2 : 255,255,0
Combo3 : 0,255,255
Combo4 : 128,128,0

[HitObjects]
224,320,1517,6,0,P|144:224|144:208,1,134.999997997284,2|2,0:3|0:0,0:0:0:0:
336,224,2267,2,0,P|384:208|448:128,1,134.999997997284,0|0,0:3|0:0,0:0:0:0:
256,96,3017,2,0,L|112:80,3,134.999997997284,2|0|0|0,0:0|0:0|0:0|0:0,0:0:0:0:
416,80,4517,6,0,P|464:208|352:256,1,269.999995994568,2|0,0:3|0:0,0:0:0:0:
192,256,5642,1,0,0:0:0:0:
432,272,6017,6,0,L|448:112,1,134.999997997284,2|0,0:3|0:0,0:0:0:0:
208,144,6767,2,0,L|352:176,1,134.999997997284,0|0,0:0|0:0,0:0:0:0:
80,288,7517,6,0,L|64:144,1,134.999997997284,2|0,0:3|0:0,0:0:0:0:
304,112,8267,2,0,L|160:80,1,134.999997997284,0|0,0:0|0:0,0:0:0:0:
432,48,9017,5,2,0:3:0:0:
312,176,9392,1,0,0:0:0:0:
424,336,9767,2,0,L|264:336,1,134.999997997284
368,256,10517,6,0,P|248:216|256:88,1,269.999995994568,2|0,0:3|0:0,0:0:0:0:
96,256,11642,1,0,0:0:0:0:
288,192,12017,6,0,P|384:176|496:48,1,269.999995994568,2|0,0:3|0:0,0:0:0:0:
304,48,13142,1,0,0:0:0:0:
96,48,13517,1,0,0:0:0:0:
256,192,13704,12,0,19142,0:0:0:0:
368,192,19517,5,4,1:0:0:0:
160,192,19892,1,2,0:0:0:0:
336,176,20173,2,0,L|352:112,1,44.9999976158143,0|8,0:0|1:3,0:0:0:0:
224,112,20454,1,0,0:0:0:0:
336,32,20642,2,0,L|304:144,1,89.9999952316285,2|2,0:0|0:0,0:0:0:0:
96,144,21017,6,0,P|48:232|104:288,1,179.999990463257,4|2,3:0|0:0,0:0:0:0:
160,288,21579,1,2,0:0:0:0:
416,144,21767,2,0,P|448:96|464:48,1,89.9999952316285,8|0,1:3|0:0,0:0:0:0:
288,128,22142,2,0,P|304:192|352:224,1,89.9999952316285,4|0,1:2|0:1,0:0:0:0:
432,272,22517,5,4,1:0:0:0:
288,272,22704,1,0,0:0:0:0:
253,243,22797,1,2,0:0:0:0:
231,204,22891,1,2,0:0:0:0:
225,160,22985,1,0,0:0:0:0:
235,116,23079,1,2,0:0:0:0:
261,80,23172,1,0,0:0:0:0:
298,55,23267,5,8,1:3:0:0:
432,48,23454,1,0,0:0:0:0:
458,84,23547,1,0,0:0:0:0:
471,126,23641,1,2,0:0:0:0:
470,171,23735,1,2,0:0:0:0:
454,213,23829,1,0,0:0:0:0:
425,247,23922,1,2,0:0:0:0:
387,270,24016,5,4,3:0:0:0:
256,272,24204,1,0,0:0:0:0:
211,271,24297,1,2,0:0:0:0:
166,263,24391,1,0,0:0:0:0:
124,247,24485,1,2,0:0:0:0:
86,224,24579,1,0,0:0:0:0:
52,194,24672,1,0,0:0:0:0:
32,160,24767,6,0,L|160:144,1,89.9999952316285,8|4,1:3|0:0,0:0:0:0:
232,104,25142,2,0,L|128:96,1,89.9999952316285,4|0,0:0|0:0,0:0:0:0:
416,56,25517,5,4,1:0:0:0:
296,56,25704,2,0,L|248:56,2,44.9999976158143,0|0|2,0:0|0:0|0:0,0:0:0:0:
448,128,26079,1,0,0:0:0:0:
320,152,26267,1,8,1:3:0:0:
224,248,26454,2,0,L|336:264,1,89.9999952316285,0|2,0:0|0:0,0:0:0:0:
448,296,26829,1,2,0:0:0:0:
192,320,27017,6,0,L|80:336,1,89.9999952316285,4|0,3:0|0:0,0:0:0:0:
48,336,27298,1,0,0:0:0:0:
24,297,27391,1,2,0:0:0:0:
15,253,27485,1,0,0:0:0:0:
23,209,27579,1,2,0:0:0:0:
46,171,27673,1,0,0:0:0:0:
96,160,27767,6,0,L|224:144,1,89.9999952316285,0|4,1:3|0:0,0:0:0:0:
464,48,28142,2,0,L|368:64,1,89.9999952316285,4|2,0:0|0:0,0:0:0:0:
208,112,28517,1,4,1:0:0:0:
320,176,28704,5,2,0:0:0:0:
359,196,28797,1,2,0:0:0:0:
382,234,28891,1,0,0:0:0:0:
381,278,28985,1,2,0:0:0:0:
357,315,29079,1,2,0:0:0:0:
317,334,29172,1,0,0:0:0:0:
272,336,29267,5,8,1:3:0:0:
128,336,29454,1,2,0:0:0:0:
93,307,29547,1,2,0:0:0:0:
72,268,29641,1,0,0:0:0:0:
68,223,29735,1,2,0:0:0:0:
83,181,29829,1,2,0:0:0:0:
113,148,29922,1,0,0:0:0:0:
154,130,30016,5,4,1:0:0:0:
256,192,30204,12,2,32642,0:0:0:0:
256,192,33017,5,4,0:0:0:0:
48,184,33392,2,0,L|184:184,1,134.999997997284,2|2,0:0|0:0,0:0:0:0:
112,184,33954,1,0,0:0:0:0:
64,240,34142,1,2,0:0:0:0:
96,304,34329,1,2,0:0:0:0:
160,336,34517,6,0,L|304:320,1,134.999997997284,2|2,0:0|0:0,0:0:0:0:
368,304,35079,1,0,0:0:0:0:
240,232,35267,2,0,L|224:152,1,67.499998998642,2|2,0:0|0:0,0:0:0:0:
320,48,35642,2,0,L|336:144,1,67.499998998642,2|0,0:0|0:0,0:0:0:0:
192,208,36017,6,0,L|64:256,1,134.999997997284,2|2,0:0|0:0,0:0:0:0:
144,224,36579,1,0,0:0:0:0:
400,160,36767,2,0,P|432:128|448:32,1,134.999997997284,2|2,0:0|0:0,0:0:0:0:
304,48,37329,1,2,0:0:0:0:
160,64,37517,5,2,0:0:0:0:
128,144,37704,1,0,0:0:0:0:
144,224,37892,1,2,0:0:0:0:
224,272,38079,1,2,0:0:0:0:
272,272,38173,1,0,0:0:0:0:
320,272,38267,2,0,L|480:272,1,134.999997997284,2|2,0:3|0:3,0:0:0:0:
224,192,39017,6,0,P|144:128|128:80,1,134.999997997284,4|0,0:3|0:0,0:0:0:0:
304,160,39767,2,0,L|384:152,2,67.499998998642,0|4|4,1:0|0:3|0:0,0:0:0:0:
200,288,40329,1,0,0:0:0:0:
480,224,40517,6,0,L|392:96,1,134.999997997284,4|6,0:3|0:0,0:0:0:0:
312,88,41079,1,0,0:0:0:0:
160,176,41267,2,0,L|312:176,1,134.999997997284,6|2,0:0|0:0,0:0:0:0:
160,176,41829,1,2,0:0:0:0:
288,240,42017,6,0,L|432:200,1,134.999997997284,4|6,0:3|0:0,0:0:0:0:
304,144,42767,2,0,L|144:112,1,134.999997997284,0|4,1:0|0:3,0:0:0:0:
80,96,43329,1,0,0:0:0:0:
336,240,43517,6,0,P|432:208|464:120,1,202.499996995926,4|2,1:0|0:0,0:0:0:0:
208,144,44267,2,0,P|128:128|208:80,1,202.499996995926,8|2,1:3|0:0,0:0:0:0:
320,64,45017,2,0,L|416:80,1,67.499998998642,6|0,3:0|0:0,0:0:0:0:
288,144,45392,2,0,L|192:128,1,67.499998998642,2|2,0:0|0:0,0:0:0:0:
496,272,45767,6,0,L|336:240,1,134.999997997284,8|2,1:3|0:0,0:0:0:0:
272,224,46329,1,2,0:0:0:0:
416,160,46517,6,0,L|512:144,1,67.499998998642,6|0,3:0|0:0,0:0:0:0:
384,72,46892,2,0,L|304:56,1,67.499998998642,2|2,0:0|0:0,0:0:0:0:
32,48,47267,2,0,L|80:192,1,134.999997997284,8|2,1:3|0:0,0:0:0:0:
112,272,47829,1,2,0:0:0:0:
224,240,48017,5,6,3:0:0:0:
336,208,48204,2,0,L|400:192,2,33.749999499321,0|0|0,0:0|0:0|0:0,0:0:0:0:
224,240,48579,1,0,0:0:0:0:
480,192,48767,2,0,P|500:137|472:48,1,134.999997997284,10|2,0:1|0:1,0:0:0:0:
328,48,49329,2,0,L|264:48,1,33.749999499321,2|2,0:0|0:0,0:0:0:0:
224,48,49517,6,0,L|80:48,1,134.999997997284,6|2,3:3|0:0,0:0:0:0:
160,48,50079,1,2,0:0:0:0:
432,48,50267,2,0,L|224:112,1,202.499996995926,8|2,1:3|0:0,0:0:0:0:
352,144,51017,6,0,L|368:240,1,67.499998998642,6|0,3:0|0:0,0:0:0:0:
224,224,51392,2,0,L|208:128,1,67.499998998642,2|2,0:0|0:0,0:0:0:0:
480,16,51767,2,0,P|480:104|376:144,1,202.499996995926,8|2,1:3|0:0,0:0:0:0:
280,168,52517,6,0,L|296:264,1,67.499998998642,6|0,3:0|0:0,0:0:0:0:
352,312,52892,2,0,L|448:312,1,67.499998998642,2|2,0:0|0:0,0:0:0:0:
128,312,53267,2,0,L|96:232,1,67.499998998642,10|0,1:3|0:0,0:0:0:0:
184,176,53642,2,0,L|200:96,1,67.499998998642,2|2,0:0|0:0,0:0:0:0:
448,48,54017,5,6,1:0:0:0:
336,112,54204,1,0,0:0:0:0:
448,144,54392,2,0,L|448:224,1,67.499998998642,10|10,1:0|1:0,0:0:0:0:
176,288,54767,2,0,L|144:208,1,67.499998998642,10|10,1:3|1:0,0:0:0:0:
144,176,55048,1,2,1:3:0:0:
192,160,55142,2,0,L|272:144,1,67.499998998642,10|4,1:0|0:0,0:0:0:0:
512,96,55517,6,0,L|368:80,1,134.999997997284,4|2,1:2|0:0,0:0:0:0:
288,64,56079,1,2,0:0:0:0:
384,144,56267,2,0,P|400:208|288:304,1,202.499996995926,8|2,1:3|0:0,0:0:0:0:
64,304,57017,6,0,L|48:208,1,67.499998998642,6|0,3:0|0:0,0:0:0:0:
160,224,57392,2,0,L|176:128,1,67.499998998642,2|2,0:0|0:0,0:0:0:0:
464,64,57767,2,0,L|304:96,1,134.999997997284,8|2,1:3|0:3,0:0:0:0:
416,128,58329,1,2,0:0:0:0:
96,224,58517,6,0,L|0:240,1,67.499998998642,6|2,3:0|0:0,0:0:0:0:
88,152,58892,2,0,L|168:144,1,67.499998998642,2|2,0:0|0:3,0:0:0:0:
416,32,59267,1,8,1:3:0:0:
448,112,59454,1,0,0:0:0:0:
448,192,59642,1,2,0:0:0:0:
400,272,59829,1,2,0:0:0:0:
112,304,60017,6,0,L|80:144,1,134.999997997284,6|0,1:3|0:0,0:0:0:0:
208,144,60579,1,6,3:0:0:0:
80,176,60767,2,0,L|16:192,2,33.749999499321,8|0|2,1:3|0:0|0:1,0:0:0:0:
208,144,61142,2,0,L|304:128,1,67.499998998642,4|2,0:2|0:0,0:0:0:0:
0,96,61517,6,0,L|64:224,1,134.999997997284,6|0,1:3|0:0,0:0:0:0:
144,208,62079,1,4,0:3:0:0:
416,192,62267,2,0,L|272:128,1,134.999997997284,8|2,1:3|0:0,0:0:0:0:
208,120,62829,1,4,0:3:0:0:
128,96,63017,6,0,L|32:80,1,67.499998998642,6|0,1:3|0:0,0:0:0:0:
352,112,63392,2,0,L|432:96,1,67.499998998642,2|2,0:0|0:0,0:0:0:0:
160,144,63767,5,8,1:3:0:0:
114,191,63954,1,0,0:0:0:0:
118,257,64142,1,2,0:3:0:0:
168,300,64329,1,2,0:0:0:0:
464,288,64517,6,0,L|496:208,1,67.499998998642,6|0,1:3|0:0,0:0:0:0:
400,208,64892,2,0,L|384:112,1,67.499998998642,2|2,0:0|0:0,0:0:0:0:
112,160,65267,2,0,L|80:80,1,67.499998998642,8|0,1:3|0:0,0:0:0:0:
248,80,65642,2,0,L|328:56,1,67.499998998642,4|2,1:2|0:0,0:0:0:0:
480,48,66017,5,6,1:0:0:0:
496,136,66204,1,2,0:0:0:0:
464,224,66392,1,4,1:2:0:0:
416,288,66579,1,2,0:0:0:0:
160,304,66767,1,2,1:0:0:0:
128,224,66954,1,2,0:0:0:0:
176,144,67142,1,4,1:3:0:0:
296,128,67329,1,2,0:0:0:0:
40,64,67517,5,4,1:3:0:0:
160,136,67704,1,2,0:0:0:0:
40,208,67892,1,2,1:0:0:0:
160,320,68079,1,0,0:1:0:0:
416,304,68267,1,4,1:2:0:0:
464,224,68454,1,2,0:0:0:0:
416,144,68642,1,4,1:3:0:0:
336,128,68829,1,2,0:0:0:0:
64,128,69017,6,0,L|-32:128,1,67.499998998642,4|4,1:2|3:0,0:0:0:0:
80,48,69392,2,0,L|160:48,1,67.499998998642,2|4,1:3|3:0,0:0:0:0:
400,48,69767,2,0,L|480:48,1,67.499998998642,4|4,1:2|3:0,0:0:0:0:
304,48,70142,2,0,L|224:48,1,67.499998998642,2|4,1:3|3:0,0:0:0:0:
384,320,70517,5,6,1:2:0:0:
413,303,70610,1,0,1:0:0:0:
436,279,70704,1,4,1:3:0:0:
450,248,70798,1,0,1:0:0:0:
454,215,70892,1,8,1:3:0:0:
447,182,70985,1,0,1:0:0:0:
431,152,71079,1,4,1:3:0:0:
400,128,71173,1,0,1:0:0:0:
288,96,71267,5,0,1:0:0:0:
259,113,71360,1,0,1:0:0:0:
241,141,71454,1,12,1:3:0:0:
237,174,71548,1,0,1:0:0:0:
248,205,71642,1,8,1:0:0:0:
271,229,71735,1,0,0:0:0:0:
303,239,71829,1,0,0:0:0:0:
464,256,72017,6,0,P|496:144|480:128,1,134.999997997284,4|2,1:0|0:0,0:0:0:0:
368,96,72579,1,2,0:0:0:0:
256,64,72767,2,0,L|176:48,1,67.499998998642,8|0,1:3|0:0,0:0:0:0:
288,144,73142,2,0,L|368:160,1,67.499998998642,2|2,0:0|0:0,0:0:0:0:
64,336,73517,6,0,L|32:176,1,134.999997997284,4|2,1:0|0:0,0:0:0:0:
272,264,74267,2,0,L|232:128,1,134.999997997284,8|4,1:3|0:0,0:0:0:0:
408,80,75017,1,4,1:0:0:0:
256,192,75767,12,0,77642,0:0:0:0:
176,48,78017,6,0,P|144:112|192:152,1,134.999992847443,4|0,1:3|0:0,0:0:0:0:
472,240,78767,5,10,1:0:0:0:
328,240,79142,2,0,L|160:240,2,134.999992847443,2|8|2,1:1|0:3|1:0,0:0:0:0:
224,176,79892,6,0,L|352:176,1,89.9999952316285,10|8,1:0|1:0,0:0:0:0:
456,104,80267,2,0,L|328:104,1,89.9999952316285,10|8,1:0|1:0,0:0:0:0:
56,320,80642,6,0,L|48:176,1,134.999997997284,14|0,1:0|0:0,0:0:0:0:
208,192,81017,2,0,L|288:192,1,67.4999964237214,4|0,3:3|0:0,0:0:0:0:
200,152,81392,2,0,P|168:104|216:56,1,134.999992847443,2|0,1:0|0:0,0:0:0:0:
320,48,81767,6,0,L|464:64,2,134.999997997284,10|4|0,1:0|1:2|0:0,0:0:0:0:
64,32,82329,1,6,1:0:0:0:
176,72,82610,2,0,L|176:176,1,67.499998998642,2|10,0:0|1:0,0:0:0:0:
48,112,82892,2,0,L|48:248,1,134.999997997284,2|8,1:0|1:0,0:0:0:0:
328,280,83267,6,0,B|472:280,2,134.999992847443,10|2|2,1:0|1:0|1:0,0:0:0:0:
64,56,84017,5,4,3:0:0:0:
240,48,84298,2,0,L|288:104,1,67.499998998642,12|0,1:2|0:0,0:0:0:0:
120,48,84579,2,0,L|8:48,2,89.9999952316285,2|10|2,1:0|1:0|1:0,0:0:0:0:
384,64,85142,6,0,P|464:104|472:232,1,202.499996995926,0|2,1:0|0:1,0:0:0:0:
336,232,85704,1,4,3:0:0:0:
480,184,85892,6,0,L|464:312,1,89.9999952316285,10|8,1:0|1:0,0:0:0:0:
352,320,86267,1,10,1:0:0:0:
312,288,86360,1,8,1:3:0:0:
312,248,86454,1,8,1:0:0:0:
352,208,86548,1,8,3:0:0:0:
400,192,86642,2,0,P|464:128|368:80,1,202.499996995926,2|0,1:0|0:0,0:0:0:0:
352,72,87017,6,0,L|288:72,1,44.9999976158143,4|0,3:0|0:0,0:0:0:0:
32,64,87392,1,2,1:0:0:0:
160,80,87579,2,0,P|168:144|160:216,1,134.999997997284,2|8,1:0|1:0,0:0:0:0:
32,128,87954,2,0,L|48:288,1,134.999997997284,6|0,1:2|0:0,0:0:0:0:
400,256,88329,5,2,1:0:0:0:
192,256,88704,2,0,L|80:256,2,89.9999952316285,10|0|0,1:0|0:0|1:0,0:0:0:0:
368,256,89267,2,0,L|416:256,1,44.9999976158143,10|0,1:0|0:0,0:0:0:0:
368,256,89454,2,0,L|320:256,1,44.9999976158143,2|0,1:0|0:0,0:0:0:0:
368,256,89642,2,0,P|416:208|400:128,1,134.999992847443,6|0,1:2|0:0,0:0:0:0:
376,144,90017,6,0,L|312:128,1,44.9999976158143,4|0,3:0|0:0,0:0:0:0:
240,80,90392,1,4,3:0:0:0:
368,48,90579,1,0,0:0:0:0:
96,32,90767,5,10,1:0:0:0:
64,96,90860,1,0,0:0:0:0:
80,160,90954,1,2,1:0:0:0:
184,208,91142,2,0,L|352:208,2,134.999992847443,0|2|2,1:0|1:0|1:0,0:0:0:0:
480,176,91892,5,10,1:0:0:0:
360,112,92079,1,8,1:0:0:0:
456,176,92267,1,10,1:0:0:0:
336,112,92454,1,8,1:0:0:0:
48,80,92642,6,0,P|144:64|272:144,1,202.499996995926,2|0,1:2|0:0,0:0:0:0:
176,144,93017,2,0,L|96:160,2,67.4999964237214,12|0|0,3:0|0:0|0:0,0:0:0:0:
464,96,93767,5,10,1:0:0:0:
496,160,93860,1,2,1:0:0:0:
480,224,93954,1,0,1:0:0:0:
416,256,94048,1,2,1:0:0:0:
352,256,94142,2,0,L|192:256,1,134.999997997284,4|10,1:2|1:0,0:0:0:0:
384,160,94704,6,0,L|264:160,2,89.9999952316285,10|2|0,1:0|1:0|1:0,0:0:0:0:
96,80,95267,2,0,P|72:144|104:200,1,134.999992847443,10|2,1:0|1:0,0:0:0:0:
208,232,95829,1,4,1:2:0:0:
472,240,96017,5,4,3:0:0:0:
272,232,96298,1,12,1:2:0:0:
384,232,96579,1,2,1:0:0:0:
480,232,96767,2,0,L|390:232,1,89.9999952316285,8|2,1:0|1:0,0:0:0:0:
72,256,97142,6,0,P|80:192|200:152,1,202.499996995926,0|2,1:0|1:0,0:0:0:0:
40,96,97704,1,2,1:0:0:0:
336,32,97892,6,0,L|456:48,1,89.9999952316285,10|8,1:0|1:0,0:0:0:0:
320,112,98267,2,0,L|440:128,1,89.9999952316285,10|8,1:0|1:0,0:0:0:0:
56,192,98642,6,0,P|16:248|128:304,1,202.499996995926,2|0,1:0|0:0,0:0:0:0:
120,312,99017,2,0,L|208:160,1,157.49999165535,4|0,3:0|0:0,0:0:0:0:
152,168,99767,6,0,L|128:112,1,44.9999976158143,8|0,1:0|0:0,0:0:0:0:
216,88,99954,2,0,L|256:40,1,44.9999976158143,2|0,1:0|0:0,0:0:0:0:
296,48,100142,5,2,1:0:0:0:
352,88,100235,1,0,1:0:0:0:
352,136,100329,1,8,1:0:0:0:
304,173,100423,1,8,3:0:0:0:
216,216,100517,5,2,1:0:0:0:
488,120,100704,2,0,P|504:208|424:304,1,202.499996995926,4|0,1:2|0:0,0:0:0:0:
392,312,101079,1,0,1:0:0:0:
256,192,101267,12,4,102017,1:2:0:0:
360,192,102392,5,8,0:0:0:0:
256,160,102673,2,0,L|200:152,1,33.749999499321,8|4,0:0|3:0,0:0:0:0:
448,72,103142,1,6,1:2:0:0:
144,72,103517,5,4,1:2:0:0:
320,112,103892,2,0,P|352:168|272:280,1,202.499996995926,2|0,0:0|0:0,0:0:0:0:
200,288,104642,1,2,0:0:0:0:
384,232,105017,6,0,L|400:88,1,134.999997997284,4|0,1:2|0:0,0:0:0:0:
264,80,105579,2,0,L|208:80,1,33.749999499321,2|2,0:0|0:0,0:0:0:0:
264,80,105767,2,0,L|400:80,1,134.999997997284,4|2,1:2|0:0,0:0:0:0:
96,80,106517,6,0,P|64:152|88:216,1,134.999997997284,4|2,1:2|0:0,0:0:0:0:
224,304,107267,2,0,P|248:240|200:176,1,134.999997997284,4|0,1:2|0:0,0:0:0:0:
144,152,107829,1,2,0:0:0:0:
408,136,108017,6,0,P|464:120|504:48,2,134.999997997284,4|8|4,1:2|1:2|1:2,0:0:0:0:
288,136,109142,1,8,1:2:0:0:
496,216,109517,6,0,P|440:256|320:240,1,168.749997496605,4|0,1:0|0:0,0:0:0:0:
312,248,110079,1,2,0:0:0:0:
280,240,110173,1,2,0:0:0:0:
248,232,110267,6,0,L|160:216,1,67.499998998642,2|4,0:0|1:3,0:0:0:0:
304,144,110642,2,0,L|328:64,1,67.499998998642,8|4,1:0|3:0,0:0:0:0:
24,48,111017,5,6,1:3:0:0:
128,120,111204,1,2,0:0:0:0:
24,160,111392,1,8,1:0:0:0:
128,240,111579,1,2,0:0:0:0:
392,240,111767,5,2,0:1:0:0:
496,160,111954,1,4,3:0:0:0:
392,120,112142,1,10,1:0:0:0:
496,48,112329,1,2,0:0:0:0:
168,40,112517,6,0,P|120:112|184:184,1,168.749997496605,6|0,1:3|0:0,0:0:0:0:
208,192,113079,1,2,0:0:0:0:
256,216,113173,1,2,0:0:0:0:
288,232,113267,6,0,P|320:304|264:336,1,134.999997997284,2|8,0:1|1:0,0:0:0:0:
192,336,113829,1,2,1:0:0:0:
304,256,114017,6,0,L|320:168,1,67.499998998642,6|2,1:3|0:1,0:0:0:0:
208,192,114392,2,0,L|200:104,1,67.499998998642,8|2,1:0|0:1,0:0:0:0:
328,88,114767,2,0,L|416:72,1,67.499998998642,2|4,0:1|3:0,0:0:0:0:
328,88,115142,5,10,1:0:0:0:
307,114,115235,1,8,3:0:0:0:
304,147,115329,1,2,1:0:0:0:
318,177,115423,1,0,1:0:0:0:
352,192,115517,6,0,L|464:216,1,101.249998497963,6|0,1:3|0:0,0:0:0:0:
416,216,115892,1,10,1:0:0:0:
384,224,115985,1,0,0:0:0:0:
352,232,116079,1,2,1:0:0:0:
320,240,116173,1,0,0:0:0:0:
288,248,116267,6,0,L|136:256,1,134.999997997284,2|8,1:0|1:0,0:0:0:0:
232,176,116829,1,0,1:0:0:0:
56,48,117017,2,0,L|40:272,1,202.499996995926,4|0,1:0|0:0,0:0:0:0:
352,296,117767,2,0,L|400:80,1,202.499996995926,4|0,0:3|0:0,0:0:0:0:
112,80,118517,6,0,L|56:128,1,67.499998998642,6|2,1:3|0:0,0:0:0:0:
152,176,118892,2,0,L|200:224,1,67.499998998642,2|0,0:0|0:0,0:0:0:0:
72,264,119267,2,0,L|136:328,1,67.499998998642,6|2,1:3|0:0,0:0:0:0:
240,280,119642,2,0,L|168:224,1,67.499998998642,2|0,0:0|0:0,0:0:0:0:
464,184,120017,6,0,L|480:104,1,67.499998998642,6|2,1:3|0:0,0:0:0:0:
368,112,120392,2,0,L|320:48,1,67.499998998642,2|2,0:0|0:0,0:0:0:0:
240,152,120767,2,0,L|328:168,1,67.499998998642,6|2,1:3|0:0,0:0:0:0:
216,248,121142,2,0,L|200:320,1,67.499998998642,2|2,0:0|0:0,0:0:0:0:
488,264,121517,6,0,L|416:272,3,67.499998998642,6|2|2|0,1:0|0:0|0:0|0:0,0:0:0:0:
296,200,122267,6,0,L|228:207,3,67.499998998642,6|2|2|0,1:0|0:0|0:0|0:0,0:0:0:0:
432,96,123017,6,0,L|504:104,3,67.499998998642,6|2|2|0,1:0|0:0|0:0|0:0,0:0:0:0:
112,88,123767,6,0,L|40:96,3,67.499998998642,6|2|2|2,1:3|0:0|0:0|0:0,0:0:0:0:
304,200,124517,6,0,L|512:160,1,202.499996995926,4|2,1:0|0:0,0:0:0:0:
384,112,125267,2,0,L|240:96,1,134.999997997284,8|2,1:3|0:0,0:0:0:0:
488,192,126017,6,0,L|344:208,1,134.999997997284,4|2,1:0|0:0,0:0:0:0:
24,256,126767,2,0,L|184:240,1,134.999997997284,8|4,1:3|0:0,0:0:0:0:
24,240,127329,1,0,0:0:0:0:
320,184,127517,5,4,1:0:0:0:
256,192,128267,12,4,130517,0:0:0:0:
