osu file format v14

[General]
AudioFilename: asdf.mp3
AudioLeadIn: 0
PreviewTime: 72017
Countdown: 0
SampleSet: None
StackLeniency: 0.7
Mode: 3
LetterboxInBreaks: 0
SpecialStyle: 0
WidescreenStoryboard: 0

[Editor]
Bookmarks: 1517,4892,5267,7517,78017
DistanceSpacing: 1.5
BeatDivisor: 2
GridSize: 4
TimelineZoom: 1.1

[Metadata]
Title:Myosotis
TitleUnicode:Myosotis
Artist:M2U
ArtistUnicode:M2U
Creator:Arzenvald
Version:4K Easy
Source:Deemo
Tags:ExUsagi ajeemaniz NICODE feat. Guriri Lucy Magnolia Rayark Piano Dubstep Eternalie
BeatmapID:2259740
BeatmapSetID:421952

[Difficulty]
HPDrainRate:7
CircleSize:4
OverallDifficulty:7
ApproachRate:5
SliderMultiplier:1.4
SliderTickRate:1

[Events]
//Background and Video events
0,0,"bg bye.jpg",0,0
//Break Periods
//Storyboard Layer 0 (Background)
//Storyboard Layer 1 (Fail)
//Storyboard Layer 2 (Pass)
//Storyboard Layer 3 (Foreground)
//Storyboard Layer 4 (Overlay)
//Storyboard Sound Samples

[TimingPoints]
1517,375,4,3,1,80,1,0
78017,-100,4,3,1,80,0,1
102017,-100,4,3,1,80,0,0

[HitObjects]
475,192,1517,5,2,2:0:0:0:
182,192,2267,1,0,0:0:0:0:
320,192,3017,1,2,2:0:0:0:
192,192,3392,1,0,0:0:0:0:
109,192,3767,1,0,0:0:0:0:
192,192,4142,1,0,0:0:0:0:
256,192,4517,1,2,2:0:0:0:
109,192,5267,1,0,0:0:0:0:
402,192,5642,1,0,0:0:0:0:
182,192,6017,1,2,2:0:0:0:
329,192,6392,1,0,0:0:0:0:
475,192,6767,1,0,0:0:0:0:
192,192,7142,1,0,0:0:0:0:
64,192,7517,1,2,2:0:0:0:
320,192,7892,1,0,0:0:0:0:
448,192,8267,1,0,0:0:0:0:
109,192,8642,1,0,0:0:0:0:
192,192,9017,1,2,2:0:0:0:
329,192,9767,1,0,0:0:0:0:
192,192,10142,1,0,0:0:0:0:
64,192,10517,1,2,2:0:0:0:
402,192,11267,1,0,0:0:0:0:
320,192,11642,1,0,0:0:0:0:
192,192,12017,5,2,2:0:0:0:
64,192,12767,1,0,0:0:0:0:
448,192,13517,128,2,15017:2:0:0:0:
320,192,15017,128,0,16517:0:0:0:0:
192,192,16517,128,0,18017:0:0:0:0:
109,192,18017,128,0,19517:0:0:0:0:
320,192,19517,1,2,0:0:0:0:
475,192,19517,1,4,0:0:0:0:
192,192,20267,1,8,0:0:0:0:
64,192,21017,1,4,0:0:0:0:
475,192,21017,1,2,0:0:0:0:
448,192,21767,1,8,0:0:0:0:
320,192,21767,1,0,0:0:0:0:
192,192,22142,1,2,2:0:0:0:
36,192,22517,1,4,0:0:0:0:
448,192,22517,1,2,0:0:0:0:
320,192,23267,1,8,0:0:0:0:
109,192,24017,1,4,0:0:0:0:
192,192,24017,1,2,0:0:0:0:
448,192,24767,1,8,0:0:0:0:
64,192,24767,1,0,0:0:0:0:
192,192,25142,1,2,2:0:0:0:
320,192,25517,1,4,0:0:0:0:
475,192,25517,1,2,0:0:0:0:
192,192,26267,1,8,0:0:0:0:
402,192,27017,1,2,0:0:0:0:
109,192,27017,1,4,0:0:0:0:
256,192,27767,1,8,0:0:0:0:
448,192,27767,1,0,0:0:0:0:
192,192,28142,1,2,2:0:0:0:
448,192,28517,1,2,0:0:0:0:
36,192,28517,128,4,29267:0:0:0:0:
320,192,29267,128,8,30017:0:0:0:0:
109,192,30017,1,4,0:0:0:0:
192,192,30017,128,2,32267:0:0:0:0:
109,192,33017,1,4,0:0:0:0:
402,192,33017,1,0,0:0:0:0:
192,192,33392,1,0,0:0:0:0:
320,192,33767,1,0,0:0:0:0:
475,192,34142,1,0,0:0:0:0:
329,192,34329,1,0,0:0:0:0:
192,192,34517,1,0,0:0:0:0:
109,192,34892,1,0,0:0:0:0:
182,192,35079,1,0,0:0:0:0:
329,192,35267,1,0,0:0:0:0:
448,192,35642,1,0,0:0:0:0:
192,192,36017,1,0,0:0:0:0:
64,192,36392,1,0,0:0:0:0:
448,192,36767,1,0,0:0:0:0:
320,192,37142,1,0,0:0:0:0:
192,192,37329,1,0,0:0:0:0:
109,192,37517,1,0,0:0:0:0:
192,192,37892,1,0,0:0:0:0:
320,192,38079,1,0,0:0:0:0:
448,192,38267,128,0,38642:0:0:0:0:
320,192,38642,128,0,39017:0:0:0:0:
36,192,39017,1,0,0:0:0:0:
320,192,39392,1,0,0:0:0:0:
402,192,39767,1,0,0:0:0:0:
192,192,40142,1,0,0:0:0:0:
448,192,40517,128,0,40892:0:0:0:0:
36,192,40892,128,0,41267:0:0:0:0:
402,192,41267,128,0,41642:0:0:0:0:
256,192,41642,1,0,0:0:0:0:
182,192,41829,1,0,0:0:0:0:
109,192,42017,1,0,0:0:0:0:
192,192,42392,1,0,0:0:0:0:
448,192,42767,128,0,43142:0:0:0:0:
320,192,43142,128,0,43517:0:0:0:0:
192,192,43517,1,4,0:0:0:0:
36,192,43517,1,2,0:0:0:0:
329,192,44267,1,8,0:0:0:0:
109,192,45017,1,2,0:0:0:0:
402,192,45017,1,0,0:0:0:0:
192,192,45767,1,8,0:0:0:0:
329,192,46517,1,2,0:0:0:0:
36,192,46517,1,0,0:0:0:0:
448,192,47267,1,8,0:0:0:0:
109,192,48017,1,2,0:0:0:0:
192,192,48017,1,0,0:0:0:0:
256,192,48767,1,8,0:0:0:0:
182,192,49142,1,0,0:0:0:0:
329,192,49517,1,2,0:0:0:0:
109,192,49517,1,0,0:0:0:0:
475,192,50267,1,8,0:0:0:0:
182,192,51017,1,2,0:0:0:0:
320,192,51017,1,0,0:0:0:0:
36,192,51767,1,8,0:0:0:0:
192,192,52517,1,2,0:0:0:0:
402,192,52517,1,0,0:0:0:0:
329,192,53267,1,8,0:0:0:0:
192,192,54017,1,2,0:0:0:0:
64,192,54017,1,0,0:0:0:0:
320,192,54392,1,2,0:0:0:0:
182,192,54579,1,2,0:0:0:0:
109,192,54767,1,8,0:0:0:0:
320,192,55142,1,8,0:0:0:0:
36,192,55517,1,2,0:0:0:0:
475,192,55517,1,4,0:0:0:0:
329,192,56267,1,8,0:0:0:0:
109,192,57017,1,2,0:0:0:0:
182,192,57017,1,0,0:0:0:0:
402,192,57767,1,8,0:0:0:0:
36,192,58517,1,2,0:0:0:0:
256,192,58517,1,0,0:0:0:0:
192,192,59267,1,8,0:0:0:0:
320,192,60017,1,2,0:0:0:0:
448,192,60017,1,0,0:0:0:0:
192,192,60767,1,8,0:0:0:0:
320,192,61142,1,0,0:0:0:0:
109,192,61517,1,2,0:0:0:0:
402,192,61517,1,0,0:0:0:0:
256,192,62267,1,8,0:0:0:0:
36,192,63017,1,2,0:0:0:0:
182,192,63017,1,0,0:0:0:0:
402,192,63767,1,8,0:0:0:0:
320,192,64517,1,2,0:0:0:0:
64,192,64517,1,0,0:0:0:0:
192,192,65267,1,8,0:0:0:0:
320,192,65642,1,0,0:0:0:0:
448,192,66017,1,2,0:0:0:0:
36,192,66017,1,4,0:0:0:0:
182,192,66392,1,2,0:0:0:0:
475,192,66767,1,2,0:0:0:0:
329,192,67142,1,2,0:0:0:0:
36,192,67517,1,2,0:0:0:0:
182,192,67892,1,2,0:0:0:0:
475,192,68267,1,2,0:0:0:0:
329,192,68642,1,2,0:0:0:0:
109,192,69017,1,2,0:0:0:0:
256,192,69392,1,2,0:0:0:0:
402,192,69767,1,2,0:0:0:0:
36,192,70142,1,2,0:0:0:0:
182,192,70517,1,2,0:0:0:0:
448,192,70892,1,2,0:0:0:0:
64,192,71267,1,2,0:0:0:0:
448,192,71642,1,8,0:0:0:0:
64,192,71642,1,0,0:0:0:0:
192,192,72017,1,2,0:0:0:0:
320,192,72017,128,4,72767:0:0:0:0:
448,192,72767,1,8,0:0:0:0:
192,192,73142,1,0,0:0:0:0:
320,192,73517,128,2,74267:0:0:0:0:
64,192,73517,1,4,0:0:0:0:
182,192,74267,1,8,0:0:0:0:
320,192,74642,1,4,0:0:0:0:
36,192,75017,1,4,0:0:0:0:
475,192,75017,128,2,78017:0:0:0:0:
192,192,75767,128,0,78017:0:0:0:0:
64,192,78017,1,2,0:0:0:0:
36,192,78767,128,8,79517:0:0:0:0:
448,192,78767,1,4,0:0:0:0:
192,192,79517,1,2,0:0:0:0:
256,192,79892,1,8,0:0:0:0:
475,192,80267,1,8,0:0:0:0:
329,192,80454,1,2,0:0:0:0:
36,192,80642,1,2,1:0:0:0:
402,192,81017,1,2,0:0:0:0:
182,192,81767,1,4,0:0:0:0:
320,192,82048,1,2,0:0:0:0:
36,192,82329,1,2,0:0:0:0:
402,192,82704,1,8,0:0:0:0:
109,192,82892,1,2,0:0:0:0:
448,192,83267,1,8,0:0:0:0:
448,192,83642,1,2,0:0:0:0:
36,192,84017,1,2,0:0:0:0:
256,192,84298,1,8,0:0:0:0:
475,192,84579,1,2,0:0:0:0:
192,192,84767,128,4,85517:0:0:0:0:
109,192,85517,1,2,0:0:0:0:
475,192,85892,1,8,0:0:0:0:
329,192,86267,1,8,0:0:0:0:
36,192,86454,1,2,0:0:0:0:
182,192,86642,1,2,1:0:0:0:
109,192,87017,1,2,0:0:0:0:
320,192,87392,1,2,0:0:0:0:
192,192,87579,1,2,0:0:0:0:
320,192,87767,1,8,0:0:0:0:
448,192,87954,1,2,0:0:0:0:
182,192,88517,1,2,0:0:0:0:
329,192,88704,128,8,89267:0:0:0:0:
109,192,89267,1,8,0:0:0:0:
192,192,89454,1,2,0:0:0:0:
402,192,89642,128,8,90017:0:0:0:0:
36,192,90017,1,2,0:0:0:0:
256,192,90392,1,2,0:0:0:0:
64,192,90767,128,4,91517:0:0:0:0:
448,192,90767,1,8,0:0:0:0:
320,192,91517,1,2,0:0:0:0:
448,192,91892,1,8,0:0:0:0:
109,192,92267,1,8,0:0:0:0:
192,192,92454,1,2,0:0:0:0:
256,192,92642,1,8,0:0:0:0:
182,192,93017,1,2,0:0:0:0:
109,192,93767,1,8,0:0:0:0:
475,192,94048,1,2,0:0:0:0:
192,192,94329,1,2,0:0:0:0:
320,192,94704,1,8,0:0:0:0:
109,192,94892,1,2,0:0:0:0:
475,192,95267,1,8,0:0:0:0:
320,192,95548,1,2,0:0:0:0:
192,192,95829,1,2,0:0:0:0:
320,192,96017,1,2,0:0:0:0:
192,192,96298,1,8,0:0:0:0:
36,192,96579,1,2,0:0:0:0:
256,192,96767,128,6,97517:0:0:0:0:
475,192,97517,1,2,0:0:0:0:
329,192,97892,1,8,0:0:0:0:
192,192,98267,1,8,0:0:0:0:
64,192,98642,128,2,99017:1:0:0:0:
448,192,99017,1,2,0:0:0:0:
320,192,99392,1,2,0:0:0:0:
320,192,99579,1,2,0:0:0:0:
64,192,99767,1,8,0:0:0:0:
320,192,99954,1,2,0:0:0:0:
192,192,100329,1,0,0:0:0:0:
192,192,100517,1,2,0:0:0:0:
320,192,100704,128,8,101267:0:0:0:0:
448,192,101267,128,2,102017:2:0:0:0:
36,192,102017,1,2,2:0:0:0:
320,192,102392,1,2,2:0:0:0:
192,192,102767,1,2,2:0:0:0:
448,192,103142,128,2,103517:2:0:0:0:
320,192,103517,1,4,0:0:0:0:
64,192,103517,1,0,0:0:0:0:
192,192,104267,1,4,0:0:0:0:
320,192,105017,1,4,0:0:0:0:
402,192,105017,1,0,0:0:0:0:
192,192,105767,1,4,0:0:0:0:
320,192,106517,1,4,0:0:0:0:
64,192,106517,1,0,0:0:0:0:
448,192,107267,1,4,0:0:0:0:
109,192,108017,1,4,0:0:0:0:
192,192,108017,1,0,0:0:0:0:
448,192,108392,1,4,0:0:0:0:
320,192,108579,1,0,0:0:0:0:
192,192,108767,1,4,0:0:0:0:
64,192,108954,1,0,0:0:0:0:
192,192,109142,1,4,0:0:0:0:
320,192,109329,1,0,0:0:0:0:
64,192,109517,1,6,0:0:0:0:
402,192,109517,1,2,2:0:0:0:
64,192,110079,5,2,0:0:0:0:
320,192,110267,1,0,0:0:0:0:
64,192,110454,1,2,0:0:0:0:
192,192,110642,1,8,0:0:0:0:
448,192,110829,1,2,0:0:0:0:
320,192,111017,1,2,0:0:0:0:
64,192,111204,1,2,0:0:0:0:
320,192,111392,1,0,0:0:0:0:
192,192,111579,1,2,0:0:0:0:
448,192,111767,1,0,0:0:0:0:
64,192,111954,1,2,0:0:0:0:
256,192,112142,1,8,0:0:0:0:
192,192,112329,1,2,0:0:0:0:
402,192,112517,128,2,113079:0:0:0:0:
64,192,113079,1,2,0:0:0:0:
320,192,113267,1,0,0:0:0:0:
192,192,113454,1,2,0:0:0:0:
448,192,113642,1,8,0:0:0:0:
64,192,113829,1,2,0:0:0:0:
320,192,114017,1,2,0:0:0:0:
192,192,114204,1,2,0:0:0:0:
448,192,114392,1,0,0:0:0:0:
64,192,114579,1,2,0:0:0:0:
320,192,114767,1,0,0:0:0:0:
109,192,114954,1,2,0:0:0:0:
192,192,115142,1,8,0:0:0:0:
320,192,115329,1,2,0:0:0:0:
64,192,115517,128,2,115892:0:0:0:0:
192,192,115892,5,0,0:0:0:0:
320,192,116079,1,2,0:0:0:0:
402,192,116267,128,0,116642:0:0:0:0:
64,192,116642,1,8,0:0:0:0:
402,192,117017,128,2,117767:2:0:0:0:
64,192,117767,128,2,118517:2:0:0:0:
448,192,118517,128,4,119267:0:0:0:0:
192,192,118517,1,0,0:0:0:0:
329,192,119267,128,0,120017:2:0:0:0:
36,192,119267,1,0,0:0:0:0:
182,192,120017,128,0,120767:0:0:0:0:
36,192,120017,1,0,0:0:0:0:
36,192,120767,128,0,121517:2:0:0:0:
475,192,120767,1,0,0:0:0:0:
402,192,121517,128,0,122267:0:0:0:0:
256,192,121517,1,0,0:0:0:0:
256,192,122267,128,0,123017:2:0:0:0:
109,192,122267,1,0,0:0:0:0:
64,192,123017,128,0,123767:0:0:0:0:
448,192,123017,1,0,0:0:0:0:
320,192,123767,128,0,124517:2:0:0:0:
192,192,123767,1,0,0:0:0:0:
36,192,124517,128,4,126017:0:0:0:0:
448,192,124517,1,0,0:0:0:0:
192,192,125267,1,0,2:0:0:0:
402,192,126017,128,4,127517:0:0:0:0:
256,192,126017,1,0,0:0:0:0:
109,192,126767,1,0,2:0:0:0:
36,192,127517,1,0,0:0:0:0:
192,192,127517,1,4,0:0:0:0:
448,192,128267,128,0,130517:0:0:0:0:
64,192,130517,1,2,2:0:0:0:
