osu file format v14

[General]
AudioFilename: asdf.mp3
AudioLeadIn: 0
PreviewTime: 72017
Countdown: 0
SampleSet: Drum
StackLeniency: 0.7
Mode: 3
LetterboxInBreaks: 0
SpecialStyle: 0
WidescreenStoryboard: 0

[Editor]
Bookmarks: 4423,4470,4517,5954,6017,8892,8954,9017,11970,12017,13423,13470,13517,112454,113454,113517,113579,113642
DistanceSpacing: 1.5
BeatDivisor: 4
GridSize: 4
TimelineZoom: 2.899999

[Metadata]
Title:Myosotis
TitleUnicode:Myosotis
Artist:M2U
ArtistUnicode:M2U
Creator:Arzenvald
Version:4K Aria
Source:Deemo
Tags:ExUsagi ajeemaniz NICODE feat. Guriri Lucy Magnolia Rayark Piano Dubstep Eternalie
BeatmapID:1316855
BeatmapSetID:421952

[Difficulty]
HPDrainRate:9
CircleSize:4
OverallDifficulty:8
ApproachRate:5
SliderMultiplier:1.4
SliderTickRate:1

[Events]
//Background and Video events
0,0,"bg bye 2.jpg",0,0
//Break Periods
//Storyboard Layer 0 (Background)
//Storyboard Layer 1 (Fail)
//Storyboard Layer 2 (Pass)
//Storyboard Layer 3 (Foreground)
//Storyboard Layer 4 (Overlay)
//Storyboard Sound Samples
Sample,1517,0,"A6S.wav",53
Sample,2267,0,"F7S.wav",53
Sample,3017,0,"E7S.wav",55
Sample,3017,0,"C#7S_Db7S.wav",36
Sample,3392,0,"D7S_s.wav",47
Sample,3767,0,"A6S_s.wav",53
Sample,4142,0,"G6S_s.wav",51
Sample,4517,0,"A6S.wav",53
Sample,5267,0,"A6S_s.wav",48
Sample,6392,0,"D7S_s.wav",51
Sample,6767,0,"C7S_s.wav",51
Sample,7142,0,"A#6S_Bb6S_s.wav",49
Sample,7517,0,"A6S.wav",55
Sample,7892,0,"A#6S_Bb6S_s.wav",48
Sample,8267,0,"D7S_s.wav",54
Sample,8642,0,"F7S_s.wav",52
Sample,9017,0,"A7S.wav",55
Sample,9017,0,"F4S.wav",42
Sample,9767,0,"G7S_s.wav",55
Sample,10142,0,"F7S_s.wav",53
Sample,10517,0,"B6S.wav",36
Sample,10517,0,"E7S.wav",51
Sample,11267,0,"B6S_s.wav",49
Sample,11642,0,"E7S_s.wav",48
Sample,12017,0,"D7S.wav",47
Sample,12767,0,"C#7S_Db7S.wav",45
Sample,13517,0,"A6S_s.wav",32
Sample,13517,0,"D#4S_Eb4S.wav",40
Sample,13517,0,"D7S_s.wav",43
Sample,19892,0,"F7S_s.wav",74
Sample,20173,0,"E7S_s.wav",74
Sample,20267,0,"E7S_s.wav",76
Sample,21017,0,"D7S.wav",77
Sample,21767,0,"D#8S_Eb8S_s.wav",76
Sample,21954,0,"D8S_s.wav",74
Sample,22142,0,"A6S_s.wav",63
Sample,22142,0,"A7S_s.wav",74
Sample,22329,0,"D8S_s.wav",74
Sample,22517,0,"C8S_s.wav",88
Sample,23267,0,"A7S_s.wav",86
Sample,24017,0,"A7S_s.wav",88
Sample,24767,0,"A5S_s.wav",61
Sample,25142,0,"F6S_s.wav",79
Sample,25517,0,"D6S.wav",82
Sample,25892,0,"F7S_s.wav",79
Sample,26267,0,"E7S_s.wav",76
Sample,26642,0,"A7S_s.wav",80
Sample,27017,0,"D7S_s.wav",68
Sample,27767,0,"D#8S_Eb8S_s.wav",76
Sample,28142,0,"C8S_s.wav",74
Sample,28517,0,"A7S_s.wav",88
Sample,29267,0,"A7S_s.wav",88
Sample,30017,0,"A6S.wav",70
Sample,33017,0,"F6S.wav",36
Sample,33017,0,"A6S.wav",47
Sample,33392,0,"F7S_s.wav",44
Sample,35642,0,"D7S_s.wav",44
Sample,37142,0,"G7S_s.wav",44
Sample,37329,0,"F7S_s.wav",38
Sample,37892,0,"B6S_s.wav",39
Sample,39954,0,"D7S_s.wav",55
Sample,40329,0,"A7S_s.wav",60
Sample,41642,0,"G7S_s.wav",59
Sample,42392,0,"B6S_s.wav",51
Sample,43517,0,"D6S.wav",63
Sample,44267,0,"A6S.wav",62
Sample,45017,0,"A6S.wav",60
Sample,45767,0,"C7S_s.wav",65
Sample,46517,0,"A#6S_Bb6S.wav",70
Sample,47267,0,"G6S_s.wav",74
Sample,48017,0,"A6S_s.wav",80
Sample,48204,0,"E6S_s.wav",44
Sample,48392,0,"E6S_s.wav",45
Sample,48579,0,"G5S_s.wav",48
Sample,48767,0,"G5S_s.wav",51
Sample,48767,0,"E3S_s.wav",40
Sample,48954,0,"G5S_s.wav",55
Sample,49142,0,"C#6S_Db6S_s.wav",58
Sample,49329,0,"C#6S_Db6S_s.wav",61
Sample,49517,0,"D6S.wav",67
Sample,50267,0,"A6S.wav",66
Sample,51017,0,"A6S.wav",67
Sample,51767,0,"E7S_s.wav",66
Sample,52517,0,"C7S.wav",67
Sample,53267,0,"A6S_s.wav",68
Sample,54017,0,"D6S.wav",77
Sample,54392,0,"E6S_s.wav",70
Sample,54579,0,"D6S_s.wav",70
Sample,54767,0,"C6S_s.wav",72
Sample,55142,0,"A6S_s.wav",70
Sample,56267,0,"A6S.wav",62
Sample,56829,0,"A#6S_Bb6S_s.wav",60
Sample,57017,0,"A6S.wav",61
Sample,57767,0,"C7S_s.wav",66
Sample,58517,0,"A#6S_Bb6S.wav",70
Sample,59267,0,"G6S_s.wav",75
Sample,60017,0,"A6S_s.wav",81
Sample,60204,0,"E6S_s.wav",49
Sample,60392,0,"E6S_s.wav",51
Sample,60579,0,"G5S_s.wav",54
Sample,60767,0,"G5S_s.wav",57
Sample,60767,0,"E3S_s.wav",40
Sample,60954,0,"G5S_s.wav",60
Sample,61142,0,"C#6S_Db6S_s.wav",63
Sample,61329,0,"C#6S_Db6S_s.wav",66
Sample,61517,0,"D6S.wav",76
Sample,62267,0,"A6S.wav",74
Sample,63017,0,"A6S.wav",76
Sample,63767,0,"E7S_s.wav",74
Sample,64517,0,"C7S.wav",76
Sample,65267,0,"A6S_s.wav",77
Sample,66204,0,"F6S_s.wav",63
Sample,66392,0,"F6S_s.wav",64
Sample,66767,0,"D7S_s.wav",78
Sample,66954,0,"E6S_s.wav",48
Sample,67142,0,"E6S_s.wav",49
Sample,67517,0,"D7S.wav",55
Sample,67892,0,"E7S_s.wav",83
Sample,68267,0,"D7S_s.wav",85
Sample,68454,0,"F6S_s.wav",59
Sample,68642,0,"C#7S_Db7S_s.wav",86
Sample,69204,0,"D6S_s.wav",52
Sample,69204,0,"F6S_s.wav",63
Sample,69392,0,"D6S_s.wav",53
Sample,69392,0,"F6S_s.wav",64
Sample,69767,0,"A7S_s.wav",93
Sample,69954,0,"E6S_s.wav",63
Sample,69954,0,"A5S_s.wav",62
Sample,70142,0,"E6S_s.wav",56
Sample,70142,0,"E5S_s.wav",61
Sample,70329,0,"E6S_s.wav",58
Sample,70517,0,"D7S_s.wav",65
Sample,70704,0,"F7S_s.wav",62
Sample,70892,0,"E7S_s.wav",59
Sample,71079,0,"D7S_s.wav",56
Sample,71267,0,"C#7S_Db7S_s.wav",55
Sample,71454,0,"F6S_s.wav",48
Sample,72767,0,"G6S_s.wav",61
Sample,73142,0,"G5S_s.wav",74
Sample,73517,0,"F5S.wav",81
Sample,73892,0,"D7S_s.wav",65
Sample,74267,0,"G6S_s.wav",66
Sample,74642,0,"D6S_s.wav",70
Sample,75017,0,"D6S_s.wav",88
Sample,75767,0,"D8S_s.wav",86
Sample,78017,0,"D5S.wav",77
Sample,79517,0,"D3S.wav",77
Sample,79517,0,"D2S.wav",62
Sample,79610,0,"D5S_s.wav",70
Sample,79892,0,"A5S_s.wav",92
Sample,80267,0,"G#5S_Ab5S_s.wav",93
Sample,80454,0,"G#2S_Ab2S_s.wav",66
Sample,80642,0,"D#5S_Eb5S_s.wav",92
Sample,81017,0,"D3S.wav",66
Sample,81017,0,"D4S.wav",77
Sample,81767,0,"D5S_s.wav",76
Sample,82048,0,"A3S_s.wav",74
Sample,82048,0,"A2S_s.wav",60
Sample,82329,0,"A7S_s.wav",91
Sample,82704,0,"A#5S_Bb5S_s.wav",74
Sample,82892,0,"A5S_s.wav",74
Sample,82892,0,"A4S_s.wav",63
Sample,83079,0,"F5S_s.wav",69
Sample,83267,0,"D#5S_Eb5S_s.wav",93
Sample,83454,0,"A4S_s.wav",69
Sample,83548,0,"F5S_s.wav",91
Sample,83642,0,"A#2S_Bb2S_s.wav",68
Sample,83735,0,"F#4S_Gb4S_s.wav",62
Sample,83735,0,"A#4S_Bb4S_s.wav",74
Sample,83829,0,"D#5S_Eb5S_s.wav",91
Sample,84017,0,"D5S_s.wav",95
Sample,84298,0,"D5S_s.wav",91
Sample,84579,0,"D#5S_Eb5S_s.wav",91
Sample,84767,0,"D5S_s.wav",100
Sample,84860,0,"D5S_s.wav",70
Sample,85142,0,"D5S_s.wav",70
Sample,85517,0,"D3S_s.wav",77
Sample,85517,0,"D2S_s.wav",62
Sample,85704,0,"D5S_s.wav",74
Sample,85892,0,"A5S_s.wav",92
Sample,86267,0,"G#5S_Ab5S_s.wav",93
Sample,87017,0,"D3S.wav",66
Sample,87017,0,"D4S.wav",77
Sample,87392,0,"D5S_s.wav",70
Sample,87579,0,"D5S_s.wav",70
Sample,87673,0,"D5S_s.wav",70
Sample,87767,0,"D5S_s.wav",76
Sample,87954,0,"G6S_s.wav",91
Sample,88329,0,"F5S_s.wav",74
Sample,88517,0,"D#2S_Eb2S_s.wav",69
Sample,88704,0,"D6S_s.wav",91
Sample,89079,0,"D#2S_Eb2S_s.wav",65
Sample,89079,0,"A5S_s.wav",69
Sample,89173,0,"A5S_s.wav",69
Sample,89267,0,"F6S_s.wav",90
Sample,89454,0,"F6S_s.wav",91
Sample,89642,0,"E6S_s.wav",92
Sample,90017,0,"D5S.wav",77
Sample,90860,0,"D5S_s.wav",70
Sample,90954,0,"D5S_s.wav",74
Sample,91235,0,"D6S_s.wav",74
Sample,91517,0,"D2S.wav",62
Sample,91517,0,"D3S.wav",74
Sample,91610,0,"D5S_s.wav",74
Sample,91704,0,"D5S_s.wav",74
Sample,91892,0,"A5S_s.wav",92
Sample,92079,0,"A2S_s.wav",66
Sample,92267,0,"G#5S_Ab5S_s.wav",93
Sample,92454,0,"G#2S_Ab2S_s.wav",66
Sample,92642,0,"D#5S_Eb5S_s.wav",92
Sample,93017,0,"D4S.wav",77
Sample,93767,0,"D5S_s.wav",76
Sample,94048,0,"A3S_s.wav",74
Sample,94048,0,"A2S_s.wav",60
Sample,94329,0,"A7S_s.wav",78
Sample,94704,0,"A#5S_Bb5S_s.wav",74
Sample,94704,0,"D5S_s.wav",69
Sample,94892,0,"A5S_s.wav",74
Sample,95079,0,"F5S_s.wav",69
Sample,95267,0,"D#5S_Eb5S_s.wav",93
Sample,95454,0,"A4S_s.wav",69
Sample,95548,0,"F5S_s.wav",91
Sample,95642,0,"A#2S_Bb2S_s.wav",68
Sample,95735,0,"F#4S_Gb4S_s.wav",62
Sample,95735,0,"A#4S_Bb4S_s.wav",74
Sample,95829,0,"D#5S_Eb5S_s.wav",91
Sample,96017,0,"D5S_s.wav",95
Sample,96298,0,"D5S_s.wav",91
Sample,96579,0,"D#5S_Eb5S_s.wav",91
Sample,96767,0,"D5S_s.wav",100
Sample,97142,0,"D5S_s.wav",70
Sample,97517,0,"D2S_s.wav",62
Sample,97517,0,"D3S_s.wav",77
Sample,97704,0,"D5S_s.wav",74
Sample,97892,0,"A5S_s.wav",92
Sample,98267,0,"G#5S_Ab5S_s.wav",93
Sample,98642,0,"D#5S_Eb5S_s.wav",92
Sample,99017,0,"D4S.wav",77
Sample,99767,0,"D5S_s.wav",73
Sample,100329,0,"F5S_s.wav",74
Sample,101079,0,"D#2S_Eb2S_s.wav",65
Sample,101267,0,"A7S.wav",93
Sample,102017,0,"D7S.wav",67
Sample,102392,0,"F7S_s.wav",64
Sample,102642,0,"E7S_s.wav",63
Sample,102642,0,"E6S_s.wav",52
Sample,102767,0,"E7S_s.wav",73
Sample,103142,0,"A7S_s.wav",74
Sample,103517,0,"D6S.wav",57
Sample,103892,0,"A6S.wav",54
Sample,104267,0,"G5S.wav",43
Sample,104642,0,"C7S_s.wav",54
Sample,105767,0,"A6S_s.wav",55
Sample,106517,0,"E6S.wav",57
Sample,106892,0,"D6S_s.wav",54
Sample,107173,0,"E7S_s.wav",53
Sample,107267,0,"E7S.wav",68
Sample,107829,0,"D7S_s.wav",53
Sample,108017,0,"C7S.wav",57
Sample,108392,0,"A7S_s.wav",64
Sample,108579,0,"G7S_s.wav",63
Sample,108767,0,"F7S_s.wav",66
Sample,109142,0,"F7S_s.wav",64
Sample,109517,0,"D7S.wav",56
Sample,109517,0,"A7S.wav",67
Sample,110079,0,"D7S_s.wav",59
Sample,110454,0,"A6S_s.wav",63
Sample,110642,0,"D7S_s.wav",64
Sample,110829,0,"G7S_s.wav",63
Sample,111017,0,"F7S_s.wav",67
Sample,111204,0,"E7S_s.wav",63
Sample,111579,0,"G7S_s.wav",63
Sample,111954,0,"F7S_s.wav",63
Sample,112142,0,"A6S_s.wav",64
Sample,112329,0,"E7S_s.wav",63
Sample,112517,0,"E7S.wav",65
Sample,113079,0,"D7S_s.wav",61
Sample,113454,0,"F5S_s.wav",60
Sample,113642,0,"C7S_s.wav",68
Sample,114017,0,"A6S_s.wav",70
Sample,114204,0,"D7S_s.wav",70
Sample,114579,0,"E6S_s.wav",61
Sample,114579,0,"E7S_s.wav",72
Sample,114954,0,"A6S_s.wav",70
Sample,115329,0,"F7S_s.wav",71
Sample,115517,0,"A7S_s.wav",77
Sample,116079,0,"D7S_s.wav",74
Sample,117767,0,"E7S.wav",86
Sample,118517,0,"D7S_s.wav",82
Sample,118704,0,"F6S_s.wav",63
Sample,118892,0,"F6S_s.wav",64
Sample,119079,0,"G6S_s.wav",63
Sample,119454,0,"E6S_s.wav",59
Sample,119642,0,"E6S_s.wav",60
Sample,119829,0,"G6S_s.wav",66
Sample,120017,0,"D7S.wav",66
Sample,120392,0,"E7S_s.wav",83
Sample,121142,0,"C#7S_Db7S_s.wav",86
Sample,121329,0,"G6S_s.wav",56
Sample,121704,0,"F6S_s.wav",62
Sample,121892,0,"F6S_s.wav",63
Sample,122454,0,"E6S_s.wav",62
Sample,122642,0,"E6S_s.wav",55
Sample,123204,0,"F7S_s.wav",62
Sample,123392,0,"E7S_s.wav",59
Sample,123954,0,"F6S_s.wav",48
Sample,124142,0,"F6S_s.wav",49
Sample,124329,0,"G6S_s.wav",48
Sample,125642,0,"G5S_s.wav",80
Sample,126392,0,"D7S_s.wav",65
Sample,127142,0,"D6S_s.wav",76
Sample,128267,0,"D8S_s.wav",86

[TimingPoints]
1517,375,4,3,1,80,1,0
71642,-50,4,3,1,80,0,0
71735,-133.333333333333,4,3,1,80,0,0
72017,-100,4,3,1,80,0,0
78017,-250,4,3,1,80,0,1
78157,-62.5,4,3,1,80,0,1
78298,-100,4,3,1,80,0,1
78392,-250,4,3,1,80,0,1
78532,-62.5,4,3,1,80,0,1
78673,-100,4,3,1,80,0,1
78767,-50,4,3,1,80,0,1
78860,-200,4,3,1,80,0,1
78954,-149.253731343284,4,3,1,80,0,1
79048,-120.481927710843,4,3,1,80,0,1
79142,-100,4,3,1,80,0,1
80642,-250,4,3,1,80,0,1
80665,-33.3333333333333,4,3,1,80,0,1
80688,-250,4,3,1,80,0,1
80712,-38.4615384615385,4,3,1,80,0,1
80735,-250,4,3,1,80,0,1
80759,-45.4545454545455,4,3,1,80,0,1
80782,-250,4,3,1,80,0,1
80806,-55.5555555555556,4,3,1,80,0,1
80829,-250,4,3,1,80,0,1
80852,-71.4285714285714,4,3,1,80,0,1
80876,-250,4,3,1,80,0,1
80899,-100,4,3,1,80,0,1
80923,-250,4,3,1,80,0,1
81017,-100,4,3,1,80,0,1
81392,-41.6666666666667,4,3,1,80,0,1
81415,-125,4,3,1,80,0,1
81485,-55.5555555555556,4,3,1,80,0,1
81509,-166.666666666667,4,3,1,80,0,1
81579,-83.3333333333333,4,3,1,80,0,1
81602,-250,4,3,1,80,0,1
81673,-166.666666666667,4,3,1,80,0,1
81696,-500,4,3,1,80,0,1
81767,-100,4,3,1,80,0,1
84017,-62.5,4,3,1,80,0,1
84079,-142.857142857143,4,3,1,80,0,1
84204,-100,4,3,1,80,0,1
84298,-62.5,4,3,1,80,0,1
84360,-142.857142857143,4,3,1,80,0,1
84485,-100,4,3,1,80,0,1
84579,-62.5,4,3,1,80,0,1
84642,-142.857142857143,4,3,1,80,0,1
84767,-100,4,3,1,80,0,1
86642,-250,4,3,1,80,0,1
86665,-33.3333333333333,4,3,1,80,0,1
86688,-250,4,3,1,80,0,1
86712,-38.4615384615385,4,3,1,80,0,1
86735,-250,4,3,1,80,0,1
86759,-45.4545454545455,4,3,1,80,0,1
86782,-250,4,3,1,80,0,1
86806,-55.5555555555556,4,3,1,80,0,1
86829,-250,4,3,1,80,0,1
86852,-71.4285714285714,4,3,1,80,0,1
86876,-250,4,3,1,80,0,1
86899,-100,4,3,1,80,0,1
86923,-250,4,3,1,80,0,1
87017,-100,4,3,1,80,0,1
87767,-62.5,4,3,1,80,0,1
87813,-250,4,3,1,80,0,1
87860,-100,4,3,1,80,0,1
87954,-66.6666666666667,4,3,1,80,0,1
88001,-81.9672131147541,4,3,1,80,0,1
88048,-100,4,3,1,80,0,1
88095,-113.636363636364,4,3,1,80,0,1
88142,-133.333333333333,4,3,1,80,0,1
88282,-66.6666666666667,4,3,1,80,0,1
88329,-100,4,3,1,80,0,1
90017,-250,4,3,1,80,0,1
90157,-62.5,4,3,1,80,0,1
90298,-100,4,3,1,80,0,1
90392,-250,4,3,1,80,0,1
90532,-62.5,4,3,1,80,0,1
90673,-100,4,3,1,80,0,1
92642,-250,4,3,1,80,0,1
92665,-33.3333333333333,4,3,1,80,0,1
92688,-250,4,3,1,80,0,1
92712,-38.4615384615385,4,3,1,80,0,1
92735,-250,4,3,1,80,0,1
92759,-45.4545454545455,4,3,1,80,0,1
92782,-250,4,3,1,80,0,1
92806,-55.5555555555556,4,3,1,80,0,1
92829,-250,4,3,1,80,0,1
92852,-71.4285714285714,4,3,1,80,0,1
92876,-250,4,3,1,80,0,1
92899,-100,4,3,1,80,0,1
92923,-250,4,3,1,80,0,1
93017,-100,4,3,1,80,0,1
94704,-66.6666666666667,4,3,1,80,0,1
94798,-200,4,3,1,80,0,1
94892,-66.6666666666667,4,3,1,80,0,1
94985,-200,4,3,1,80,0,1
95079,-100,4,3,1,80,0,1
95267,-66.6666666666667,4,3,1,80,0,1
95360,-200,4,3,1,80,0,1
95454,-100,4,3,1,80,0,1
96017,-62.5,4,3,1,80,0,1
96079,-142.857142857143,4,3,1,80,0,1
96204,-100,4,3,1,80,0,1
96298,-62.5,4,3,1,80,0,1
96360,-142.857142857143,4,3,1,80,0,1
96485,-100,4,3,1,80,0,1
96579,-62.5,4,3,1,80,0,1
96642,-142.857142857143,4,3,1,80,0,1
96767,-100,4,3,1,80,0,1
98642,-250,4,3,1,80,0,1
98665,-33.3333333333333,4,3,1,80,0,1
98688,-250,4,3,1,80,0,1
98712,-38.4615384615385,4,3,1,80,0,1
98735,-250,4,3,1,80,0,1
98759,-45.4545454545455,4,3,1,80,0,1
98782,-250,4,3,1,80,0,1
98806,-55.5555555555556,4,3,1,80,0,1
98829,-250,4,3,1,80,0,1
98852,-71.4285714285714,4,3,1,80,0,1
98876,-250,4,3,1,80,0,1
98899,-100,4,3,1,80,0,1
98923,-250,4,3,1,80,0,1
99017,-100,4,3,1,80,0,1
99392,-40,4,3,1,80,0,1
99415,-200,4,3,1,80,0,1
99485,-100,4,3,1,80,0,1
99579,-40,4,3,1,80,0,1
99602,-200,4,3,1,80,0,1
99673,-100,4,3,1,80,0,1
100517,-62.5,4,3,1,80,0,1
100610,-250,4,3,1,80,0,1
100704,-62.5,4,3,1,80,0,1
100798,-166.666666666667,4,3,1,80,0,1
101079,-100,4,3,1,80,0,1
101267,-500,4,3,1,80,0,1
101454,-200,4,3,1,80,0,1
101642,-125,4,3,1,80,0,1
101829,-62.5,4,3,1,80,0,1
102017,-100,4,3,1,80,0,0

[HitObjects]
192,192,1517,1,2,2:0:0:0:
320,192,1892,1,0,0:0:0:38:A5S.wav
448,192,2267,1,0,0:0:0:34:D7S.wav
64,192,3017,1,2,2:0:0:0:
192,192,3392,1,0,0:0:0:38:A5S.wav
448,192,3767,1,0,0:0:0:34:F6S_s.wav
320,192,4142,1,0,0:0:0:33:E6S_s.wav
64,192,4423,1,0,0:0:0:36:C6S.wav
192,192,4470,1,0,0:0:0:36:F6S.wav
448,192,4517,1,2,2:0:0:0:
64,192,4892,1,0,0:0:0:39:A5S_s.wav
192,192,5267,1,0,0:0:0:34:F6S_s.wav
320,192,5642,1,0,0:0:0:44:C7S_s.wav
192,192,5954,1,0,0:0:0:36:C7S.wav
320,192,6017,1,2,2:0:0:0:
448,192,6017,1,0,0:0:0:52:D#7S_Eb7S.wav
64,192,6392,1,0,0:0:0:39:A5S_s.wav
448,192,6767,1,0,0:0:0:34:F#6S_Gb6S_s.wav
320,192,7142,1,0,0:0:0:33:D6S_s.wav
64,192,7517,1,2,2:0:0:0:
192,192,7517,1,0,0:0:0:36:F6S.wav
320,192,7892,1,0,0:0:0:39:D5S_s.wav
448,192,8267,1,0,0:0:0:34:D6S_s.wav
64,192,8642,1,0,0:0:0:33:F6S_s.wav
192,192,8892,1,0,0:0:0:36:A6S.wav
320,192,8954,1,0,0:0:0:36:D7S.wav
448,192,9017,1,2,2:0:0:0:
192,192,9392,1,0,0:0:0:39:D5S_s.wav
448,192,9767,1,0,0:0:0:40:A5S_s.wav
320,192,10142,1,0,0:0:0:39:D5S_s.wav
64,192,10517,128,2,10892:2:0:0:0:
448,192,10892,1,0,0:0:0:39:B4S_s.wav
192,192,11267,1,0,0:0:0:34:D6S_s.wav
320,192,11642,1,0,0:0:0:33:G#6S_Ab6S_s.wav
192,192,11970,1,0,0:0:0:36:A6S.wav
448,192,12017,1,2,2:0:0:0:
320,192,12392,1,0,0:0:0:39:E4S_s.wav
192,192,12767,1,0,0:0:0:34:E6S.wav
448,192,13142,1,0,0:0:0:0:
64,192,13423,1,0,0:0:0:32:D#6S_Eb6S.wav
192,192,13470,1,0,0:0:0:32:G6S.wav
320,192,13517,1,2,2:0:0:0:
64,192,13892,1,0,0:0:0:39:D#5S_Eb5S_s.wav
192,192,14079,1,0,0:0:0:38:G5S_s.wav
448,192,14454,1,0,0:0:0:38:G7S_s.wav
320,192,14642,1,0,0:0:0:39:D#7S_Eb7S_s.wav
448,192,14829,1,0,0:0:0:38:A7S_s.wav
320,192,15017,1,0,0:0:0:42:G7S_s.wav
192,192,15204,1,0,0:0:0:39:D#7S_Eb7S_s.wav
64,192,15392,1,0,0:0:0:40:D7S_s.wav
448,192,15579,1,0,0:0:0:41:A#6S_Bb6S_s.wav
320,192,15767,1,0,0:0:0:43:A6S_s.wav
192,192,15954,1,0,0:0:0:44:G6S_s.wav
64,192,16142,1,0,0:0:0:45:D#6S_Eb6S_s.wav
192,192,16329,1,0,0:0:0:47:G6S_s.wav
320,192,16517,1,0,0:0:0:52:D7S_s.wav
192,192,16704,1,0,0:0:0:48:G7S_s.wav
448,192,16798,1,0,0:0:0:48:D8S_s.wav
64,192,16892,1,0,0:0:0:49:F7S_s.wav
320,192,16985,1,0,0:0:0:48:C8S_s.wav
192,192,17079,1,0,0:0:0:48:D#7S_Eb7S_s.wav
448,192,17173,1,0,0:0:0:48:A#7S_Bb7S_s.wav
192,192,17267,1,0,0:0:0:51:D7S_s.wav
64,192,17360,1,0,0:0:0:48:G7S_s.wav
320,192,17454,1,0,0:0:0:48:C7S_s.wav
192,192,17548,1,0,0:0:0:48:F7S_s.wav
448,192,17642,1,0,0:0:0:49:A#6S_Bb6S_s.wav
320,192,17735,1,0,0:0:0:48:A6S_s.wav
192,192,17829,1,0,0:0:0:48:A#6S_Bb6S_s.wav
320,192,17923,1,0,0:0:0:48:C7S_s.wav
64,192,18017,1,0,0:0:0:52:D7S_s.wav
192,192,18110,1,0,0:0:0:48:G7S_s.wav
448,192,18204,1,0,0:0:0:48:D#8S_Eb8S_s.wav
64,192,18298,1,0,0:0:0:48:A8S_s.wav
448,192,18392,1,0,0:0:0:49:G8S_s.wav
320,192,18485,1,0,0:0:0:48:D#8S_Eb8S_s.wav
192,192,18579,1,0,0:0:0:48:D8S_s.wav
64,192,18673,1,0,0:0:0:48:A#7S_Bb7S_s.wav
320,192,18767,1,0,0:0:0:51:A7S_s.wav
192,192,18829,1,0,0:0:0:48:G7S_s.wav
64,192,18892,1,0,0:0:0:48:D#7S_Eb7S_s.wav
448,192,18954,1,0,0:0:0:48:D7S_s.wav
320,192,19017,1,0,0:0:0:48:A6S_s.wav
64,192,19079,1,0,0:0:0:48:A#6S_Bb6S_s.wav
448,192,19142,1,0,0:0:0:49:G6S_s.wav
192,192,19204,1,0,0:0:0:48:D#6S_Eb6S_s.wav
64,192,19267,1,0,0:0:0:48:D6S_s.wav
448,192,19329,1,0,0:0:0:48:A#5S_Bb5S_s.wav
320,192,19392,1,0,0:0:0:48:A5S_s.wav
192,192,19454,1,0,0:0:0:48:G5S_s.wav
64,192,19517,1,6,0:0:0:0:
320,192,19517,1,0,0:0:0:66:A6S.wav
448,192,19517,1,0,0:0:0:70:D4S.wav
320,192,19892,1,0,0:0:0:63:A6S_s.wav
64,192,20173,1,0,0:0:0:62:E6S_s.wav
64,192,20267,1,8,0:0:0:0:
448,192,20267,1,0,0:0:0:65:E6S_s.wav
192,192,20642,1,0,0:0:0:63:C#7S_Db7S_s.wav
448,192,20642,1,0,0:0:0:74:A7S_s.wav
64,192,21017,1,6,0:0:0:0:
192,192,21017,1,0,0:0:0:66:A6S.wav
320,192,21392,1,0,0:0:0:63:D7S_s.wav
448,192,21392,1,0,0:0:0:74:A7S_s.wav
64,192,21579,128,0,21767:0:0:0:0:
192,192,21767,1,8,0:0:0:0:
448,192,21767,1,0,0:0:0:76:D4S_s.wav
320,192,21954,1,0,0:0:0:62:D7S_s.wav
192,192,22142,1,2,2:0:0:0:
64,192,22329,1,0,0:0:0:62:D7S_s.wav
192,192,22423,1,0,0:0:0:0:
64,192,22517,1,6,0:0:0:0:
320,192,22517,1,0,0:0:0:77:G7S_s.wav
64,192,22704,1,0,0:0:0:59:A#7S_Bb7S_s.wav
192,192,22798,1,0,0:0:0:59:A7S_s.wav
64,192,22892,1,0,0:0:0:59:G7S_s.wav
320,192,22985,1,0,0:0:0:59:D7S_s.wav
64,192,23079,1,0,0:0:0:59:A#6S_Bb6S_s.wav
448,192,23173,1,0,0:0:0:59:G6S_s.wav
64,192,23267,1,8,0:0:0:0:
192,192,23267,1,0,0:0:0:75:D7S_s.wav
448,192,23454,1,0,0:0:0:59:G7S_s.wav
320,192,23548,1,0,0:0:0:59:D#7S_Eb7S_s.wav
448,192,23642,1,0,0:0:0:59:D7S_s.wav
192,192,23735,1,0,0:0:0:59:A#6S_Bb6S_s.wav
448,192,23829,1,0,0:0:0:59:A6S_s.wav
64,192,23923,1,0,0:0:0:59:G6S_s.wav
192,192,24017,1,6,0:0:0:0:
448,192,24017,1,0,0:0:0:77:E7S_s.wav
320,192,24204,1,0,0:0:0:59:E7S_s.wav
192,192,24298,1,0,0:0:0:59:C#7S_Db7S_s.wav
448,192,24392,1,0,0:0:0:59:A#6S_Bb6S_s.wav
64,192,24485,1,0,0:0:0:59:A6S_s.wav
320,192,24579,1,0,0:0:0:59:D6S_s.wav
448,192,24673,1,0,0:0:0:59:A#5S_Bb5S_s.wav
64,192,24767,1,8,0:0:0:0:
192,192,24767,1,0,0:0:0:66:A3S_s.wav
320,192,24954,1,0,0:0:0:67:C#6S_Db6S_s.wav
448,192,24954,1,0,0:0:0:75:F6S_s.wav
320,192,25142,1,2,2:0:0:0:
448,192,25142,1,0,0:0:0:68:C#6S_Db6S_s.wav
192,192,25329,1,0,0:0:0:67:C#6S_Db6S_s.wav
448,192,25329,1,0,0:0:0:78:E6S_s.wav
64,192,25517,1,6,0:0:0:0:
448,192,25517,1,0,0:0:0:71:A5S.wav
320,192,25704,1,0,0:0:0:0:
192,192,25798,1,0,0:0:0:0:
448,192,25892,1,0,0:0:0:68:F6S_s.wav
320,192,26079,1,0,0:0:0:59:E7S_s.wav
192,192,26173,1,0,0:0:0:59:D7S_s.wav
64,192,26267,1,8,0:0:0:0:
320,192,26267,1,0,0:0:0:66:C#4S_Db4S_s.wav
448,192,26454,1,0,0:0:0:59:A6S_s.wav
192,192,26548,1,0,0:0:0:59:G6S_s.wav
448,192,26642,1,0,0:0:0:69:A6S_s.wav
64,192,26735,1,0,0:0:0:0:
320,192,26829,1,0,0:0:0:62:E6S_s.wav
448,192,26923,1,0,0:0:0:62:C#6S_Db6S_s.wav
64,192,27017,1,6,0:0:0:0:
192,192,27017,1,0,0:0:0:57:A6S_s.wav
320,192,27204,1,0,0:0:0:64:A6S_s.wav
448,192,27298,1,0,0:0:0:65:D7S_s.wav
320,192,27392,1,0,0:0:0:66:A7S_s.wav
192,192,27485,1,0,0:0:0:66:D7S_s.wav
320,192,27579,1,0,0:0:0:67:C8S_s.wav
448,192,27673,1,0,0:0:0:68:A#7S_Bb7S_s.wav
64,192,27767,1,8,0:0:0:0:
192,192,27767,1,0,0:0:0:65:D#7S_Eb7S_s.wav
192,192,27954,1,0,0:0:0:62:D7S_s.wav
320,192,27954,1,0,0:0:0:74:D8S_s.wav
64,192,28142,1,2,2:0:0:0:
448,192,28142,1,0,0:0:0:63:C7S_s.wav
192,192,28329,1,0,0:0:0:62:A#6S_Bb6S_s.wav
448,192,28329,1,0,0:0:0:74:A#7S_Bb7S_s.wav
64,192,28517,1,6,0:0:0:0:
192,192,28517,1,0,0:0:0:70:A6S_s.wav
448,192,28704,1,0,0:0:0:59:G7S_s.wav
320,192,28798,1,0,0:0:0:59:D7S_s.wav
192,192,28892,1,0,0:0:0:59:A#6S_Bb6S_s.wav
320,192,28985,1,0,0:0:0:59:A6S_s.wav
192,192,29079,1,0,0:0:0:59:G6S_s.wav
64,192,29173,1,0,0:0:0:59:D6S_s.wav
192,192,29267,1,8,0:0:0:0:
448,192,29267,1,0,0:0:0:70:A6S_s.wav
320,192,29454,1,0,0:0:0:59:G7S_s.wav
192,192,29548,1,0,0:0:0:59:D#7S_Eb7S_s.wav
64,192,29642,1,0,0:0:0:59:D7S_s.wav
192,192,29735,1,0,0:0:0:59:A#6S_Bb6S_s.wav
320,192,29829,1,0,0:0:0:59:A6S_s.wav
192,192,29923,1,0,0:0:0:59:G6S_s.wav
320,192,30017,1,6,0:0:0:0:
448,192,30017,128,0,32267:0:0:0:66:D#7S_Eb7S_s.wav
192,192,30204,1,0,0:0:0:48:G5S_s.wav
64,192,30392,1,0,0:0:0:48:D6S_s.wav
192,192,30579,1,0,0:0:0:48:D#7S_Eb7S_s.wav
320,192,30673,1,0,0:0:0:48:A7S_s.wav
192,192,30767,1,0,0:0:0:47:G7S_s.wav
64,192,30954,1,0,0:0:0:46:D7S_s.wav
192,192,31048,1,0,0:0:0:45:A#6S_Bb6S_s.wav
320,192,31142,1,0,0:0:0:45:A6S_s.wav
192,192,31235,1,0,0:0:0:44:G6S_s.wav
64,192,31329,1,0,0:0:0:44:D#6S_Eb6S_s.wav
320,192,31423,1,0,0:0:0:44:A5S_s.wav
192,192,31517,1,0,0:0:0:43:A#6S_Bb6S_s.wav
64,192,31610,1,0,0:0:0:43:F7S_s.wav
192,192,31704,1,0,0:0:0:42:A6S_s.wav
320,192,31798,1,0,0:0:0:42:D#7S_Eb7S_s.wav
64,192,31892,1,0,0:0:0:41:G6S_s.wav
192,192,31985,1,0,0:0:0:40:D7S_s.wav
320,192,32079,1,0,0:0:0:40:F6S_s.wav
192,192,32173,1,0,0:0:0:40:C7S_s.wav
64,192,32267,1,0,0:0:0:40:A6S_s.wav
320,192,32454,1,0,0:0:0:38:G6S_s.wav
64,192,32642,1,0,0:0:0:39:F6S_s.wav
192,192,32829,1,0,0:0:0:38:G6S_s.wav
64,192,33017,1,4,0:0:0:0:
320,192,33017,1,0,0:0:0:40:A5S.wav
448,192,33392,1,0,0:0:0:33:A6S_s.wav
192,192,33767,1,0,0:0:0:34:F6S_s.wav
320,192,33767,1,0,0:0:0:45:E7S_s.wav
448,192,33954,1,0,0:0:0:38:D7S_s.wav
192,192,34142,1,0,0:0:0:39:A6S_s.wav
64,192,34329,1,0,0:0:0:38:G6S_s.wav
320,192,34517,1,0,0:0:0:36:C6S.wav
448,192,34517,1,0,0:0:0:47:A6S.wav
192,192,34892,1,0,0:0:0:39:F6S_s.wav
64,192,35079,1,0,0:0:0:38:G6S_s.wav
320,192,35267,1,0,0:0:0:34:F#6S_Gb6S_s.wav
448,192,35267,1,0,0:0:0:45:A6S_s.wav
192,192,35454,1,0,0:0:0:38:C6S_s.wav
448,192,35642,1,0,0:0:0:33:A6S_s.wav
192,192,35829,1,0,0:0:0:38:F#6S_Gb6S_s.wav
64,192,36017,1,0,0:0:0:36:G6S.wav
320,192,36017,1,0,0:0:0:47:C7S.wav
448,192,36204,1,0,0:0:0:30:D5S_s.wav
192,192,36392,1,0,0:0:0:31:A#5S_Bb5S_s.wav
320,192,36392,1,0,0:0:0:39:A#6S_Bb6S_s.wav
64,192,36579,1,0,0:0:0:30:D6S_s.wav
64,192,36767,1,0,0:0:0:34:A6S_s.wav
448,192,36767,1,0,0:0:0:45:A7S_s.wav
448,192,37142,1,0,0:0:0:33:A6S_s.wav
64,192,37329,1,0,0:0:0:30:A5S_s.wav
64,192,37517,1,0,0:0:0:36:G#6S_Ab6S.wav
448,192,37517,1,0,0:0:0:47:E7S.wav
320,192,37704,1,0,0:0:0:30:G#5S_Ab5S_s.wav
192,192,37892,1,0,0:0:0:31:D6S_s.wav
64,192,38079,1,0,0:0:0:38:E7S_s.wav
192,192,38142,1,0,0:0:0:0:
320,192,38204,1,0,0:0:0:0:
192,192,38267,1,0,0:0:0:40:A4S_s.wav
448,192,38267,1,0,0:0:0:40:D7S_s.wav
64,192,38454,1,0,0:0:0:30:E5S_s.wav
320,192,38642,1,0,0:0:0:31:G5S_s.wav
448,192,38642,1,0,0:0:0:39:C#7S_Db7S_s.wav
64,192,39017,1,0,0:0:0:36:F6S.wav
192,192,39017,128,0,39392:0:0:0:47:D7S.wav
64,192,39392,1,0,0:0:0:36:A6S_s.wav
320,192,39392,128,0,39767:0:0:0:47:F7S_s.wav
192,192,39767,128,0,39954:0:0:0:41:D#6S_Eb6S_s.wav
448,192,39767,1,0,0:0:0:52:D#7S_Eb7S_s.wav
320,192,39954,1,0,0:0:0:44:D6S_s.wav
320,192,40142,128,0,40329:0:0:0:47:F#6S_Gb6S_s.wav
448,192,40142,1,0,0:0:0:58:F#7S_Gb7S_s.wav
192,192,40329,1,0,0:0:0:49:A6S_s.wav
320,192,40517,1,0,0:0:0:56:E7S.wav
448,192,40517,128,0,40704:0:0:0:67:C8S.wav
64,192,40892,1,0,0:0:0:52:E7S_s.wav
192,192,40892,128,0,41079:0:0:0:63:A#7S_Bb7S_s.wav
64,192,41267,1,0,0:0:0:51:E7S_s.wav
448,192,41267,128,0,41454:0:0:0:62:A7S_s.wav
64,192,41642,1,0,0:0:0:48:D7S_s.wav
320,192,41735,1,0,0:0:0:0:
64,192,41829,1,0,0:0:0:54:F7S_s.wav
320,192,41923,1,0,0:0:0:0:
192,192,42017,1,0,0:0:0:47:G#6S_Ab6S.wav
448,192,42017,1,0,0:0:0:58:E7S.wav
320,192,42204,1,0,0:0:0:42:B4S_s.wav
192,192,42392,1,0,0:0:0:41:E5S_s.wav
64,192,42579,1,0,0:0:0:50:E7S_s.wav
192,192,42673,1,0,0:0:0:0:
320,192,42767,1,0,0:0:0:44:G6S_s.wav
448,192,42767,1,0,0:0:0:55:D7S_s.wav
192,192,42860,1,0,0:0:0:0:
448,192,42954,1,0,0:0:0:0:
320,192,43048,1,0,0:0:0:0:
64,192,43142,1,0,0:0:0:43:G6S_s.wav
448,192,43142,1,0,0:0:0:54:C#7S_Db7S_s.wav
320,192,43188,1,0,0:0:0:0:
192,192,43235,1,0,0:0:0:0:
64,192,43282,1,0,0:0:0:0:
320,192,43329,1,0,0:0:0:0:
448,192,43376,1,0,0:0:0:0:
64,192,43423,1,0,0:0:0:0:
192,192,43470,1,0,0:0:0:0:
320,192,43517,128,6,44267:0:0:0:0:
448,192,43517,1,0,0:0:0:46:A5S.wav
192,192,43704,1,0,0:0:0:40:A4S_s.wav
192,192,43892,1,0,0:0:0:40:D5S_s.wav
192,192,44079,1,0,0:0:0:40:A4S_s.wav
64,192,44267,1,8,0:0:0:0:
448,192,44267,128,0,44829:0:0:0:44:E6S.wav
64,192,44454,1,0,0:0:0:40:G4S_s.wav
64,192,44642,1,0,0:0:0:40:E5S_s.wav
192,192,44829,1,0,0:0:0:42:A#5S_Bb5S_s.wav
320,192,44829,128,0,45017:0:0:0:59:A#6S_Bb6S_s.wav
64,192,45017,1,2,0:0:0:0:
448,192,45017,128,0,45767:0:0:0:43:C6S.wav
64,192,45204,1,0,0:0:0:42:F4S_s.wav
64,192,45392,1,0,0:0:0:43:D5S_s.wav
64,192,45579,1,0,0:0:0:44:F4S_s.wav
320,192,45579,1,0,0:0:0:0:
192,192,45767,1,8,0:0:0:0:
320,192,45767,128,0,46142:0:0:0:48:G6S_s.wav
192,192,45954,1,0,0:0:0:47:G4S_s.wav
192,192,46142,1,0,0:0:0:50:F5S_s.wav
448,192,46142,128,0,46329:0:0:0:67:F6S_s.wav
64,192,46329,1,0,0:0:0:49:G4S_s.wav
64,192,46517,128,2,46704:0:0:0:0:
448,192,46517,1,0,0:0:0:52:F6S.wav
320,192,46704,1,0,0:0:0:51:A#4S_Bb4S_s.wav
64,192,46892,1,0,0:0:0:52:D5S_s.wav
192,192,46892,128,0,47079:0:0:0:67:A6S_s.wav
320,192,47079,1,0,0:0:0:54:F5S_s.wav
448,192,47079,1,0,0:0:0:0:
192,192,47267,1,8,0:0:0:0:
448,192,47267,128,0,47454:0:0:0:57:C6S_s.wav
192,192,47642,128,0,47829:0:0:0:59:A#5S_Bb5S_s.wav
320,192,47642,1,0,0:0:0:77:F6S_s.wav
64,192,48017,128,2,48392:0:0:0:0:
448,192,48017,1,0,0:0:0:62:E6S_s.wav
192,192,48204,128,0,48485:0:0:0:38:C4S_s.wav
320,192,48298,128,0,48579:0:0:0:44:F6S_s.wav
448,192,48392,128,0,48673:0:0:0:39:A4S_s.wav
64,192,48485,128,0,48579:0:0:0:47:C6S_s.wav
192,192,48579,128,0,48673:0:0:0:38:C4S_s.wav
320,192,48673,128,0,48767:0:0:0:50:F5S_s.wav
448,192,48767,128,8,49048:0:0:0:0:
320,192,48954,128,0,49142:0:0:0:38:E4S_s.wav
192,192,49048,128,0,49423:0:0:0:56:D6S_s.wav
64,192,49142,128,0,49423:0:0:0:39:A3S_s.wav
320,192,49329,128,0,49517:0:0:0:38:A4S_s.wav
448,192,49423,128,0,49517:0:0:0:62:A6S_s.wav
64,192,49517,1,2,0:0:0:0:
192,192,49517,1,0,0:0:0:56:A5S.wav
320,192,49704,1,0,0:0:0:48:A4S_s.wav
64,192,49892,1,0,0:0:0:49:D5S_s.wav
320,192,50079,1,0,0:0:0:48:A4S_s.wav
192,192,50267,1,8,0:0:0:0:
448,192,50267,1,0,0:0:0:55:E6S.wav
64,192,50454,1,0,0:0:0:48:G4S_s.wav
192,192,50642,1,0,0:0:0:49:E5S_s.wav
320,192,50829,1,0,0:0:0:52:A#5S_Bb5S_s.wav
448,192,50829,1,0,0:0:0:63:A#6S_Bb6S_s.wav
64,192,51017,1,2,0:0:0:0:
448,192,51017,1,0,0:0:0:56:D6S.wav
192,192,51204,1,0,0:0:0:48:F4S_s.wav
320,192,51392,1,0,0:0:0:53:F6S_s.wav
448,192,51392,1,0,0:0:0:64:F7S_s.wav
192,192,51579,1,0,0:0:0:48:F4S_s.wav
64,192,51767,128,8,52142:0:0:0:0:
320,192,51767,1,0,0:0:0:55:E6S_s.wav
192,192,52142,128,0,52517:0:0:0:53:D6S_s.wav
320,192,52142,1,0,0:0:0:64:D7S_s.wav
64,192,52517,1,2,0:0:0:0:
448,192,52517,1,0,0:0:0:56:F6S.wav
320,192,52704,1,0,0:0:0:49:A#4S_Bb4S_s.wav
64,192,52892,1,0,0:0:0:54:D6S_s.wav
192,192,52892,1,0,0:0:0:65:A#6S_Bb6S_s.wav
64,192,53079,1,0,0:0:0:54:F5S_s.wav
320,192,53267,1,8,0:0:0:0:
448,192,53267,1,0,0:0:0:57:E6S_s.wav
192,192,53548,1,0,0:0:0:0:
64,192,53642,1,0,0:0:0:59:G5S_s.wav
448,192,53642,1,0,0:0:0:70:C#6S_Db6S_s.wav
192,192,54017,1,2,0:0:0:0:
448,192,54017,1,0,0:0:0:66:A5S.wav
448,192,54204,128,0,54392:0:0:0:0:
64,192,54392,1,2,0:0:0:0:
320,192,54392,128,0,54579:0:0:0:59:C6S_s.wav
64,192,54579,1,2,0:0:0:0:
192,192,54579,128,0,54860:0:0:0:59:A#5S_Bb5S_s.wav
320,192,54767,128,8,54860:0:0:0:0:
448,192,54767,128,0,54860:0:0:0:61:G5S_s.wav
192,192,54954,1,2,0:0:0:0:
320,192,54954,1,0,0:0:0:0:
64,192,55048,1,2,0:0:0:0:
448,192,55048,1,0,0:0:0:0:
64,192,55142,128,8,55423:0:0:0:0:
192,192,55142,128,0,55423:0:0:0:59:E6S_s.wav
448,192,55329,1,2,0:0:0:0:
64,192,55517,1,6,0:0:0:0:
192,192,55517,128,0,56267:0:0:0:46:A5S.wav
448,192,55517,1,0,0:0:0:64:D6S.wav
320,192,55704,1,0,0:0:0:32:A4S_s.wav
448,192,55892,1,0,0:0:0:33:D5S_s.wav
320,192,56079,1,0,0:0:0:32:A4S_s.wav
64,192,56267,128,8,56829:0:0:0:0:
448,192,56267,1,0,0:0:0:44:E6S.wav
320,192,56642,1,0,0:0:0:33:E5S_s.wav
448,192,56829,128,0,57017:0:0:0:42:A#5S_Bb5S_s.wav
64,192,57017,128,2,57767:0:0:0:0:
320,192,57017,1,0,0:0:0:43:C6S.wav
448,192,57204,1,0,0:0:0:34:F4S_s.wav
448,192,57392,1,0,0:0:0:35:D5S_s.wav
320,192,57579,128,0,57767:0:0:0:37:F4S_s.wav
192,192,57767,128,8,58142:0:0:0:0:
448,192,57767,1,0,0:0:0:48:G6S_s.wav
64,192,58142,1,0,0:0:0:50:F5S_s.wav
320,192,58142,128,0,58517:0:0:0:68:F6S_s.wav
64,192,58517,1,2,0:0:0:0:
448,192,58517,128,0,58704:0:0:0:59:G3S_s.wav
192,192,58704,1,0,0:0:0:44:A#4S_Bb4S_s.wav
320,192,58892,128,0,59079:0:0:0:44:D5S_s.wav
448,192,58892,1,0,0:0:0:68:A6S_s.wav
64,192,59079,1,0,0:0:0:46:F5S_s.wav
192,192,59079,1,0,0:0:0:0:
64,192,59267,128,8,59454:0:0:0:0:
320,192,59267,1,0,0:0:0:57:C6S_s.wav
320,192,59642,128,0,59829:0:0:0:59:A#5S_Bb5S_s.wav
448,192,59642,1,0,0:0:0:77:F6S_s.wav
64,192,60017,1,2,0:0:0:0:
448,192,60017,128,0,60392:0:0:0:62:E6S_s.wav
320,192,60204,128,0,60485:0:0:0:38:C4S_s.wav
192,192,60298,128,0,60579:0:0:0:49:F6S_s.wav
64,192,60392,128,0,60673:0:0:0:39:A4S_s.wav
448,192,60485,128,0,60579:0:0:0:52:C6S_s.wav
320,192,60579,128,0,60673:0:0:0:38:C4S_s.wav
192,192,60673,128,0,60767:0:0:0:55:F5S_s.wav
64,192,60767,128,8,61048:0:0:0:0:
192,192,60954,128,0,61142:0:0:0:38:E4S_s.wav
320,192,61048,128,0,61423:0:0:0:62:D6S_s.wav
448,192,61142,128,0,61423:0:0:0:39:A3S_s.wav
192,192,61329,128,0,61517:0:0:0:38:A4S_s.wav
64,192,61423,128,0,61517:0:0:0:68:A6S_s.wav
320,192,61517,1,2,0:0:0:0:
448,192,61517,1,0,0:0:0:56:A5S.wav
192,192,61704,1,0,0:0:0:50:A4S_s.wav
448,192,61892,1,0,0:0:0:51:D5S_s.wav
192,192,62079,1,0,0:0:0:50:A4S_s.wav
64,192,62267,1,8,0:0:0:0:
320,192,62267,1,0,0:0:0:55:E6S.wav
320,192,62642,1,0,0:0:0:51:E5S_s.wav
192,192,62829,1,0,0:0:0:52:A#5S_Bb5S_s.wav
448,192,62829,1,0,0:0:0:72:A#6S_Bb6S_s.wav
64,192,63017,1,2,0:0:0:0:
448,192,63017,1,0,0:0:0:56:D6S.wav
320,192,63204,1,0,0:0:0:50:F4S_s.wav
64,192,63392,128,0,63954:0:0:0:53:F6S_s.wav
192,192,63392,1,0,0:0:0:73:F7S_s.wav
320,192,63579,1,0,0:0:0:50:F4S_s.wav
192,192,63767,1,8,0:0:0:0:
448,192,63767,128,0,63954:0:0:0:55:E6S_s.wav
192,192,64142,1,0,0:0:0:53:D6S_s.wav
320,192,64142,128,0,64517:0:0:0:73:D7S_s.wav
64,192,64517,1,2,0:0:0:0:
448,192,64517,1,0,0:0:0:56:F6S.wav
192,192,64704,1,0,0:0:0:51:A#4S_Bb4S_s.wav
64,192,64892,1,0,0:0:0:54:D6S_s.wav
320,192,64892,1,0,0:0:0:74:A#6S_Bb6S_s.wav
448,192,65079,1,0,0:0:0:55:F5S_s.wav
64,192,65267,1,8,0:0:0:0:
192,192,65267,1,0,0:0:0:57:E6S_s.wav
64,192,65642,1,0,0:0:0:59:G5S_s.wav
448,192,65642,1,0,0:0:0:79:C#6S_Db6S_s.wav
64,192,66017,1,6,0:0:0:0:
320,192,66017,1,0,0:0:0:71:A5S_s.wav
448,192,66017,1,0,0:0:0:82:D6S_s.wav
192,192,66204,1,0,0:0:0:52:D6S_s.wav
64,192,66392,1,2,0:0:0:0:
448,192,66392,1,0,0:0:0:53:D6S_s.wav
320,192,66579,1,0,0:0:0:52:D6S_s.wav
448,192,66579,1,0,0:0:0:63:G6S_s.wav
64,192,66767,1,2,0:0:0:0:
192,192,66767,1,0,0:0:0:67:A6S_s.wav
192,192,66954,1,0,0:0:0:51:A4S_s.wav
64,192,67142,1,2,0:0:0:0:
448,192,67142,1,0,0:0:0:51:E5S_s.wav
320,192,67329,1,0,0:0:0:44:C6S_s.wav
448,192,67329,1,0,0:0:0:55:G6S_s.wav
64,192,67517,1,2,0:0:0:0:
192,192,67517,1,0,0:0:0:44:A6S.wav
192,192,67704,1,0,0:0:0:54:F4S_s.wav
64,192,67892,1,2,0:0:0:0:
320,192,67892,1,0,0:0:0:72:E6S_s.wav
320,192,68079,1,0,0:0:0:55:F5S_s.wav
448,192,68079,1,0,0:0:0:0:
64,192,68267,1,2,0:0:0:0:
192,192,68267,1,0,0:0:0:74:F6S_s.wav
320,192,68454,1,0,0:0:0:48:D6S_s.wav
64,192,68642,1,2,0:0:0:0:
448,192,68642,1,0,0:0:0:75:F6S_s.wav
64,192,68829,1,0,0:0:0:59:C#5S_Db5S_s.wav
192,192,68829,1,0,0:0:0:56:G6S_s.wav
64,192,69017,1,2,0:0:0:0:
320,192,69017,1,0,0:0:0:84:A6S_s.wav
448,192,69017,1,0,0:0:0:95:D7S_s.wav
448,192,69204,1,2,0:0:0:0:
448,192,69392,1,2,0:0:0:0:
64,192,69579,1,2,0:0:0:0:
320,192,69579,1,0,0:0:0:52:D6S_s.wav
448,192,69579,1,0,0:0:0:63:G6S_s.wav
192,192,69767,1,2,0:0:0:0:
448,192,69767,1,0,0:0:0:82:A6S_s.wav
448,192,69954,1,2,0:0:0:0:
448,192,70142,1,2,0:0:0:0:
320,192,70329,1,2,0:0:0:0:
448,192,70329,1,0,0:0:0:57:C6S_s.wav
192,192,70517,1,2,0:0:0:0:
448,192,70517,1,0,0:0:0:54:D6S_s.wav
320,192,70610,1,2,0:0:0:0:
64,192,70704,1,2,0:0:0:0:
192,192,70704,1,0,0:0:0:51:F6S_s.wav
320,192,70798,1,2,0:0:0:0:
64,192,70892,1,2,0:0:0:0:
448,192,70892,1,0,0:0:0:48:E6S_s.wav
192,192,70985,1,2,0:0:0:0:
320,192,71079,1,2,0:0:0:0:
448,192,71079,1,0,0:0:0:45:D6S_s.wav
192,192,71173,1,2,0:0:0:0:
320,192,71267,1,2,0:0:0:0:
448,192,71267,1,0,0:0:0:44:G6S_s.wav
64,192,71360,1,2,0:0:0:0:
192,192,71360,1,0,0:0:0:0:
320,192,71454,1,2,0:0:0:0:
448,192,71454,1,0,0:0:0:40:E4S_s.wav
192,192,71548,1,2,0:0:0:0:
64,192,71642,1,8,0:0:0:0:
320,192,71642,1,0,0:0:0:40:A4S_s.wav
448,192,71642,1,0,0:0:0:49:F6S_s.wav
64,192,72017,1,6,0:0:0:0:
320,192,72017,1,0,0:0:0:69:A#4S_Bb4S.wav
448,192,72017,128,0,72110:0:0:0:80:A#5S_Bb5S.wav
192,192,72110,128,0,72204:0:0:0:0:
320,192,72204,128,0,72298:0:0:0:52:F#7S_Gb7S_s.wav
192,192,72298,128,0,72392:0:0:0:52:D7S_s.wav
64,192,72392,128,0,72485:0:0:0:60:A#6S_Bb6S_s.wav
320,192,72485,128,0,72579:0:0:0:60:A6S_s.wav
448,192,72579,128,0,72673:0:0:0:63:G6S_s.wav
320,192,72673,128,0,72767:0:0:0:61:F#6S_Gb6S_s.wav
64,192,72767,128,8,72860:0:0:0:0:
192,192,72767,1,0,0:0:0:68:A5S_s.wav
448,192,72860,128,0,72954:0:0:0:62:D6S_s.wav
192,192,72954,128,0,73048:0:0:0:62:A5S_s.wav
320,192,73048,128,0,73142:0:0:0:62:G5S_s.wav
64,192,73142,128,0,73235:0:0:0:74:G4S_s.wav
320,192,73235,128,0,73329:0:0:0:62:D6S_s.wav
192,192,73329,128,0,73423:0:0:0:63:G6S_s.wav
448,192,73423,128,0,73517:0:0:0:63:D7S_s.wav
64,192,73517,128,6,73704:0:0:0:0:
320,192,73517,1,0,0:0:0:70:F4S.wav
192,192,73704,128,0,73892:0:0:0:64:F7S_s.wav
448,192,73892,128,0,74079:0:0:0:81:A5S_s.wav
192,192,74079,128,0,74267:0:0:0:66:F6S_s.wav
64,192,74267,128,8,74360:0:0:0:0:
448,192,74267,1,0,0:0:0:83:E6S_s.wav
192,192,74360,128,0,74454:0:0:0:66:C#7S_Db7S_s.wav
320,192,74454,128,0,74548:0:0:0:67:E7S_s.wav
192,192,74548,128,0,74642:0:0:0:67:G6S_s.wav
64,192,74642,1,4,0:0:0:0:
448,192,74642,128,0,74735:0:0:0:80:D5S_s.wav
320,192,74735,128,0,74829:0:0:0:68:A6S_s.wav
192,192,74829,128,0,74923:0:0:0:69:F6S_s.wav
320,192,74923,128,0,75017:0:0:0:69:D7S_s.wav
64,192,75017,1,6,0:0:0:0:
448,192,75017,1,0,0:0:0:77:G5S_s.wav
320,192,75767,1,0,0:0:0:75:A7S_s.wav
64,192,76048,128,0,77079:0:0:0:48:A#6S_Bb6S_s.wav
448,192,76142,128,0,76798:0:0:0:49:A6S_s.wav
192,192,76517,128,0,76985:0:0:0:52:D7S_s.wav
320,192,76517,128,0,76892:0:0:0:0:
448,192,76892,128,0,77079:0:0:0:44:G8S_s.wav
320,192,76985,128,0,77173:0:0:0:44:D#8S_Eb8S_s.wav
192,192,77079,128,0,77267:0:0:0:42:D8S_s.wav
64,192,77173,128,0,77360:0:0:0:41:A#7S_Bb7S_s.wav
448,192,77267,128,0,77360:0:0:0:40:A7S_s.wav
320,192,77360,128,0,77454:0:0:0:38:A#6S_Bb6S_s.wav
192,192,77454,128,0,77548:0:0:0:38:G6S_s.wav
64,192,77548,128,0,77642:0:0:0:38:D#7S_Eb7S_s.wav
448,192,77642,1,0,0:0:0:39:A#6S_Bb6S_s.wav
320,192,77735,1,0,0:0:0:38:A6S_s.wav
192,192,77829,1,0,0:0:0:38:G6S_s.wav
64,192,77923,1,0,0:0:0:38:D6S_s.wav
192,192,78017,1,2,0:0:0:0:
448,192,78017,128,0,78673:0:0:0:66:A4S.wav
64,192,78392,128,0,78673:0:0:0:66:D2S_s.wav
192,192,78392,1,0,0:0:0:0:
64,192,78767,1,12,0:0:0:0:
192,192,78767,1,0,0:0:0:65:D5S_s.wav
448,192,78767,1,0,0:0:0:76:D6S_s.wav
192,192,79142,1,0,0:0:0:66:D2S_s.wav
320,192,79142,1,0,0:0:0:70:D5S_s.wav
320,192,79329,1,0,0:0:0:62:A4S_s.wav
448,192,79329,1,0,0:0:0:70:D5S_s.wav
192,192,79423,1,0,0:0:0:62:A4S_s.wav
320,192,79423,1,0,0:0:0:70:D5S_s.wav
64,192,79517,1,2,0:0:0:0:
320,192,79610,1,0,0:0:0:62:A4S_s.wav
192,192,79704,1,0,0:0:0:62:A4S_s.wav
448,192,79704,1,0,0:0:0:74:D5S_s.wav
192,192,79892,128,8,80267:0:0:0:0:
320,192,79892,128,0,80267:0:0:0:81:A4S_s.wav
64,192,80079,1,0,0:0:0:66:A2S_s.wav
64,192,80267,128,8,81017:0:0:0:0:
448,192,80267,128,0,80454:0:0:0:82:G#4S_Ab4S_s.wav
320,192,80454,1,2,0:0:0:0:
192,192,80548,1,0,0:0:0:0:
320,192,80642,1,10,1:0:0:0:
448,192,80642,128,0,81017:0:0:0:81:D#4S_Eb4S_s.wav
192,192,81017,128,2,81204:0:0:0:0:
320,192,81204,128,0,81392:0:0:0:69:D5S_s.wav
192,192,81392,128,0,81767:0:0:0:66:D2S_s.wav
448,192,81392,128,0,81767:0:0:0:70:D5S_s.wav
64,192,81767,1,12,0:0:0:0:
320,192,81767,1,0,0:0:0:65:F4S_s.wav
192,192,81954,1,0,0:0:0:62:C5S_s.wav
448,192,81954,1,0,0:0:0:74:D#5S_Eb5S_s.wav
320,192,82048,1,2,0:0:0:0:
64,192,82142,1,0,0:0:0:70:D5S_s.wav
192,192,82142,1,0,0:0:0:0:
320,192,82235,1,0,0:0:0:0:
192,192,82329,1,2,0:0:0:0:
448,192,82329,1,0,0:0:0:80:D7S_s.wav
64,192,82517,1,0,0:0:0:0:
192,192,82517,1,0,0:0:0:0:
64,192,82610,1,0,0:0:0:69:D5S_s.wav
192,192,82704,1,8,0:0:0:0:
448,192,82704,1,0,0:0:0:62:A#4S_Bb4S_s.wav
320,192,82892,1,2,0:0:0:0:
64,192,83079,1,2,0:0:0:0:
448,192,83079,1,0,0:0:0:65:D2S_s.wav
320,192,83173,1,2,0:0:0:0:
192,192,83267,1,8,0:0:0:0:
448,192,83267,1,0,0:0:0:82:A#4S_Bb4S_s.wav
64,192,83454,1,2,0:0:0:0:
192,192,83548,1,8,0:0:0:0:
448,192,83548,1,0,0:0:0:80:C5S_s.wav
320,192,83642,1,2,0:0:0:0:
192,192,83735,1,2,0:0:0:0:
64,192,83829,1,8,0:0:0:0:
320,192,83829,1,0,0:0:0:80:F#4S_Gb4S_s.wav
192,192,84017,128,2,84204:0:0:0:0:
320,192,84017,128,0,84204:0:0:0:84:F4S_s.wav
64,192,84298,128,8,84485:0:0:0:0:
192,192,84298,128,0,84485:0:0:0:80:F4S_s.wav
448,192,84485,1,0,0:0:0:0:
64,192,84579,128,2,84767:0:0:0:0:
448,192,84579,128,0,84767:0:0:0:80:C5S_s.wav
192,192,84767,1,6,0:0:0:0:
320,192,84767,1,0,0:0:0:100:A4S_s.wav
64,192,84860,1,0,0:0:0:62:A4S_s.wav
192,192,84954,1,0,0:0:0:62:A4S_s.wav
448,192,84954,1,0,0:0:0:70:D5S_s.wav
320,192,85142,1,0,0:0:0:66:D2S_s.wav
192,192,85329,1,0,0:0:0:62:A4S_s.wav
448,192,85329,1,0,0:0:0:70:D5S_s.wav
64,192,85423,1,0,0:0:0:62:A4S_s.wav
192,192,85423,1,0,0:0:0:70:D5S_s.wav
320,192,85517,1,2,0:0:0:0:
64,192,85610,1,0,0:0:0:62:A4S_s.wav
448,192,85610,1,0,0:0:0:70:D5S_s.wav
192,192,85704,1,2,0:0:0:0:
448,192,85704,1,0,0:0:0:62:A4S_s.wav
64,192,85798,1,2,0:0:0:0:
320,192,85798,1,0,0:0:0:68:D3S_s.wav
192,192,85892,1,8,0:0:0:0:
448,192,85892,1,0,0:0:0:81:A4S_s.wav
64,192,86079,1,2,0:0:0:0:
448,192,86079,1,0,0:0:0:66:A2S_s.wav
192,192,86173,1,2,0:0:0:0:
320,192,86173,1,0,0:0:0:0:
320,192,86267,1,8,0:0:0:0:
448,192,86267,1,0,0:0:0:82:G#4S_Ab4S_s.wav
64,192,86360,1,2,0:0:0:0:
192,192,86360,1,0,0:0:0:0:
320,192,86454,1,2,0:0:0:0:
448,192,86454,1,0,0:0:0:66:G#2S_Ab2S_s.wav
64,192,86548,1,2,0:0:0:0:
192,192,86548,1,0,0:0:0:0:
64,192,86642,128,10,87017:0:0:0:0:
320,192,86642,128,0,87017:0:0:0:81:D#4S_Eb4S_s.wav
448,192,86642,1,0,0:0:0:92:D#5S_Eb5S_s.wav
448,192,87017,128,2,87392:0:0:0:0:
64,192,87204,128,0,87392:0:0:0:69:D5S_s.wav
192,192,87392,128,2,87485:0:0:0:0:
320,192,87392,128,0,87485:0:0:0:66:D2S_s.wav
192,192,87579,1,2,0:0:0:0:
320,192,87579,1,0,0:0:0:62:A4S_s.wav
192,192,87673,1,2,0:0:0:0:
320,192,87673,1,0,0:0:0:62:A4S_s.wav
64,192,87767,128,8,87954:0:0:0:0:
448,192,87767,1,0,0:0:0:65:A4S_s.wav
192,192,87954,128,2,88142:0:0:0:0:
448,192,87954,128,0,88142:0:0:0:80:E6S_s.wav
320,192,88329,128,0,88517:0:0:0:62:D5S_s.wav
192,192,88517,1,2,0:0:0:0:
64,192,88704,128,8,89079:0:0:0:0:
448,192,88704,128,0,89079:0:0:0:80:A5S_s.wav
192,192,88892,1,2,0:0:0:0:
320,192,89079,1,2,0:0:0:0:
320,192,89173,1,2,0:0:0:0:
192,192,89267,128,8,89360:0:0:0:0:
448,192,89267,128,0,89360:0:0:0:82:C#6S_Db6S_s.wav
192,192,89454,128,2,89548:0:0:0:0:
448,192,89454,128,0,89548:0:0:0:80:C#6S_Db6S_s.wav
320,192,89548,1,0,0:0:0:0:
64,192,89642,1,8,0:0:0:0:
192,192,89642,128,0,90017:0:0:0:81:C#6S_Db6S_s.wav
64,192,89829,1,2,0:0:0:0:
64,192,90017,128,2,90673:0:0:0:0:
448,192,90017,1,0,0:0:0:66:A4S.wav
320,192,90392,1,2,0:0:0:0:
448,192,90392,128,0,90673:0:0:0:66:D2S_s.wav
64,192,90767,1,12,0:0:0:0:
320,192,90767,1,0,0:0:0:64:D3S_s.wav
448,192,90767,1,0,0:0:0:76:D4S_s.wav
192,192,90860,1,0,0:0:0:62:A4S_s.wav
192,192,90954,1,0,0:0:0:62:A4S_s.wav
192,192,91142,1,0,0:0:0:59:D2S_s.wav
448,192,91142,1,0,0:0:0:74:D3S_s.wav
320,192,91235,1,0,0:0:0:62:A5S_s.wav
192,192,91329,1,0,0:0:0:62:A5S_s.wav
448,192,91329,1,0,0:0:0:70:D6S_s.wav
64,192,91423,1,0,0:0:0:62:A5S_s.wav
448,192,91423,1,0,0:0:0:74:D6S_s.wav
192,192,91517,1,2,0:0:0:0:
448,192,91610,1,0,0:0:0:62:A4S_s.wav
64,192,91704,1,2,0:0:0:0:
320,192,91704,1,0,0:0:0:62:A4S_s.wav
448,192,91798,1,2,0:0:0:0:
64,192,91892,128,8,92079:0:0:0:0:
320,192,91892,128,0,92079:0:0:0:81:A4S_s.wav
448,192,92079,1,2,0:0:0:0:
192,192,92173,1,2,0:0:0:0:
320,192,92267,128,8,92454:0:0:0:0:
448,192,92267,128,0,92454:0:0:0:82:D#5S_Eb5S_s.wav
64,192,92360,1,2,0:0:0:0:
192,192,92454,1,2,0:0:0:0:
64,192,92548,1,2,0:0:0:0:
320,192,92642,128,10,93017:1:0:0:0:
448,192,92642,128,0,93017:0:0:0:81:D#4S_Eb4S_s.wav
64,192,93017,1,2,0:0:0:0:
192,192,93017,128,0,93204:0:0:0:66:D3S.wav
320,192,93204,128,0,93392:0:0:0:69:D5S_s.wav
64,192,93392,128,0,93673:0:0:0:66:D2S_s.wav
192,192,93392,128,0,93673:0:0:0:70:D5S_s.wav
320,192,93485,128,0,93767:0:0:0:0:
448,192,93579,128,0,93767:0:0:0:69:A4S_s.wav
64,192,93767,1,8,0:0:0:0:
192,192,93767,1,0,0:0:0:65:F4S_s.wav
448,192,93860,1,0,0:0:0:0:
64,192,93954,1,0,0:0:0:62:C5S_s.wav
320,192,93954,1,0,0:0:0:74:D#5S_Eb5S_s.wav
192,192,94048,1,2,0:0:0:0:
320,192,94142,128,0,94235:0:0:0:70:D5S_s.wav
448,192,94142,1,0,0:0:0:0:
192,192,94235,128,0,94329:0:0:0:0:
64,192,94329,128,2,94517:0:0:0:0:
448,192,94329,1,0,0:0:0:67:D7S_s.wav
320,192,94517,1,0,0:0:0:0:
448,192,94517,1,0,0:0:0:0:
192,192,94610,1,0,0:0:0:0:
64,192,94704,1,8,0:0:0:0:
448,192,94704,1,0,0:0:0:62:F5S_s.wav
192,192,94892,1,2,0:0:0:0:
320,192,94892,1,0,0:0:0:63:A4S_s.wav
320,192,95079,1,2,0:0:0:0:
448,192,95079,1,0,0:0:0:65:D2S_s.wav
192,192,95173,1,2,0:0:0:0:
64,192,95267,1,8,0:0:0:0:
320,192,95267,1,0,0:0:0:82:A#4S_Bb4S_s.wav
192,192,95454,1,2,0:0:0:0:
320,192,95548,1,2,0:0:0:0:
448,192,95548,1,0,0:0:0:80:C5S_s.wav
64,192,95642,1,8,0:0:0:0:
448,192,95735,1,2,0:0:0:0:
192,192,95829,1,2,0:0:0:0:
320,192,95829,1,0,0:0:0:80:F#4S_Gb4S_s.wav
192,192,96017,128,2,96204:0:0:0:0:
320,192,96017,128,0,96204:0:0:0:84:F4S_s.wav
320,192,96298,128,8,96485:0:0:0:0:
448,192,96298,128,0,96485:0:0:0:80:F4S_s.wav
64,192,96485,1,0,0:0:0:0:
64,192,96579,128,2,96767:0:0:0:0:
448,192,96579,128,0,96767:0:0:0:80:C5S_s.wav
192,192,96767,1,6,0:0:0:0:
320,192,96767,1,0,0:0:0:100:A4S_s.wav
64,192,96860,1,0,0:0:0:62:A4S_s.wav
448,192,96860,1,0,0:0:0:70:D5S_s.wav
64,192,96954,1,0,0:0:0:62:A4S_s.wav
448,192,96954,1,0,0:0:0:70:D5S_s.wav
192,192,97142,1,0,0:0:0:70:A3S_s.wav
320,192,97235,1,0,0:0:0:0:
192,192,97329,1,0,0:0:0:62:A4S_s.wav
448,192,97329,1,0,0:0:0:70:D5S_s.wav
64,192,97423,1,0,0:0:0:62:A4S_s.wav
448,192,97423,1,0,0:0:0:70:D5S_s.wav
320,192,97517,1,2,0:0:0:0:
64,192,97610,1,0,0:0:0:62:A4S_s.wav
192,192,97610,1,0,0:0:0:70:D5S_s.wav
64,192,97704,1,2,0:0:0:0:
448,192,97704,1,0,0:0:0:62:A4S_s.wav
192,192,97798,1,2,0:0:0:0:
320,192,97798,1,0,0:0:0:68:D3S_s.wav
64,192,97892,1,8,0:0:0:0:
448,192,97892,1,0,0:0:0:81:A4S_s.wav
64,192,98079,1,2,0:0:0:0:
192,192,98079,1,0,0:0:0:66:A2S_s.wav
64,192,98173,1,2,0:0:0:0:
192,192,98173,1,0,0:0:0:0:
320,192,98267,1,8,0:0:0:0:
448,192,98267,1,0,0:0:0:82:G#4S_Ab4S_s.wav
64,192,98360,1,2,0:0:0:0:
448,192,98360,1,0,0:0:0:0:
192,192,98454,1,2,0:0:0:0:
320,192,98454,1,0,0:0:0:66:G#2S_Ab2S_s.wav
64,192,98548,1,2,0:0:0:0:
192,192,98548,1,0,0:0:0:0:
320,192,98642,1,10,0:0:0:0:
448,192,98642,128,0,99017:0:0:0:81:D#4S_Eb4S_s.wav
64,192,99017,128,2,99673:0:0:0:0:
192,192,99017,1,0,0:0:0:66:D3S.wav
192,192,99392,128,0,99485:0:0:0:66:D2S_s.wav
448,192,99392,128,0,99485:0:0:0:70:D5S_s.wav
192,192,99579,128,0,99673:0:0:0:62:A4S_s.wav
448,192,99579,128,0,99673:0:0:0:70:D5S_s.wav
64,192,99767,1,8,0:0:0:0:
192,192,99767,1,0,0:0:0:65:A4S_s.wav
320,192,99954,128,0,100142:0:0:0:80:A4S_s.wav
448,192,99954,128,0,100142:0:0:0:91:D5S_s.wav
64,192,100142,1,0,0:0:0:0:
192,192,100235,1,0,0:0:0:0:
64,192,100329,1,8,0:0:0:0:
320,192,100329,1,0,0:0:0:62:D5S_s.wav
320,192,100423,1,2,0:0:0:0:
192,192,100517,1,2,0:0:0:0:
448,192,100517,1,0,0:0:0:69:D#2S_Eb2S_s.wav
64,192,100704,128,8,101079:0:0:0:0:
320,192,100704,1,0,0:0:0:80:A5S.wav
448,192,100704,128,0,101079:0:0:0:91:D6S.wav
192,192,101079,1,2,0:0:0:0:
192,192,101173,1,2,0:0:0:0:
64,192,101267,128,4,102017:2:0:0:0:
320,192,101267,128,0,102017:0:0:0:82:F7S.wav
192,192,102017,1,2,2:0:0:0:
448,192,102017,1,0,0:0:0:56:F6S.wav
192,192,102392,1,2,2:0:0:0:
448,192,102392,1,0,0:0:0:53:A6S_s.wav
320,192,102485,1,0,0:0:0:0:
192,192,102579,1,0,0:0:0:0:
448,192,102642,1,2,2:0:0:0:
64,192,102673,1,0,0:0:0:0:
192,192,102767,1,2,2:0:0:0:
448,192,102767,1,0,0:0:0:62:A6S_s.wav
320,192,102860,1,0,0:0:0:0:
192,192,102954,1,0,0:0:0:0:
320,192,103048,1,0,0:0:0:0:
64,192,103142,1,2,2:0:0:0:
448,192,103142,1,0,0:0:0:54:G7S_s.wav
192,192,103235,1,0,0:0:0:0:
320,192,103329,1,0,0:0:0:0:
192,192,103423,1,0,0:0:0:0:
64,192,103517,128,4,103892:0:0:0:0:
448,192,103517,1,0,0:0:0:46:A#5S_Bb5S.wav
192,192,103892,128,0,104642:0:0:0:43:A5S.wav
64,192,104267,1,4,0:0:0:0:
448,192,104267,128,0,104642:0:0:0:32:D5S.wav
320,192,104642,128,0,105017:0:0:0:43:C6S_s.wav
64,192,105017,1,4,0:0:0:0:
192,192,105017,128,0,105298:0:0:0:57:A#6S_Bb6S.wav
192,192,105392,128,0,105579:0:0:0:0:
448,192,105579,128,0,105673:0:0:0:48:A6S_s.wav
320,192,105673,128,0,105767:0:0:0:48:G#6S_Ab6S_s.wav
64,192,105767,1,4,0:0:0:0:
448,192,105767,128,0,106142:0:0:0:44:C#6S_Db6S_s.wav
320,192,106142,128,0,106517:0:0:0:49:F6S_s.wav
64,192,106517,1,4,0:0:0:0:
192,192,106517,128,0,106892:0:0:0:46:C6S.wav
64,192,106892,128,0,107267:0:0:0:43:F5S_s.wav
320,192,107079,1,0,0:0:0:0:
448,192,107173,1,0,0:0:0:42:A6S_s.wav
192,192,107267,1,4,0:0:0:0:
448,192,107267,128,0,107548:0:0:0:57:A6S.wav
320,192,107548,128,0,107642:0:0:0:0:
448,192,107642,128,0,108017:0:0:0:0:
192,192,107829,128,0,108017:0:0:0:42:D6S_s.wav
64,192,108017,128,4,108392:0:0:0:0:
320,192,108017,128,0,108392:0:0:0:46:A6S.wav
192,192,108392,1,4,0:0:0:0:
448,192,108392,128,0,108579:0:0:0:53:A6S_s.wav
320,192,108579,128,0,108767:0:0:0:52:G6S_s.wav
64,192,108767,1,4,0:0:0:0:
448,192,108767,128,0,108954:0:0:0:55:F6S_s.wav
320,192,108860,1,0,0:0:0:0:
64,192,108954,128,0,109142:0:0:0:52:E6S_s.wav
192,192,108954,1,0,0:0:0:63:E7S_s.wav
448,192,109048,1,0,0:0:0:0:
192,192,109142,128,4,109329:0:0:0:0:
320,192,109142,1,0,0:0:0:53:F6S_s.wav
64,192,109235,1,0,0:0:0:0:
320,192,109329,128,0,109517:0:0:0:52:G6S_s.wav
448,192,109329,1,0,0:0:0:63:G7S_s.wav
192,192,109423,1,0,0:0:0:0:
64,192,109517,128,6,110079:0:0:0:0:
448,192,109517,128,2,110079:2:0:0:0:
320,192,110079,1,2,0:0:0:0:
192,192,110173,1,0,0:0:0:59:C#7S_Db7S_s.wav
320,192,110267,1,0,0:0:0:55:D6S_s.wav
448,192,110267,1,0,0:0:0:66:D7S_s.wav
64,192,110454,1,2,0:0:0:0:
192,192,110454,1,0,0:0:0:53:D6S_s.wav
64,192,110642,1,8,0:0:0:0:
448,192,110642,1,0,0:0:0:53:D6S_s.wav
192,192,110829,1,2,0:0:0:0:
448,192,110829,1,0,0:0:0:52:G6S_s.wav
64,192,111017,1,2,0:0:0:0:
320,192,111017,1,0,0:0:0:56:F6S_s.wav
64,192,111204,1,2,0:0:0:0:
192,192,111204,1,0,0:0:0:52:E6S_s.wav
64,192,111392,1,0,0:0:0:53:F6S_s.wav
448,192,111392,1,0,0:0:0:64:F7S_s.wav
192,192,111579,1,2,0:0:0:0:
320,192,111579,1,0,0:0:0:52:G6S_s.wav
64,192,111767,1,0,0:0:0:55:A6S_s.wav
448,192,111767,1,0,0:0:0:66:A7S_s.wav
64,192,111954,1,2,0:0:0:0:
192,192,111954,1,0,0:0:0:52:F6S_s.wav
192,192,112142,1,8,0:0:0:0:
320,192,112142,1,0,0:0:0:59:A4S_s.wav
64,192,112329,128,2,112392:0:0:0:0:
448,192,112329,1,0,0:0:0:52:E6S_s.wav
192,192,112392,128,0,112454:0:0:0:0:
320,192,112454,128,0,112517:0:0:0:0:
64,192,112517,1,2,0:0:0:0:
448,192,112517,128,0,113079:0:0:0:55:C7S.wav
192,192,112704,1,0,0:0:0:0:
192,192,112798,1,0,0:0:0:0:
320,192,112892,1,0,0:0:0:0:
192,192,113079,128,2,113173:0:0:0:0:
64,192,113173,128,0,113267:0:0:0:61:C#7S_Db7S_s.wav
192,192,113267,128,0,113642:0:0:0:62:D7S_s.wav
448,192,113267,1,0,0:0:0:0:
448,192,113454,1,2,0:0:0:0:
320,192,113517,1,0,0:0:0:0:
64,192,113579,1,0,0:0:0:0:
320,192,113642,1,8,0:0:0:0:
448,192,113642,128,0,113829:0:0:0:57:D6S_s.wav
192,192,113829,128,2,114017:0:0:0:0:
320,192,113829,1,0,0:0:0:64:A#6S_Bb6S_s.wav
64,192,114017,1,2,0:0:0:0:
320,192,114017,128,0,114204:0:0:0:59:E6S_s.wav
64,192,114204,128,2,114392:0:0:0:0:
448,192,114204,1,0,0:0:0:59:D6S_s.wav
320,192,114392,128,0,114579:0:0:0:60:C#6S_Db6S_s.wav
448,192,114392,128,0,114767:0:0:0:71:C#7S_Db7S_s.wav
192,192,114579,128,2,114767:0:0:0:0:
64,192,114767,128,0,114860:0:0:0:62:D6S_s.wav
320,192,114767,1,0,0:0:0:74:D7S_s.wav
192,192,114860,128,0,114954:0:0:0:0:
320,192,114954,128,2,115048:0:0:0:0:
192,192,115048,128,0,115142:0:0:0:70:C#7S_Db7S_s.wav
64,192,115142,1,8,0:0:0:0:
448,192,115142,128,0,115235:0:0:0:70:D7S_s.wav
320,192,115235,128,0,115329:0:0:0:70:E7S_s.wav
192,192,115329,128,2,115423:0:0:0:0:
320,192,115423,128,0,115517:0:0:0:71:G7S_s.wav
64,192,115517,1,2,0:0:0:0:
448,192,115517,1,0,0:0:0:66:C7S_s.wav
320,192,115704,1,0,0:0:0:0:
192,192,115798,1,0,0:0:0:61:A#7S_Bb7S_s.wav
320,192,115845,1,0,0:0:0:0:
64,192,115892,1,0,0:0:0:66:A7S_s.wav
448,192,115892,1,0,0:0:0:0:
192,192,115985,1,0,0:0:0:74:F7S_s.wav
320,192,116079,1,2,0:0:0:0:
192,192,116173,1,0,0:0:0:75:C#7S_Db7S_s.wav
320,192,116267,1,0,0:0:0:69:D6S_s.wav
448,192,116267,1,0,0:0:0:80:D7S_s.wav
192,192,116642,1,0,0:0:0:70:A5S_s.wav
320,192,116642,1,0,0:0:0:81:A6S_s.wav
64,192,117017,1,2,0:0:0:0:
320,192,117017,1,0,0:0:0:77:C#7S_Db7S.wav
448,192,117017,128,0,117767:0:0:0:88:F7S.wav
192,192,117767,128,0,118517:0:0:0:75:G6S.wav
64,192,118517,128,4,121517:0:0:0:0:
448,192,118517,128,0,118704:0:0:0:71:A6S_s.wav
320,192,118704,128,0,118892:0:0:0:52:D6S_s.wav
192,192,118892,128,0,119079:0:0:0:53:D6S_s.wav
320,192,119079,128,0,119267:0:0:0:52:D6S_s.wav
192,192,119267,1,0,0:0:0:67:A6S_s.wav
448,192,119267,128,0,119454:0:0:0:78:D7S_s.wav
320,192,119454,128,0,119642:0:0:0:48:A4S_s.wav
192,192,119642,128,0,119829:0:0:0:49:E5S_s.wav
320,192,119829,128,0,120017:0:0:0:55:C6S_s.wav
448,192,120017,128,0,120204:0:0:0:55:A6S.wav
192,192,120204,128,0,120392:0:0:0:52:F4S_s.wav
320,192,120392,128,0,120579:0:0:0:72:E6S_s.wav
192,192,120579,128,0,120767:0:0:0:55:F5S_s.wav
320,192,120767,1,0,0:0:0:85:D7S_s.wav
448,192,120767,128,0,120954:0:0:0:0:
192,192,120954,128,0,121142:0:0:0:48:D6S_s.wav
320,192,121142,128,0,121329:0:0:0:75:F6S_s.wav
192,192,121329,128,0,121517:0:0:0:59:C#5S_Db5S_s.wav
320,192,121517,1,0,0:0:0:84:A6S_s.wav
448,192,121517,1,0,0:0:0:95:D7S_s.wav
192,192,121704,1,0,0:0:0:51:D6S_s.wav
320,192,121892,1,0,0:0:0:52:D6S_s.wav
64,192,122079,1,0,0:0:0:51:D6S_s.wav
192,192,122079,1,0,0:0:0:62:G6S_s.wav
64,192,122267,1,0,0:0:0:82:A6S_s.wav
448,192,122267,1,0,0:0:0:93:A7S_s.wav
320,192,122454,1,0,0:0:0:51:A5S_s.wav
192,192,122642,1,0,0:0:0:58:E5S_s.wav
320,192,122829,1,0,0:0:0:57:C6S_s.wav
448,192,122829,1,0,0:0:0:57:E6S_s.wav
64,192,123017,1,0,0:0:0:54:D6S_s.wav
320,192,123017,1,0,0:0:0:65:D7S_s.wav
192,192,123204,1,0,0:0:0:51:F6S_s.wav
448,192,123392,1,0,0:0:0:48:E6S_s.wav
192,192,123579,1,0,0:0:0:45:D6S_s.wav
320,192,123579,1,0,0:0:0:56:D7S_s.wav
192,192,123767,1,0,0:0:0:44:G6S_s.wav
448,192,123767,1,0,0:0:0:55:C#7S_Db7S_s.wav
64,192,123954,1,0,0:0:0:48:E4S_s.wav
64,192,124142,1,0,0:0:0:49:A4S_s.wav
64,192,124329,1,0,0:0:0:48:C#5S_Db5S_s.wav
64,192,124517,1,4,0:0:0:0:
192,192,124517,1,0,0:0:0:74:A#4S_Bb4S.wav
448,192,124517,1,0,0:0:0:85:A#5S_Bb5S.wav
320,192,124610,1,0,0:0:0:0:
192,192,124704,1,0,0:0:0:52:F#7S_Gb7S_s.wav
320,192,124798,1,0,0:0:0:52:D7S_s.wav
192,192,124892,1,0,0:0:0:60:A#6S_Bb6S_s.wav
64,192,124985,1,0,0:0:0:60:A6S_s.wav
448,192,125079,1,0,0:0:0:61:G6S_s.wav
320,192,125173,1,0,0:0:0:70:F6S_s.wav
192,192,125267,1,0,0:0:0:83:A5S_s.wav
448,192,125267,1,0,0:0:0:61:G6S_s.wav
320,192,125360,1,0,0:0:0:62:D6S_s.wav
192,192,125454,1,0,0:0:0:62:A5S_s.wav
320,192,125548,1,0,0:0:0:62:G5S_s.wav
64,192,125642,1,0,0:0:0:80:G4S_s.wav
320,192,125735,1,0,0:0:0:62:D6S_s.wav
192,192,125829,1,0,0:0:0:63:G6S_s.wav
448,192,125923,1,0,0:0:0:63:D7S_s.wav
64,192,126017,1,4,0:0:0:0:
192,192,126017,128,0,126204:0:0:0:75:F4S.wav
320,192,126017,1,0,0:0:0:86:F5S.wav
448,192,126204,128,0,126392:0:0:0:64:F7S_s.wav
320,192,126392,128,0,126579:0:0:0:87:A5S_s.wav
64,192,126579,128,0,126767:0:0:0:66:F6S_s.wav
192,192,126767,1,0,0:0:0:88:E6S_s.wav
448,192,126767,1,0,0:0:0:66:G6S_s.wav
64,192,126860,1,0,0:0:0:66:C#7S_Db7S_s.wav
320,192,126954,1,0,0:0:0:67:E7S_s.wav
448,192,127048,1,0,0:0:0:67:G6S_s.wav
320,192,127142,1,0,0:0:0:85:D5S_s.wav
192,192,127235,1,0,0:0:0:68:A6S_s.wav
64,192,127329,1,0,0:0:0:69:F6S_s.wav
448,192,127423,1,0,0:0:0:69:D7S_s.wav
64,192,127517,128,4,130423:0:0:0:0:
192,192,127517,1,0,0:0:0:77:G5S_s.wav
320,192,127517,1,0,0:0:0:88:D6S_s.wav
448,192,128267,128,0,130423:0:0:0:75:A7S_s.wav
192,192,128548,128,0,128642:0:0:0:55:A#6S_Bb6S_s.wav
320,192,128642,128,0,130423:0:0:0:56:A6S_s.wav
192,192,129017,128,0,130423:0:0:0:52:D7S_s.wav
64,192,130517,1,2,2:0:0:0:
192,192,130517,1,0,0:0:0:36:E6S.wav
320,192,130517,1,0,0:0:0:47:E7S.wav
448,192,130517,1,0,0:0:0:0:
