osu file format v14

[General]
AudioFilename: audio.mp3
AudioLeadIn: 0
PreviewTime: 634
Countdown: 0
SampleSet: Normal
StackLeniency: 0.7
Mode: 1
LetterboxInBreaks: 0
WidescreenStoryboard: 0

[Editor]
DistanceSpacing: 1
BeatDivisor: 4
GridSize: 32
TimelineZoom: 3.299999

[Metadata]
Title:Moon Halo
TitleUnicode:Moon Halo
Artist:M2U
ArtistUnicode:M2U
Creator:Skull Kid
Version:Moonlight
Source:Deemo
Tags:Diversity piano video game instrumental
BeatmapID:1940097
BeatmapSetID:928898

[Difficulty]
HPDrainRate:6
CircleSize:4
OverallDifficulty:5.5
ApproachRate:9
SliderMultiplier:1.4
SliderTickRate:1

[Events]
//Background and Video events
0,0,"BG.jpg",0,60
//Break Periods
//Storyboard Layer 0 (Background)
//Storyboard Layer 1 (Fail)
//Storyboard Layer 2 (Pass)
//Storyboard Layer 3 (Foreground)
//Storyboard Layer 4 (Overlay)
//Storyboard Sound Samples

[TimingPoints]
676,333.333333333333,6,1,0,60,1,0
676,-125,6,1,0,60,0,0
6842,-123.456790123457,6,1,0,60,0,0
7009,-121.951219512195,6,1,0,60,0,0
7175,-120.481927710843,6,1,0,60,0,0
7342,-119.047619047619,6,1,0,60,0,0
7509,-117.647058823529,6,1,0,60,0,0
7675,-116.279069767442,6,1,0,60,0,0
8009,-114.942528735632,6,1,0,60,0,0
8175,-113.636363636364,6,1,0,60,0,0
8342,-112.359550561798,6,1,0,60,0,0
8675,-111.111111111111,6,1,0,60,0,0
14009,-109.89010989011,6,1,0,60,0,0
14175,-108.695652173913,6,1,0,60,0,0
14509,-107.52688172043,6,1,0,60,0,0
14675,-106.382978723404,6,1,0,60,0,0
14842,-105.263157894737,6,1,0,60,0,0
15009,-104.166666666667,6,1,0,60,0,0
15175,-103.092783505155,6,1,0,60,0,0
15342,-102.040816326531,6,1,0,60,0,0
15509,-101.010101010101,6,1,0,60,0,0
15675,-100,6,1,0,60,0,0
16842,-102.040816326531,6,1,0,60,0,0
17009,-104.166666666667,6,1,0,60,0,0
17175,-106.382978723404,6,1,0,60,0,0
17342,-108.695652173913,6,1,0,60,0,0
17509,-111.111111111111,6,1,0,60,0,0
17675,-113.636363636364,6,1,0,60,0,0
17842,-116.279069767442,6,1,0,60,0,0
18009,-119.047619047619,6,1,0,60,0,0
18175,-121.951219512195,6,1,0,60,0,0
18342,-125,6,1,0,60,0,0
18509,-128.205128205128,6,1,0,60,0,0
18675,-131.578947368421,6,1,0,60,0,0
19009,-129.87012987013,6,1,0,60,0,0
19175,-128.205128205128,6,1,0,60,0,0
19342,-125,6,1,0,60,0,0
19509,-121.951219512195,6,1,0,60,0,0
19675,-119.047619047619,6,1,0,60,0,0
19842,-116.279069767442,6,1,0,60,0,0
19925,-113.636363636364,6,1,0,60,0,0
20009,-111.111111111111,6,1,0,60,0,0
20175,-108.695652173913,6,1,0,60,0,0
20342,-106.382978723404,6,1,0,60,0,0
20509,-104.166666666667,6,1,0,60,0,0
20592,-102.040816326531,6,1,0,60,0,0
20675,-100,6,1,0,60,0,0
20842,-102.040816326531,6,1,0,60,0,0
21009,-104.166666666667,6,1,0,60,0,0
21175,-106.382978723404,6,1,0,60,0,0
21342,-108.695652173913,6,1,0,60,0,0
21509,-111.111111111111,6,1,0,60,0,0
21675,-113.636363636364,6,1,0,60,0,0
21842,-116.279069767442,6,1,0,60,0,0
22009,-119.047619047619,6,1,0,60,0,0
22175,-121.951219512195,6,1,0,60,0,0
22342,-125,6,1,0,60,0,0
22509,-128.205128205128,6,1,0,60,0,0
22675,-131.578947368421,6,1,0,60,0,0
23009,-128.205128205128,6,1,0,60,0,0
23175,-125,6,1,0,60,0,0
23342,-121.951219512195,6,1,0,60,0,0
23509,-119.047619047619,6,1,0,60,0,0
23675,-116.279069767442,6,1,0,60,0,0
23842,-113.636363636364,6,1,0,60,0,0
23925,-111.111111111111,6,1,0,60,0,0
24009,-108.695652173913,6,1,0,60,0,0
24175,-106.382978723404,6,1,0,60,0,0
24342,-104.166666666667,6,1,0,60,0,0
24509,-102.040816326531,6,1,0,60,0,0
24675,-100,6,1,0,60,0,0
25009,-102.040816326531,6,1,0,60,0,0
25175,-104.166666666667,6,1,0,60,0,0
25342,-106.382978723404,6,1,0,60,0,0
25509,-108.695652173913,6,1,0,60,0,0
25675,-111.111111111111,6,1,0,60,0,0
25842,-113.636363636364,6,1,0,60,0,0
26009,-116.279069767442,6,1,0,60,0,0
26175,-119.047619047619,6,1,0,60,0,0
26342,-121.951219512195,6,1,0,60,0,0
26509,-125,6,1,0,60,0,0
26675,-100,6,1,0,60,0,0
29009,-102.040816326531,6,1,0,60,0,0
29175,-104.166666666667,6,1,0,60,0,0
29342,-106.382978723404,6,1,0,60,0,0
29509,-108.695652173913,6,1,0,60,0,0
29675,-111.111111111111,6,1,0,60,0,0
30009,-113.636363636364,6,1,0,60,0,0
30175,-116.279069767442,6,1,0,60,0,0
30342,-119.047619047619,6,1,0,60,0,0
30509,-121.951219512195,6,1,0,60,0,0
30675,-125,6,1,0,60,0,0
31009,-121.212121212121,6,1,0,60,0,0
31342,-117.647058823529,6,1,0,60,0,0
31675,-114.285714285714,6,1,0,60,0,0
32009,-111.111111111111,6,1,0,60,0,0
32175,-108.108108108108,6,1,0,60,0,0
32342,-105.263157894737,6,1,0,60,0,0
32509,-102.564102564103,6,1,0,60,0,0
32675,-100,6,1,0,60,0,1
33009,-102.040816326531,6,1,0,60,0,1
33342,-104.166666666667,6,1,0,60,0,1
33509,-106.382978723404,6,1,0,60,0,1
33675,-108.695652173913,6,1,0,60,0,1
34009,-111.111111111111,6,1,0,60,0,1
34175,-113.636363636364,6,1,0,60,0,1
34342,-116.279069767442,6,1,0,60,0,1
34509,-119.047619047619,6,1,0,60,0,1
34675,-121.951219512195,6,1,0,60,0,1
34842,-119.047619047619,6,1,0,60,0,1
34898,-117.647058823529,6,1,0,60,0,1
34953,-116.279069767442,6,1,0,60,0,1
35009,-114.942528735632,6,1,0,60,0,1
35175,-112.359550561798,6,1,0,60,0,1
35342,-109.89010989011,6,1,0,60,0,1
35509,-107.52688172043,6,1,0,60,0,1
35675,-105.263157894737,6,1,0,60,0,1
36009,-104.166666666667,6,1,0,60,0,1
36175,-103.092783505155,6,1,0,60,0,1
36342,-102.040816326531,6,1,0,60,0,1
36509,-101.010101010101,6,1,0,60,0,1
36675,-100,6,1,0,60,0,1
37009,-102.040816326531,6,1,0,60,0,1
37175,-104.166666666667,6,1,0,60,0,1
37342,-106.382978723404,6,1,0,60,0,1
37509,-108.695652173913,6,1,0,60,0,1
37675,-111.111111111111,6,1,0,60,0,1
38009,-113.636363636364,6,1,0,60,0,1
38175,-116.279069767442,6,1,0,60,0,1
38342,-119.047619047619,6,1,0,60,0,1
38509,-121.951219512195,6,1,0,60,0,1
38675,-125,6,1,0,60,0,1
38842,-121.951219512195,6,1,0,60,0,1
38925,-120.481927710843,6,1,0,60,0,1
39009,-119.047619047619,6,1,0,60,0,1
39175,-116.279069767442,6,1,0,60,0,1
39342,-113.636363636364,6,1,0,60,0,1
39509,-111.111111111111,6,1,0,60,0,1
39675,-100,6,1,0,60,0,1
39842,-105.263157894737,6,1,0,60,0,1
40231,-104.166666666667,6,1,0,60,0,1
40287,-103.092783505155,6,1,0,60,0,1
40342,-102.040816326531,6,1,0,60,0,1
40509,-101.010101010101,6,1,0,60,0,1
40675,-100,6,1,0,60,0,1
41009,-102.040816326531,6,1,0,60,0,1
41342,-104.166666666667,6,1,0,60,0,1
41509,-106.382978723404,6,1,0,60,0,1
41675,-108.695652173913,6,1,0,60,0,1
42009,-111.111111111111,6,1,0,60,0,1
42175,-113.636363636364,6,1,0,60,0,1
42342,-116.279069767442,6,1,0,60,0,1
42509,-119.047619047619,6,1,0,60,0,1
42675,-121.951219512195,6,1,0,60,0,1
42842,-119.047619047619,6,1,0,60,0,1
42898,-117.647058823529,6,1,0,60,0,1
42953,-116.279069767442,6,1,0,60,0,1
43009,-114.942528735632,6,1,0,60,0,1
43175,-112.359550561798,6,1,0,60,0,1
43342,-109.89010989011,6,1,0,60,0,1
43509,-107.52688172043,6,1,0,60,0,1
43675,-105.263157894737,6,1,0,60,0,1
44009,-104.166666666667,6,1,0,60,0,1
44175,-103.092783505155,6,1,0,60,0,1
44342,-102.040816326531,6,1,0,60,0,1
44509,-101.010101010101,6,1,0,60,0,1
44675,-100,6,1,0,60,0,1
45009,-102.040816326531,6,1,0,60,0,1
45175,-104.166666666667,6,1,0,60,0,1
45342,-106.382978723404,6,1,0,60,0,1
45509,-108.695652173913,6,1,0,60,0,1
45675,-111.111111111111,6,1,0,60,0,1
45842,-113.636363636364,6,1,0,60,0,1
46009,-116.279069767442,6,1,0,60,0,1
46175,-119.047619047619,6,1,0,60,0,1
46509,-121.951219512195,6,1,0,60,0,1
46675,-119.047619047619,6,1,0,60,0,1
46842,-116.279069767442,6,1,0,60,0,1
47009,-113.636363636364,6,1,0,60,0,1
47175,-111.111111111111,6,1,0,60,0,1
47259,-108.695652173913,6,1,0,60,0,1
47342,-106.382978723404,6,1,0,60,0,1
47509,-104.166666666667,6,1,0,60,0,1
47675,-102.040816326531,6,1,0,60,0,0
48009,-102.040816326531,6,1,0,40,0,0
48342,-111.111111111111,6,1,0,40,0,0
48592,-112.359550561798,6,1,0,40,0,0
48675,-113.636363636364,6,1,0,40,0,0
48842,-116.279069767442,6,1,0,40,0,0
49009,-119.047619047619,6,1,0,40,0,0
49175,-121.951219512195,6,1,0,40,0,0
49342,-125,6,1,0,40,0,0
49509,-128.205128205129,6,1,0,40,0,0
49675,-131.578947368421,6,1,0,40,0,0
49842,-135.135135135135,6,1,0,40,0,0
50009,-138.888888888889,6,1,0,40,0,0
50175,-142.857142857143,6,1,0,40,0,0
50509,-105.263157894737,6,1,0,40,0,0
50592,-106.382978723404,6,1,0,40,0,0
50675,-107.52688172043,6,1,0,40,0,0
50842,-109.89010989011,6,1,0,40,0,0
51009,-112.359550561798,6,1,0,40,0,0
51175,-114.942528735632,6,1,0,40,0,0
51342,-117.647058823529,6,1,0,40,0,0
51509,-120.481927710843,6,1,0,40,0,0
51675,-123.456790123457,6,1,0,40,0,0
51842,-126.582278481013,6,1,0,40,0,0
52009,-129.87012987013,6,1,0,40,0,0
52175,-133.333333333333,6,1,0,40,0,0
52342,-136.986301369863,6,1,0,40,0,0
52509,-140.845070422535,6,1,0,40,0,0
52675,-107.52688172043,6,1,0,40,0,0
52842,-109.89010989011,6,1,0,40,0,0
53009,-112.359550561798,6,1,0,40,0,0
53175,-114.942528735632,6,1,0,40,0,0
53342,-117.647058823529,6,1,0,40,0,0
53509,-120.481927710843,6,1,0,40,0,0
53675,-123.456790123457,6,1,0,40,0,0
53842,-126.582278481013,6,1,0,40,0,0
54009,-129.87012987013,6,1,0,40,0,0
54175,-133.333333333333,6,1,0,40,0,0
54509,-100,6,1,0,40,0,0
54592,-101.010101010101,6,1,0,40,0,0
54675,-102.040816326531,6,1,0,40,0,0
54842,-104.166666666667,6,1,0,40,0,0
55009,-106.382978723404,6,1,0,40,0,0
55175,-108.695652173913,6,1,0,40,0,0
55342,-111.111111111111,6,1,0,40,0,0
55509,-113.636363636364,6,1,0,40,0,0
55592,-95.2380952380952,6,1,0,50,0,0
55842,-97.0873786407767,6,1,0,50,0,0
56009,-99.009900990099,6,1,0,50,0,0
56175,-101.010101010101,6,1,0,50,0,0
56342,-103.092783505155,6,1,0,50,0,0
56509,-105.263157894737,6,1,0,50,0,0
56592,-90.9090909090909,6,1,0,60,0,0
56925,-100,6,1,0,60,0,0
57675,-90.9090909090909,6,1,0,60,0,0
57842,-100,6,1,0,60,0,0
58175,-90.9090909090909,6,1,0,60,0,0
58509,-100,6,1,0,60,0,0
58675,-90.9090909090909,6,1,0,60,0,0
58925,-100,6,1,0,60,0,0
59675,-90.9090909090909,6,1,0,60,0,0
60009,-93.0232558139535,6,1,0,60,0,0
60342,-95.2380952380952,6,1,0,60,0,0
60675,-97.5609756097561,6,1,0,60,0,0
60925,-100,6,1,0,60,0,0
64675,-100,6,1,0,60,0,1
65009,-102.040816326531,6,1,0,60,0,1
65342,-104.166666666667,6,1,0,60,0,1
65509,-106.382978723404,6,1,0,60,0,1
65675,-108.695652173913,6,1,0,60,0,1
66009,-111.111111111111,6,1,0,60,0,1
66175,-113.636363636364,6,1,0,60,0,1
66342,-116.279069767442,6,1,0,60,0,1
66509,-119.047619047619,6,1,0,60,0,1
66675,-121.951219512195,6,1,0,60,0,1
66842,-119.047619047619,6,1,0,60,0,1
66898,-117.647058823529,6,1,0,60,0,1
66953,-116.279069767442,6,1,0,60,0,1
67009,-114.942528735632,6,1,0,60,0,1
67175,-112.359550561798,6,1,0,60,0,1
67342,-109.89010989011,6,1,0,60,0,1
67509,-107.52688172043,6,1,0,60,0,1
67675,-105.263157894737,6,1,0,60,0,1
68009,-104.166666666667,6,1,0,60,0,1
68175,-103.092783505155,6,1,0,60,0,1
68342,-102.040816326531,6,1,0,60,0,1
68509,-101.010101010101,6,1,0,60,0,1
68675,-100,6,1,0,60,0,1
69009,-102.040816326531,6,1,0,60,0,1
69175,-104.166666666667,6,1,0,60,0,1
69342,-106.382978723404,6,1,0,60,0,1
69509,-108.695652173913,6,1,0,60,0,1
69675,-111.111111111111,6,1,0,60,0,1
70009,-113.636363636364,6,1,0,60,0,1
70175,-116.279069767442,6,1,0,60,0,1
70342,-119.047619047619,6,1,0,60,0,1
70509,-121.951219512195,6,1,0,60,0,1
70675,-125,6,1,0,60,0,1
70842,-121.951219512195,6,1,0,60,0,1
70925,-120.481927710843,6,1,0,60,0,1
71009,-119.047619047619,6,1,0,60,0,1
71175,-116.279069767442,6,1,0,60,0,1
71342,-113.636363636364,6,1,0,60,0,1
71509,-111.111111111111,6,1,0,60,0,1
71675,-100,6,1,0,60,0,1
71842,-105.263157894737,6,1,0,60,0,1
72231,-104.166666666667,6,1,0,60,0,1
72287,-103.092783505155,6,1,0,60,0,1
72342,-102.040816326531,6,1,0,60,0,1
72509,-101.010101010101,6,1,0,60,0,1
72675,-100,6,1,0,60,0,1
73009,-102.040816326531,6,1,0,60,0,1
73342,-104.166666666667,6,1,0,60,0,1
73509,-106.382978723404,6,1,0,60,0,1
73675,-108.695652173913,6,1,0,60,0,1
74009,-111.111111111111,6,1,0,60,0,1
74175,-113.636363636364,6,1,0,60,0,1
74342,-116.279069767442,6,1,0,60,0,1
74509,-119.047619047619,6,1,0,60,0,1
74675,-121.951219512195,6,1,0,60,0,1
74842,-119.047619047619,6,1,0,60,0,1
74898,-117.647058823529,6,1,0,60,0,1
74953,-116.279069767442,6,1,0,60,0,1
75009,-114.942528735632,6,1,0,60,0,1
75175,-112.359550561798,6,1,0,60,0,1
75342,-100,6,1,0,60,0,1
75509,-109.89010989011,6,1,0,60,0,1
75675,-100,6,1,0,60,0,1
76009,-107.52688172043,6,1,0,60,0,1
76175,-100,6,1,0,60,0,1
76342,-105.263157894737,6,1,0,60,0,1
76509,-102.564102564103,6,1,0,60,0,1
76675,-100,6,1,0,60,0,1
77009,-102.040816326531,6,1,0,60,0,1
77175,-104.166666666667,6,1,0,60,0,1
77342,-106.382978723404,6,1,0,60,0,1
77509,-108.695652173913,6,1,0,60,0,1
77675,-111.111111111111,6,1,0,60,0,1
77842,-113.636363636364,6,1,0,60,0,1
78009,-116.279069767442,6,1,0,60,0,1
78175,-119.047619047619,6,1,0,60,0,1
78509,-121.951219512195,6,1,0,60,0,1
78675,-119.047619047619,6,1,0,60,0,1
78842,-116.279069767442,6,1,0,60,0,1
78898,-114.942528735632,6,1,0,60,0,1
78953,-113.636363636364,6,1,0,60,0,1
79009,-112.359550561798,6,1,0,60,0,1
79175,-109.89010989011,6,1,0,60,0,1
79342,-100,6,1,0,60,0,1
79509,-107.52688172043,6,1,0,60,0,1
79675,-100,6,1,0,60,0,1
79842,-105.263157894737,6,1,0,60,0,1
79898,-104.89877268436,6,1,0,60,0,1
79953,-104.536901526239,6,1,0,60,0,1
80009,-104.166666666667,6,1,0,60,0,1
80175,-103.092783505155,6,1,0,60,0,1
80342,-102.040816326531,6,1,0,60,0,1
80509,-101.010101010101,6,1,0,60,0,1
80675,-100,6,1,0,60,0,1
81009,-102.040816326531,6,1,0,60,0,1
81342,-104.166666666667,6,1,0,60,0,1
81509,-106.382978723404,6,1,0,60,0,1
81675,-108.695652173913,6,1,0,60,0,1
82009,-111.111111111111,6,1,0,60,0,1
82175,-113.636363636364,6,1,0,60,0,1
82342,-116.279069767442,6,1,0,60,0,1
82509,-119.047619047619,6,1,0,60,0,1
82675,-121.951219512195,6,1,0,60,0,1
82842,-119.047619047619,6,1,0,60,0,1
82898,-117.647058823529,6,1,0,60,0,1
82953,-116.279069767442,6,1,0,60,0,1
83009,-114.942528735632,6,1,0,60,0,1
83175,-112.359550561798,6,1,0,60,0,1
83342,-109.89010989011,6,1,0,60,0,1
83509,-107.52688172043,6,1,0,60,0,1
83675,-105.263157894737,6,1,0,60,0,1
84009,-104.166666666667,6,1,0,60,0,1
84175,-103.092783505155,6,1,0,60,0,1
84342,-102.040816326531,6,1,0,60,0,1
84509,-101.010101010101,6,1,0,60,0,1
84675,-100,6,1,0,60,0,1
85009,-102.040816326531,6,1,0,60,0,1
85175,-104.166666666667,6,1,0,60,0,1
85342,-106.382978723404,6,1,0,60,0,1
85509,-108.695652173913,6,1,0,60,0,1
85675,-111.111111111111,6,1,0,60,0,1
86009,-113.636363636364,6,1,0,60,0,1
86175,-116.279069767442,6,1,0,60,0,1
86342,-119.047619047619,6,1,0,60,0,1
86509,-121.951219512195,6,1,0,60,0,1
86675,-125,6,1,0,60,0,1
86842,-121.951219512195,6,1,0,60,0,1
86925,-120.481927710843,6,1,0,60,0,1
87009,-119.047619047619,6,1,0,60,0,1
87175,-116.279069767442,6,1,0,60,0,1
87342,-113.636363636364,6,1,0,60,0,1
87509,-111.111111111111,6,1,0,60,0,1
87675,-100,6,1,0,60,0,1
87842,-105.263157894737,6,1,0,60,0,1
88231,-104.166666666667,6,1,0,60,0,1
88287,-103.092783505155,6,1,0,60,0,1
88342,-102.040816326531,6,1,0,60,0,1
88509,-101.010101010101,6,1,0,60,0,1
88675,-100,6,1,0,60,0,1
89009,-102.040816326531,6,1,0,60,0,1
89342,-104.166666666667,6,1,0,60,0,1
89509,-106.382978723404,6,1,0,60,0,1
89675,-108.695652173913,6,1,0,60,0,1
90009,-111.111111111111,6,1,0,60,0,1
90175,-113.636363636364,6,1,0,60,0,1
90342,-116.279069767442,6,1,0,60,0,1
90509,-119.047619047619,6,1,0,60,0,1
90675,-121.951219512195,6,1,0,60,0,1
90842,-119.047619047619,6,1,0,60,0,1
90898,-117.647058823529,6,1,0,60,0,1
90953,-116.279069767442,6,1,0,60,0,1
91009,-114.942528735632,6,1,0,60,0,1
91175,-112.359550561798,6,1,0,60,0,1
91342,-100,6,1,0,60,0,1
91509,-109.89010989011,6,1,0,60,0,1
91675,-100,6,1,0,60,0,1
92009,-107.52688172043,6,1,0,60,0,1
92175,-100,6,1,0,60,0,1
92342,-105.263157894737,6,1,0,60,0,1
92509,-102.564102564103,6,1,0,60,0,1
92675,-100,6,1,0,60,0,1
93009,-102.040816326531,6,1,0,60,0,1
93175,-104.166666666667,6,1,0,60,0,1
93342,-106.382978723404,6,1,0,60,0,1
93509,-108.695652173913,6,1,0,60,0,1
93675,-111.111111111111,6,1,0,60,0,1
93842,-113.636363636364,6,1,0,60,0,1
94009,-116.279069767442,6,1,0,60,0,1
94175,-119.047619047619,6,1,0,60,0,1
94509,-121.951219512195,6,1,0,60,0,1
94675,-119.047619047619,6,1,0,60,0,1
94842,-116.279069767442,6,1,0,60,0,1
95009,-113.636363636364,6,1,0,60,0,1
95175,-111.111111111111,6,1,0,60,0,1
95342,-108.695652173913,6,1,0,60,0,1
95509,-106.382978723404,6,1,0,60,0,1
95675,-104.166666666667,6,1,0,60,0,0
96009,-125,6,1,0,5,0,0

[HitObjects]
256,192,676,5,4,0:0:0:0:
256,192,1009,1,8,0:0:0:0:
256,192,1342,1,8,0:0:0:0:
256,192,1675,1,0,0:0:0:0:
256,192,2009,1,8,0:0:0:0:
256,192,2342,1,0,0:0:0:0:
256,192,2509,1,8,0:0:0:0:
256,192,2675,1,0,0:0:0:0:
256,192,3009,1,8,0:0:0:0:
256,192,3342,1,8,0:0:0:0:
256,192,3675,1,0,0:0:0:0:
256,192,4009,1,8,0:0:0:0:
256,192,4175,1,8,0:0:0:0:
256,192,4342,1,0,0:0:0:0:
256,192,4509,1,8,0:0:0:0:
256,192,4675,1,4,0:0:0:0:
256,192,4925,1,8,0:0:0:0:
256,192,5009,1,0,0:0:0:0:
256,192,5175,1,0,0:0:0:0:
256,192,5342,1,8,0:0:0:0:
256,192,5509,1,8,0:0:0:0:
256,192,5675,1,0,0:0:0:0:
256,192,6009,1,8,0:0:0:0:
256,192,6175,1,0,0:0:0:0:
256,192,6342,1,8,0:0:0:0:
256,192,6509,1,8,0:0:0:0:
256,192,6675,1,0,0:0:0:0:
256,192,6842,1,8,0:0:0:0:
256,192,7009,1,0,0:0:0:0:
256,192,7175,1,0,0:0:0:0:
256,192,7342,1,8,0:0:0:0:
256,192,7509,1,8,0:0:0:0:
256,192,7675,1,0,0:0:0:0:
256,192,8009,1,8,0:0:0:0:
256,192,8175,1,0,0:0:0:0:
256,192,8342,1,8,0:0:0:0:
256,192,8675,1,4,0:0:0:0:
256,192,9009,1,8,0:0:0:0:
256,192,9342,1,8,0:0:0:0:
256,192,9675,1,0,0:0:0:0:
256,192,10009,1,8,0:0:0:0:
256,192,10342,1,0,0:0:0:0:
256,192,10509,1,8,0:0:0:0:
256,192,10675,1,0,0:0:0:0:
256,192,11009,1,8,0:0:0:0:
256,192,11342,1,8,0:0:0:0:
256,192,11675,1,0,0:0:0:0:
256,192,12009,1,8,0:0:0:0:
256,192,12175,1,8,0:0:0:0:
256,192,12342,1,0,0:0:0:0:
256,192,12509,1,0,0:0:0:0:
256,192,12675,1,8,0:0:0:0:
256,192,12925,1,8,0:0:0:0:
256,192,13009,1,0,0:0:0:0:
256,192,13175,1,0,0:0:0:0:
256,192,13342,1,8,0:0:0:0:
256,192,13509,1,0,0:0:0:0:
256,192,13675,1,8,0:0:0:0:
256,192,13842,1,8,0:0:0:0:
256,192,14009,1,0,0:0:0:0:
256,192,14175,1,8,0:0:0:0:
256,192,14509,1,8,0:0:0:0:
256,192,14675,1,0,0:0:0:0:
256,192,14842,1,0,0:0:0:0:
256,192,15009,1,8,0:0:0:0:
256,192,15175,1,0,0:0:0:0:
256,192,15342,1,8,0:0:0:0:
256,192,15509,1,8,0:0:0:0:
256,192,15675,1,4,0:0:0:0:
256,192,16342,1,8,0:0:0:0:
256,192,16509,1,8,0:0:0:0:
256,192,16592,1,8,0:0:0:0:
256,192,16675,1,0,0:0:0:0:
256,192,16842,1,0,0:0:0:0:
256,192,17009,1,8,0:0:0:0:
256,192,17175,1,0,0:0:0:0:
256,192,17342,1,8,0:0:0:0:
256,192,17509,1,8,0:0:0:0:
256,192,17675,1,0,0:0:0:0:
256,192,17842,1,8,0:0:0:0:
256,192,18009,1,0,0:0:0:0:
256,192,18175,1,0,0:0:0:0:
256,192,18342,1,8,0:0:0:0:
256,192,18509,1,8,0:0:0:0:
256,192,18675,1,0,0:0:0:0:
256,192,19009,1,0,0:0:0:0:
256,192,19175,1,8,0:0:0:0:
256,192,19342,1,0,0:0:0:0:
256,192,19509,1,0,0:0:0:0:
256,192,19675,1,8,0:0:0:0:
256,192,19842,1,0,0:0:0:0:
256,192,19925,1,0,0:0:0:0:
256,192,20009,1,8,0:0:0:0:
256,192,20175,1,8,0:0:0:0:
256,192,20342,1,0,0:0:0:0:
256,192,20509,1,8,0:0:0:0:
256,192,20592,1,8,0:0:0:0:
256,192,20675,1,0,0:0:0:0:
256,192,20842,1,0,0:0:0:0:
256,192,21009,1,8,0:0:0:0:
256,192,21175,1,0,0:0:0:0:
256,192,21342,1,8,0:0:0:0:
256,192,21509,1,8,0:0:0:0:
256,192,21675,1,0,0:0:0:0:
256,192,21842,1,8,0:0:0:0:
256,192,22009,1,0,0:0:0:0:
256,192,22175,1,8,0:0:0:0:
256,192,22342,1,8,0:0:0:0:
256,192,22509,1,8,0:0:0:0:
256,192,22675,1,0,0:0:0:0:
256,192,23009,1,0,0:0:0:0:
256,192,23175,1,8,0:0:0:0:
256,192,23342,1,8,0:0:0:0:
256,192,23509,1,0,0:0:0:0:
256,192,23675,1,12,0:0:0:0:
256,192,23842,1,0,0:0:0:0:
256,192,23925,1,0,0:0:0:0:
256,192,24009,1,8,0:0:0:0:
256,192,24175,1,8,0:0:0:0:
256,192,24342,1,0,0:0:0:0:
256,192,24509,1,8,0:0:0:0:
256,192,24675,1,4,0:0:0:0:
256,192,25009,1,8,0:0:0:0:
256,192,25175,1,0,0:0:0:0:
256,192,25342,1,0,0:0:0:0:
256,192,25509,1,8,0:0:0:0:
256,192,25675,1,8,0:0:0:0:
256,192,25842,1,0,0:0:0:0:
256,192,26009,1,8,0:0:0:0:
256,192,26175,1,0,0:0:0:0:
256,192,26342,1,8,0:0:0:0:
256,192,26509,1,8,0:0:0:0:
256,192,26675,1,4,0:0:0:0:
256,192,27009,1,12,0:0:0:0:
256,192,27342,1,4,0:0:0:0:
256,192,27675,1,12,0:0:0:0:
256,192,27842,1,0,0:0:0:0:
256,192,28009,1,0,0:0:0:0:
256,192,28175,1,12,0:0:0:0:
256,192,28509,1,8,0:0:0:0:
256,192,28675,1,4,0:0:0:0:
256,192,29009,1,0,0:0:0:0:
256,192,29175,1,8,0:0:0:0:
256,192,29342,1,0,0:0:0:0:
256,192,29509,1,0,0:0:0:0:
256,192,29675,1,8,0:0:0:0:
256,192,30009,1,0,0:0:0:0:
256,192,30175,1,0,0:0:0:0:
256,192,30342,1,8,0:0:0:0:
256,192,30509,1,8,0:0:0:0:
256,192,30675,1,0,0:0:0:0:
256,192,31009,1,12,0:0:0:0:
256,192,31342,1,12,0:0:0:0:
256,192,31675,1,4,0:0:0:0:
256,192,32009,1,8,0:0:0:0:
256,192,32175,1,8,0:0:0:0:
256,192,32342,1,0,0:0:0:0:
256,192,32509,1,8,0:0:0:0:
256,192,32675,1,4,0:0:0:0:
256,192,33009,1,8,0:0:0:0:
256,192,33342,1,0,0:0:0:0:
256,192,33509,1,8,0:0:0:0:
256,192,33675,1,0,0:0:0:0:
256,192,34009,1,8,0:0:0:0:
256,192,34175,1,0,0:0:0:0:
256,192,34342,1,8,0:0:0:0:
256,192,34509,1,8,0:0:0:0:
256,192,34675,1,0,0:0:0:0:
256,192,34842,1,8,0:0:0:0:
256,192,34898,1,8,0:0:0:0:
256,192,34953,1,0,0:0:0:0:
256,192,35009,1,0,0:0:0:0:
256,192,35175,1,0,0:0:0:0:
256,192,35342,1,8,0:0:0:0:
256,192,35509,1,8,0:0:0:0:
256,192,35675,1,0,0:0:0:0:
256,192,36009,1,8,0:0:0:0:
256,192,36175,1,8,0:0:0:0:
256,192,36342,1,0,0:0:0:0:
256,192,36509,1,8,0:0:0:0:
256,192,36675,1,0,0:0:0:0:
256,192,37009,1,0,0:0:0:0:
256,192,37175,1,8,0:0:0:0:
256,192,37342,1,0,0:0:0:0:
256,192,37509,1,0,0:0:0:0:
256,192,37675,1,8,0:0:0:0:
256,192,38009,1,0,0:0:0:0:
256,192,38175,1,0,0:0:0:0:
256,192,38342,1,8,0:0:0:0:
256,192,38509,1,8,0:0:0:0:
256,192,38675,1,0,0:0:0:0:
256,192,38842,1,8,0:0:0:0:
256,192,38925,1,8,0:0:0:0:
256,192,39009,1,0,0:0:0:0:
256,192,39175,1,8,0:0:0:0:
256,192,39342,1,0,0:0:0:0:
256,192,39509,1,0,0:0:0:0:
256,192,39675,1,12,0:0:0:0:
256,192,39842,1,0,0:0:0:0:
256,192,39925,1,0,0:0:0:0:
256,192,40009,1,8,0:0:0:0:
256,192,40175,1,0,0:0:0:0:
256,192,40231,1,8,0:0:0:0:
256,192,40287,1,8,0:0:0:0:
256,192,40342,1,0,0:0:0:0:
256,192,40509,1,8,0:0:0:0:
256,192,40675,1,4,0:0:0:0:
256,192,41009,1,8,0:0:0:0:
256,192,41342,1,0,0:0:0:0:
256,192,41509,1,8,0:0:0:0:
256,192,41675,1,0,0:0:0:0:
256,192,42009,1,8,0:0:0:0:
256,192,42175,1,0,0:0:0:0:
256,192,42342,1,8,0:0:0:0:
256,192,42509,1,8,0:0:0:0:
256,192,42675,1,0,0:0:0:0:
256,192,42842,1,8,0:0:0:0:
256,192,42898,1,8,0:0:0:0:
256,192,42953,1,0,0:0:0:0:
256,192,43009,1,0,0:0:0:0:
256,192,43175,1,0,0:0:0:0:
256,192,43342,1,8,0:0:0:0:
256,192,43509,1,8,0:0:0:0:
256,192,43675,1,0,0:0:0:0:
256,192,44009,1,8,0:0:0:0:
256,192,44175,1,8,0:0:0:0:
256,192,44342,1,0,0:0:0:0:
256,192,44509,1,8,0:0:0:0:
256,192,44675,1,0,0:0:0:0:
256,192,45009,1,0,0:0:0:0:
256,192,45175,1,8,0:0:0:0:
256,192,45342,1,0,0:0:0:0:
256,192,45509,1,0,0:0:0:0:
256,192,45675,1,8,0:0:0:0:
256,192,45842,1,8,0:0:0:0:
256,192,46009,1,0,0:0:0:0:
256,192,46175,1,8,0:0:0:0:
256,192,46509,1,8,0:0:0:0:
256,192,46675,1,0,0:0:0:0:
256,192,46842,1,0,0:0:0:0:
256,192,47009,1,8,0:0:0:0:
256,192,47175,1,0,0:0:0:0:
256,192,47259,1,0,0:0:0:0:
256,192,47342,1,8,0:0:0:0:
256,192,47509,1,8,0:0:0:0:
256,192,47675,1,4,0:0:0:0:
256,192,48342,1,0,0:0:0:0:
256,192,48509,1,0,0:0:0:0:
256,192,48592,1,0,0:0:0:0:
256,192,48675,1,8,0:0:0:0:
256,192,48842,1,0,0:0:0:0:
256,192,49009,1,0,0:0:0:0:
256,192,49175,1,8,0:0:0:0:
256,192,49342,1,0,0:0:0:0:
256,192,49509,1,8,0:0:0:0:
256,192,49675,1,8,0:0:0:0:
256,192,49842,1,0,0:0:0:0:
256,192,50009,1,0,0:0:0:0:
256,192,50175,1,8,0:0:0:0:
256,192,50509,1,0,0:0:0:0:
256,192,50592,1,0,0:0:0:0:
256,192,50675,1,8,0:0:0:0:
256,192,50842,1,0,0:0:0:0:
256,192,51009,1,0,0:0:0:0:
256,192,51175,1,8,0:0:0:0:
256,192,51342,1,8,0:0:0:0:
256,192,51509,1,0,0:0:0:0:
256,192,51675,1,8,0:0:0:0:
256,192,51842,1,0,0:0:0:0:
256,192,52009,1,8,0:0:0:0:
256,192,52175,1,8,0:0:0:0:
256,192,52342,1,0,0:0:0:0:
256,192,52509,1,0,0:0:0:0:
256,192,52675,1,8,0:0:0:0:
256,192,52842,1,0,0:0:0:0:
256,192,53009,1,0,0:0:0:0:
256,192,53175,1,8,0:0:0:0:
256,192,53342,1,0,0:0:0:0:
256,192,53509,1,8,0:0:0:0:
256,192,53675,1,8,0:0:0:0:
256,192,53842,1,0,0:0:0:0:
256,192,54009,1,0,0:0:0:0:
256,192,54175,1,8,0:0:0:0:
256,192,54509,1,0,0:0:0:0:
256,192,54592,1,0,0:0:0:0:
256,192,54675,1,8,0:0:0:0:
256,192,54842,1,8,0:0:0:0:
256,192,55009,1,0,0:0:0:0:
256,192,55175,1,8,0:0:0:0:
256,192,55342,1,0,0:0:0:0:
256,192,55509,1,0,0:0:0:0:
256,192,55675,1,12,0:0:0:0:
256,192,55842,1,0,0:0:0:0:
256,192,56009,1,8,0:0:0:0:
256,192,56175,1,8,0:0:0:0:
256,192,56342,1,0,0:0:0:0:
256,192,56509,1,8,0:0:0:0:
256,192,56675,1,4,0:0:0:0:
256,192,57009,1,0,0:0:0:0:
256,192,57175,1,8,0:0:0:0:
256,192,57342,1,0,0:0:0:0:
256,192,57509,1,0,0:0:0:0:
256,192,57675,1,12,0:0:0:0:
256,192,57842,1,0,0:0:0:0:
256,192,58009,1,0,0:0:0:0:
256,192,58175,1,12,0:0:0:0:
256,192,58509,1,8,0:0:0:0:
256,192,58675,1,4,0:0:0:0:
256,192,59009,1,8,0:0:0:0:
256,192,59175,1,8,0:0:0:0:
256,192,59342,1,0,0:0:0:0:
256,192,59509,1,0,0:0:0:0:
256,192,59675,1,12,0:0:0:0:
256,192,60009,1,12,0:0:0:0:
256,192,60342,1,8,0:0:0:0:
256,192,60675,1,4,0:0:0:0:
256,192,61009,1,0,0:0:0:0:
256,192,61175,1,8,0:0:0:0:
256,192,61342,1,0,0:0:0:0:
256,192,61509,1,0,0:0:0:0:
256,192,61675,1,8,0:0:0:0:
256,192,62009,1,0,0:0:0:0:
256,192,62175,1,0,0:0:0:0:
256,192,62342,1,8,0:0:0:0:
256,192,62509,1,8,0:0:0:0:
256,192,62675,1,0,0:0:0:0:
256,192,63009,1,12,0:0:0:0:
256,192,63342,1,12,0:0:0:0:
256,192,63675,1,4,0:0:0:0:
256,192,64009,1,8,0:0:0:0:
256,192,64175,1,8,0:0:0:0:
256,192,64342,1,0,0:0:0:0:
256,192,64509,1,8,0:0:0:0:
256,192,64675,1,4,0:0:0:0:
256,192,65009,1,8,0:0:0:0:
256,192,65342,1,0,0:0:0:0:
256,192,65509,1,8,0:0:0:0:
256,192,65675,1,0,0:0:0:0:
256,192,66009,1,8,0:0:0:0:
256,192,66175,1,0,0:0:0:0:
256,192,66342,1,8,0:0:0:0:
256,192,66509,1,8,0:0:0:0:
256,192,66675,1,0,0:0:0:0:
256,192,66842,1,8,0:0:0:0:
256,192,66898,1,8,0:0:0:0:
256,192,66953,1,0,0:0:0:0:
256,192,67009,1,0,0:0:0:0:
256,192,67175,1,0,0:0:0:0:
256,192,67342,1,8,0:0:0:0:
256,192,67509,1,8,0:0:0:0:
256,192,67675,1,0,0:0:0:0:
256,192,68009,1,8,0:0:0:0:
256,192,68175,1,8,0:0:0:0:
256,192,68342,1,0,0:0:0:0:
256,192,68509,1,8,0:0:0:0:
256,192,68675,1,0,0:0:0:0:
256,192,69009,1,0,0:0:0:0:
256,192,69175,1,8,0:0:0:0:
256,192,69342,1,0,0:0:0:0:
256,192,69509,1,0,0:0:0:0:
256,192,69675,1,8,0:0:0:0:
256,192,70009,1,0,0:0:0:0:
256,192,70175,1,0,0:0:0:0:
256,192,70342,1,8,0:0:0:0:
256,192,70509,1,8,0:0:0:0:
256,192,70675,1,0,0:0:0:0:
256,192,70842,1,8,0:0:0:0:
256,192,70925,1,8,0:0:0:0:
256,192,71009,1,0,0:0:0:0:
256,192,71175,1,8,0:0:0:0:
256,192,71342,1,0,0:0:0:0:
256,192,71509,1,0,0:0:0:0:
256,192,71675,1,12,0:0:0:0:
256,192,71842,1,0,0:0:0:0:
256,192,71925,1,0,0:0:0:0:
256,192,72009,1,8,0:0:0:0:
256,192,72175,1,0,0:0:0:0:
256,192,72231,1,8,0:0:0:0:
256,192,72287,1,8,0:0:0:0:
256,192,72342,1,0,0:0:0:0:
256,192,72509,1,8,0:0:0:0:
256,192,72675,1,4,0:0:0:0:
256,192,73009,1,8,0:0:0:0:
256,192,73342,1,0,0:0:0:0:
256,192,73509,1,8,0:0:0:0:
256,192,73675,1,0,0:0:0:0:
256,192,74009,1,8,0:0:0:0:
256,192,74175,1,0,0:0:0:0:
256,192,74342,1,8,0:0:0:0:
256,192,74509,1,8,0:0:0:0:
256,192,74675,1,0,0:0:0:0:
256,192,74842,1,8,0:0:0:0:
256,192,74898,1,8,0:0:0:0:
256,192,74953,1,0,0:0:0:0:
256,192,75009,1,0,0:0:0:0:
256,192,75175,1,0,0:0:0:0:
256,192,75342,1,12,0:0:0:0:
256,192,75509,1,8,0:0:0:0:
256,192,75675,1,4,0:0:0:0:
256,192,76009,1,8,0:0:0:0:
256,192,76175,1,4,0:0:0:0:
256,192,76342,1,8,0:0:0:0:
256,192,76509,1,8,0:0:0:0:
256,192,76675,1,4,0:0:0:0:
256,192,77009,1,0,0:0:0:0:
256,192,77175,1,8,0:0:0:0:
256,192,77342,1,0,0:0:0:0:
256,192,77509,1,0,0:0:0:0:
256,192,77675,1,8,0:0:0:0:
256,192,77842,1,8,0:0:0:0:
256,192,78009,1,0,0:0:0:0:
256,192,78175,1,8,0:0:0:0:
256,192,78509,1,8,0:0:0:0:
256,192,78675,1,0,0:0:0:0:
256,192,78842,1,8,0:0:0:0:
256,192,78898,1,8,0:0:0:0:
256,192,78953,1,0,0:0:0:0:
256,192,79009,1,8,0:0:0:0:
256,192,79175,1,0,0:0:0:0:
256,192,79342,1,12,0:0:0:0:
256,192,79509,1,8,0:0:0:0:
256,192,79675,1,4,0:0:0:0:
256,192,79842,1,8,0:0:0:0:
256,192,79898,1,8,0:0:0:0:
256,192,79953,1,0,0:0:0:0:
256,192,80009,1,0,0:0:0:0:
256,192,80175,1,0,0:0:0:0:
256,192,80342,1,8,0:0:0:0:
256,192,80509,1,8,0:0:0:0:
256,192,80675,1,4,0:0:0:0:
256,192,81009,1,8,0:0:0:0:
256,192,81342,1,0,0:0:0:0:
256,192,81509,1,8,0:0:0:0:
256,192,81675,1,0,0:0:0:0:
256,192,82009,1,8,0:0:0:0:
256,192,82175,1,0,0:0:0:0:
256,192,82342,1,8,0:0:0:0:
256,192,82509,1,8,0:0:0:0:
256,192,82675,1,0,0:0:0:0:
256,192,82842,1,8,0:0:0:0:
256,192,82898,1,8,0:0:0:0:
256,192,82953,1,0,0:0:0:0:
256,192,83009,1,0,0:0:0:0:
256,192,83175,1,0,0:0:0:0:
256,192,83342,1,8,0:0:0:0:
256,192,83509,1,8,0:0:0:0:
256,192,83675,1,0,0:0:0:0:
256,192,84009,1,8,0:0:0:0:
256,192,84175,1,8,0:0:0:0:
256,192,84342,1,0,0:0:0:0:
256,192,84509,1,8,0:0:0:0:
256,192,84675,1,0,0:0:0:0:
256,192,85009,1,0,0:0:0:0:
256,192,85175,1,8,0:0:0:0:
256,192,85342,1,0,0:0:0:0:
256,192,85509,1,0,0:0:0:0:
256,192,85675,1,8,0:0:0:0:
256,192,86009,1,0,0:0:0:0:
256,192,86175,1,0,0:0:0:0:
256,192,86342,1,8,0:0:0:0:
256,192,86509,1,8,0:0:0:0:
256,192,86675,1,0,0:0:0:0:
256,192,86842,1,8,0:0:0:0:
256,192,86925,1,8,0:0:0:0:
256,192,87009,1,0,0:0:0:0:
256,192,87175,1,8,0:0:0:0:
256,192,87342,1,0,0:0:0:0:
256,192,87509,1,0,0:0:0:0:
256,192,87675,1,12,0:0:0:0:
256,192,87842,1,0,0:0:0:0:
256,192,87925,1,0,0:0:0:0:
256,192,88009,1,8,0:0:0:0:
256,192,88175,1,0,0:0:0:0:
256,192,88231,1,8,0:0:0:0:
256,192,88287,1,8,0:0:0:0:
256,192,88342,1,0,0:0:0:0:
256,192,88509,1,8,0:0:0:0:
256,192,88675,1,4,0:0:0:0:
256,192,89009,1,8,0:0:0:0:
256,192,89342,1,0,0:0:0:0:
256,192,89509,1,8,0:0:0:0:
256,192,89675,1,0,0:0:0:0:
256,192,90009,1,8,0:0:0:0:
256,192,90175,1,0,0:0:0:0:
256,192,90342,1,8,0:0:0:0:
256,192,90509,1,8,0:0:0:0:
256,192,90675,1,0,0:0:0:0:
256,192,90842,1,8,0:0:0:0:
256,192,90898,1,8,0:0:0:0:
256,192,90953,1,0,0:0:0:0:
256,192,91009,1,0,0:0:0:0:
256,192,91175,1,0,0:0:0:0:
256,192,91342,1,12,0:0:0:0:
256,192,91509,1,8,0:0:0:0:
256,192,91675,1,4,0:0:0:0:
256,192,92009,1,8,0:0:0:0:
256,192,92175,1,4,0:0:0:0:
256,192,92342,1,8,0:0:0:0:
256,192,92509,1,8,0:0:0:0:
256,192,92675,1,4,0:0:0:0:
256,192,93009,1,0,0:0:0:0:
256,192,93175,1,8,0:0:0:0:
256,192,93342,1,0,0:0:0:0:
256,192,93509,1,0,0:0:0:0:
256,192,93675,1,8,0:0:0:0:
256,192,93842,1,8,0:0:0:0:
256,192,94009,1,0,0:0:0:0:
256,192,94175,1,8,0:0:0:0:
256,192,94509,1,8,0:0:0:0:
256,192,94675,1,0,0:0:0:0:
256,192,94842,1,0,0:0:0:0:
256,192,95009,1,8,0:0:0:0:
256,192,95175,1,0,0:0:0:0:
256,192,95342,1,8,0:0:0:0:
256,192,95509,1,8,0:0:0:0:
256,192,95675,1,0,0:0:0:0:
256,192,96675,12,0,100675,0:0:0:0:
