osu file format v14

[General]
AudioFilename: audio.mp3
AudioLeadIn: 0
PreviewTime: 17666
Countdown: 0
SampleSet: Soft
StackLeniency: 0.4
Mode: 0
LetterboxInBreaks: 0
WidescreenStoryboard: 1

[Editor]
Bookmarks: 22333,49833
DistanceSpacing: 1.5
BeatDivisor: 4
GridSize: 8
TimelineZoom: 1.6

[Metadata]
Title:Moon Halo
TitleUnicode:Moon Halo
Artist:M2U
ArtistUnicode:M2U
Creator:Minorsonek
Version:Infinity
Source:Deemo
Tags:piano Diversity Namki bossandy FlobuFlobs gary00737 RVMathew Seulgij
BeatmapID:1648966
BeatmapSetID:782778

[Difficulty]
HPDrainRate:6
CircleSize:4.4
OverallDifficulty:8.8
ApproachRate:9.4
SliderMultiplier:2
SliderTickRate:1

[Events]
//Background and Video events
0,0,"IMG_20180506_170201.jpg",0,0
//Break Periods
//Storyboard Layer 0 (Background)
//Storyboard Layer 1 (Fail)
//Storyboard Layer 2 (Pass)
//Storyboard Layer 3 (Foreground)
//Storyboard Sound Samples

[TimingPoints]
2000,333.333333333333,3,2,2,80,1,0
2000,-100,4,2,2,80,0,0
2249,-100,4,2,2,5,0,0
2333,-100,3,2,3,80,0,0
2583,-100,3,2,3,5,0,0
2666,-100,3,2,4,80,0,0
2999,-100,3,2,5,80,0,0
3249,-100,3,2,5,5,0,0
3333,-100,3,2,6,80,0,0
3583,-100,3,2,6,5,0,0
3666,-100,3,2,7,40,0,0
3833,-100,3,2,8,40,0,0
3999,-100,4,2,7,80,0,0
4166,-100,4,2,7,40,0,0
4333,-100,4,2,5,80,0,0
4499,-100,4,2,5,40,0,0
4666,-100,4,2,9,80,0,0
4833,-100,4,2,9,40,0,0
4999,-100,4,2,2,80,0,0
5333,-76.9230769230769,4,2,12,80,0,0
5416,-76.9230769230769,4,2,12,5,0,0
5499,-133.333333333333,4,2,6,80,0,0
5666,-133.333333333333,4,2,7,80,0,0
5833,-133.333333333333,4,2,8,80,0,0
5999,-100,4,2,10,80,0,0
6666,-100,4,2,6,80,0,0
6833,-100,4,2,5,80,0,0
6999,-100,4,2,7,80,0,0
7249,-100,4,2,7,5,0,0
7333,-100,4,2,7,80,0,0
7499,-100,4,2,8,80,0,0
7666,-100,4,2,7,80,0,0
7833,-100,4,2,6,80,0,0
7999,-100,4,2,2,80,0,0
8166,-100,4,2,11,80,0,0
8333,-100,4,2,6,80,0,0
8499,-100,4,2,11,80,0,0
8666,-100,4,2,7,80,0,0
8833,-100,4,2,11,80,0,0
8999,-100,4,2,14,80,0,0
9166,-100,4,2,16,80,0,0
9333,-100,4,2,7,80,0,0
9499,-100,4,2,16,80,0,0
9666,-100,4,2,5,80,0,0
9999,-100,4,2,2,80,0,0
10249,-100,4,2,2,5,0,0
10332,-100,4,2,3,80,0,0
10583,-100,4,2,3,5,0,0
10665,-100,4,2,4,80,0,0
10998,-100,4,2,5,80,0,0
11249,-100,4,2,5,5,0,0
11332,-100,4,2,6,80,0,0
11583,-100,4,2,6,5,0,0
11665,-100,4,2,7,80,0,0
11832,-100,4,2,8,80,0,0
11999,-100,4,2,7,80,0,0
12166,-100,4,2,7,40,0,0
12332,-100,4,2,5,80,0,0
12499,-100,4,2,5,40,0,0
12665,-100,4,2,9,80,0,0
12833,-100,4,2,9,40,0,0
12998,-100,4,2,2,80,0,0
13333,-100,4,2,16,80,0,0
13499,-100,4,2,6,80,0,0
13666,-100,4,2,7,80,0,0
13833,-100,4,2,6,80,0,0
13999,-100,4,2,2,80,0,0
14333,-100,4,2,17,80,0,0
14499,-100,4,2,11,80,0,0
14666,-100,4,2,10,80,0,0
14833,-100,4,2,8,80,0,0
14999,-100,4,2,7,80,0,0
15166,-100,4,2,12,80,0,0
15333,-100,4,2,11,80,0,0
15499,-100,4,2,8,80,0,0
15833,-100,4,2,18,80,0,0
15999,-100,4,2,10,80,0,0
16666,-100,4,3,1,80,0,0
16999,-133.333333333333,4,2,2,80,0,0
17666,-133.333333333333,4,2,10,80,0,0
17833,-133.333333333333,4,2,12,80,0,0
17916,-133.333333333333,4,2,16,80,0,0
17999,-111.111111111111,4,2,14,80,0,0
18249,-111.111111111111,4,2,16,5,0,0
18333,-111.111111111111,4,2,7,80,0,0
18583,-111.111111111111,4,2,16,5,0,0
18666,-111.111111111111,4,2,6,80,0,0
18916,-111.111111111111,4,2,16,5,0,0
18999,-111.111111111111,4,2,2,80,0,0
19166,-111.111111111111,4,2,19,80,0,0
19333,-111.111111111111,4,2,9,80,0,0
19499,-111.111111111111,4,2,19,80,0,0
19666,-111.111111111111,4,2,5,80,0,0
19916,-111.111111111111,4,2,19,5,0,0
19999,-100,4,2,20,80,0,0
20416,-100,4,2,20,5,0,0
20499,-100,4,2,9,80,0,0
20666,-100,4,2,2,80,0,0
20833,-100,4,2,7,80,0,0
20999,-111.111111111111,4,2,19,80,0,0
21166,-111.111111111111,4,2,10,80,0,0
21666,-111.111111111111,4,2,10,80,0,0
21916,-111.111111111111,4,2,12,5,0,0
21999,-111.111111111111,4,2,14,80,0,0
22249,-111.111111111111,4,2,16,5,0,0
22333,-111.111111111111,4,2,7,80,0,0
22583,-111.111111111111,4,2,16,5,0,0
22666,-111.111111111111,4,2,6,80,0,0
22916,-111.111111111111,4,2,16,5,0,0
22999,-111.111111111111,4,2,2,80,0,0
23166,-111.111111111111,4,2,19,80,0,0
23333,-111.111111111111,4,2,9,80,0,0
23499,-111.111111111111,4,2,14,80,0,0
23666,-111.111111111111,4,2,19,80,0,0
23833,-111.111111111111,4,2,21,80,0,0
23999,-111.111111111111,4,2,10,80,0,0
24416,-111.111111111111,4,2,16,5,0,0
24499,-111.111111111111,4,2,7,80,0,0
24666,-111.111111111111,4,2,20,80,0,0
24833,-111.111111111111,4,2,2,80,0,0
24999,-111.111111111111,4,2,6,80,0,0
25166,-111.111111111111,4,2,2,80,0,0
25333,-111.111111111111,4,2,3,80,0,0
25833,-111.111111111111,4,2,10,80,0,0
25999,-111.111111111111,4,2,2,80,0,0
26249,-111.111111111111,4,2,2,5,0,0
26333,-100,4,2,11,80,0,0
26499,-100,4,2,10,80,0,0
26666,-111.111111111111,4,2,10,80,0,0
26833,-111.111111111111,4,2,2,80,0,0
26999,-111.111111111111,4,2,22,80,0,0
27166,-111.111111111111,4,2,8,80,0,0
27333,-111.111111111111,4,2,13,80,0,0
27499,-111.111111111111,4,2,20,80,0,0
27666,-111.111111111111,4,2,5,80,0,0
27833,-111.111111111111,4,2,13,80,0,0
27999,-83.3333333333333,4,2,5,80,0,0
28249,-83.3333333333333,4,2,5,5,0,0
28333,-76.9230769230769,4,2,20,80,0,0
28583,-76.9230769230769,4,2,20,5,0,0
28666,-71.4285714285714,4,2,4,80,0,0
28916,-71.4285714285714,4,2,4,5,0,0
28999,-66.6666666666667,4,2,23,80,0,0
29499,-66.6666666666667,4,2,3,80,0,0
29999,-111.111111111111,4,2,4,80,0,0
30499,-111.111111111111,4,2,24,80,0,0
30666,-111.111111111111,4,2,4,80,0,0
30833,-111.111111111111,4,2,3,80,0,0
30999,-111.111111111111,4,2,4,80,0,0
31499,-111.111111111111,4,2,20,80,0,0
31666,-111.111111111111,4,2,5,80,0,0
31833,-111.111111111111,4,2,20,80,0,0
31999,-111.111111111111,4,2,4,80,0,0
32333,-83.3333333333333,4,2,11,80,0,0
32666,-83.3333333333333,4,2,6,80,0,0
32999,-83.3333333333333,4,2,21,80,0,0
33249,-83.3333333333333,4,2,21,5,0,0
33333,-83.3333333333333,4,2,10,80,0,0
33666,-100,4,2,8,80,0,0
33916,-100,4,2,8,5,0,0
33999,-83.3333333333333,4,2,2,80,0,0
34249,-83.3333333333333,4,2,2,5,0,0
34332,-83.3333333333333,4,2,3,80,0,0
34665,-83.3333333333333,4,2,4,80,0,0
34998,-83.3333333333333,4,2,5,80,0,0
35332,-83.3333333333333,4,2,6,80,0,0
35583,-83.3333333333333,4,2,6,5,0,0
35665,-83.3333333333333,4,2,7,80,0,0
35832,-83.3333333333333,4,2,8,80,0,0
35998,-83.3333333333333,4,2,7,80,0,0
36249,-83.3333333333333,4,2,7,5,0,0
36332,-83.3333333333333,4,2,5,80,0,0
36499,-83.3333333333333,4,2,5,40,0,0
36665,-83.3333333333333,4,2,9,80,0,0
36833,-83.3333333333333,4,2,9,40,0,0
36998,-83.3333333333333,4,2,2,80,0,0
37332,-83.3333333333333,4,2,12,80,0,0
37498,-83.3333333333333,4,2,6,80,0,0
37665,-83.3333333333333,4,2,7,80,0,0
37832,-83.3333333333333,4,2,8,80,0,0
37999,-100,4,2,10,80,0,0
38666,-100,4,2,6,80,0,0
38833,-100,4,2,5,80,0,0
38998,-100,4,2,7,80,0,0
39249,-100,4,2,7,5,0,0
39333,-100,4,2,7,80,0,0
39498,-100,4,2,8,80,0,0
39665,-100,4,2,7,80,0,0
39832,-100,4,2,6,80,0,0
39998,-100,4,2,2,80,0,0
40165,-100,4,2,11,80,0,0
40332,-100,4,2,6,80,0,0
40498,-100,4,2,11,80,0,0
40583,-83.3333333333333,4,2,5,5,0,0
40666,-100,4,2,7,80,0,0
40832,-100,4,2,11,80,0,0
40998,-100,4,2,14,80,0,0
41249,-100,4,2,15,5,0,0
41332,-100,4,2,7,80,0,0
41665,-100,4,2,5,80,0,0
41999,-83.3333333333333,4,2,2,80,0,0
42249,-83.3333333333333,4,2,2,5,0,0
42331,-83.3333333333333,4,2,3,80,0,0
42664,-83.3333333333333,4,2,4,80,0,0
42997,-83.3333333333333,4,2,5,80,0,0
43331,-83.3333333333333,4,2,6,80,0,0
43583,-83.3333333333333,4,2,6,5,0,0
43664,-83.3333333333333,4,2,7,80,0,0
43831,-83.3333333333333,4,2,8,80,0,0
43998,-83.3333333333333,4,2,7,80,0,0
44249,-83.3333333333333,4,2,7,5,0,0
44331,-83.3333333333333,4,2,5,80,0,0
44664,-83.3333333333333,4,2,9,80,0,0
44997,-83.3333333333333,4,2,2,80,0,0
45332,-83.3333333333333,4,2,16,80,0,0
45498,-83.3333333333333,4,2,6,80,0,0
45665,-83.3333333333333,4,2,7,80,0,0
45832,-83.3333333333333,4,2,6,80,0,0
45999,-100,4,2,2,80,0,0
46332,-100,4,2,17,80,0,0
46498,-100,4,2,11,80,0,0
46665,-100,4,2,10,80,0,0
46832,-100,4,2,8,80,0,0
46998,-100,4,2,7,80,0,0
47165,-100,4,2,12,80,0,0
47332,-100,4,2,11,80,0,0
47498,-100,4,2,8,80,0,0
47749,-100,4,2,8,5,0,0
47832,-100,4,2,18,80,0,0
47998,-100,4,2,10,80,0,0
48333,-133.333333333333,4,2,17,55,0,0
48583,-133.333333333333,4,2,11,5,0,0
48666,-200,4,2,45,45,0,0
48916,-200,4,2,11,5,0,0
48999,-400,4,2,46,35,0,0
49666,-400,4,2,25,80,0,0
49833,-400,4,2,28,25,0,0
49916,-400,4,2,25,30,0,0
49999,-400,4,2,27,80,0,0
50166,-400,4,2,28,80,0,0
50333,-400,4,2,29,80,0,0
50499,-400,4,2,27,80,0,0
50666,-400,4,2,28,80,0,0
50833,-400,4,2,29,80,0,0
50999,-400,4,2,27,80,0,0
51166,-400,4,2,28,80,0,0
51333,-400,4,2,30,80,0,0
51499,-400,4,2,31,80,0,0
51666,-400,4,2,28,80,0,0
51833,-400,4,2,30,80,0,0
51999,-400,4,2,27,80,0,0
52166,-400,4,2,1,80,0,0
52499,-400,4,2,32,80,0,0
52666,-400,4,2,33,80,0,0
52833,-400,4,2,31,80,0,0
52999,-400,4,2,27,80,0,0
53166,-400,4,2,34,80,0,0
53333,-400,4,2,35,80,0,0
53499,-400,4,2,31,80,0,0
53666,-400,4,2,36,80,0,0
53833,-400,4,2,1,80,0,0
53999,-400,4,2,27,80,0,0
54166,-400,4,2,28,80,0,0
54333,-400,4,2,29,80,0,0
54499,-400,4,2,27,80,0,0
54666,-400,4,2,28,80,0,0
54833,-400,4,2,29,80,0,0
54999,-400,4,2,27,80,0,0
55166,-400,4,2,28,80,0,0
55333,-400,4,2,30,80,0,0
55499,-400,4,2,31,80,0,0
55666,-400,4,2,28,80,0,0
55833,-200,4,2,30,80,0,0
55916,-400,4,2,2,80,0,0
55999,-400,4,2,27,80,0,0
56166,-400,4,2,1,80,0,0
56333,-133.333333333333,4,2,11,80,0,0
56583,-133.333333333333,4,2,11,5,0,0
56666,-117.647058823529,4,2,20,80,0,0
56916,-117.647058823529,4,2,20,5,0,0
56999,-111.111111111111,4,2,37,80,0,0
57249,-111.111111111111,4,2,37,5,0,0
57333,-111.111111111111,4,2,20,80,0,0
57666,-111.111111111111,4,2,4,80,0,0
57916,-111.111111111111,4,2,4,5,0,0
57999,-100,4,2,3,80,0,0
58499,-100,4,2,15,80,0,0
58666,-100,4,2,38,80,0,0
58999,-66.6666666666667,4,2,4,80,0,0
59333,-66.6666666666667,4,2,6,80,0,0
59499,-66.6666666666667,4,2,5,80,0,0
59833,-100,4,2,2,80,0,0
59999,-100,4,2,5,80,0,0
60249,-100,4,2,5,5,0,0
60333,-100,4,2,38,80,0,0
60666,-100,4,2,3,80,0,0
60999,-83.3333333333333,4,2,38,80,0,0
61249,-83.3333333333333,4,2,38,5,0,0
61333,-83.3333333333333,4,2,3,80,0,0
61583,-83.3333333333333,4,2,3,5,0,0
61666,-83.3333333333333,4,2,5,80,0,0
61999,-100,4,2,2,80,0,0
62333,-100,4,2,11,80,0,0
62499,-100,4,2,10,80,0,0
62666,-100,4,2,2,80,0,0
62833,-100,4,2,20,80,0,0
62999,-100,4,2,37,80,0,0
63333,-100,4,2,20,80,0,0
63666,-100,4,2,3,80,0,0
63999,-83.3333333333333,4,2,3,80,0,0
64249,-83.3333333333333,4,2,3,5,0,0
64333,-83.3333333333333,4,2,10,80,0,0
64666,-83.3333333333333,4,2,19,80,0,0
64999,-83.3333333333333,4,2,4,80,0,0
65249,-83.3333333333333,4,2,4,5,0,0
65333,-83.3333333333333,4,2,37,80,0,0
65499,-83.3333333333333,4,2,6,80,0,0
65666,-100,4,2,7,80,0,0
65833,-100,4,2,6,80,0,0
65999,-83.3333333333333,4,2,2,80,0,0
66249,-83.3333333333333,4,2,2,5,0,0
66333,-83.3333333333333,4,2,3,80,0,0
66666,-83.3333333333333,4,2,4,80,0,0
66999,-83.3333333333333,4,2,5,80,0,0
67333,-83.3333333333333,4,2,6,80,0,0
67583,-83.3333333333333,4,2,6,5,0,0
67666,-83.3333333333333,4,2,7,80,0,0
67833,-83.3333333333333,4,2,8,80,0,0
67999,-83.3333333333333,4,2,7,80,0,0
68249,-83.3333333333333,4,2,13,80,0,0
68333,-83.3333333333333,4,2,5,80,0,0
68666,-83.3333333333333,4,2,9,80,0,0
68999,-83.3333333333333,4,2,2,80,0,0
69333,-83.3333333333333,4,2,12,80,0,0
69499,-83.3333333333333,4,2,6,80,0,0
69666,-83.3333333333333,4,2,7,80,0,0
69833,-83.3333333333333,4,2,8,80,0,0
69999,-100,4,2,10,80,0,0
70333,-100,4,2,12,80,0,0
70499,-100,4,2,10,80,0,0
70666,-100,4,2,6,80,0,0
70833,-100,4,2,5,80,0,0
70999,-100,4,2,7,80,0,0
71249,-100,4,2,7,5,0,0
71333,-100,4,2,7,80,0,0
71499,-100,4,2,8,80,0,0
71666,-100,4,2,7,80,0,0
71833,-100,4,2,6,80,0,0
71999,-100,4,2,2,80,0,0
72166,-100,4,2,11,80,0,0
72333,-100,4,2,6,80,0,0
72499,-83.3333333333333,4,2,11,80,0,0
72583,-83.3333333333333,4,2,11,5,0,0
72666,-100,4,2,7,80,0,0
72833,-100,4,2,11,80,0,0
72999,-100,4,2,14,80,0,0
73249,-100,4,2,16,5,0,0
73333,-100,4,2,7,80,0,0
73499,-100,4,2,16,80,0,0
73666,-100,4,2,5,80,0,0
73833,-100,4,2,9,80,0,0
73999,-83.3333333333333,4,2,2,80,0,0
74249,-83.3333333333333,4,2,2,5,0,0
74333,-83.3333333333333,4,2,3,80,0,0
74666,-83.3333333333333,4,2,4,80,0,0
74999,-83.3333333333333,4,2,5,80,0,0
75333,-83.3333333333333,4,2,6,80,0,0
75583,-83.3333333333333,4,2,6,5,0,0
75666,-83.3333333333333,4,2,7,80,0,0
75833,-83.3333333333333,4,2,8,80,0,0
75999,-83.3333333333333,4,2,7,80,0,0
76249,-83.3333333333333,4,2,7,5,0,0
76333,-83.3333333333333,4,2,5,80,0,0
76666,-83.3333333333333,4,2,9,80,0,0
76999,-83.3333333333333,4,2,2,80,0,0
77249,-83.3333333333333,4,2,2,5,0,0
77333,-83.3333333333333,4,2,16,80,0,0
77499,-83.3333333333333,4,2,6,80,0,0
77666,-83.3333333333333,4,2,7,80,0,0
77833,-83.3333333333333,4,2,6,80,0,0
77999,-100,4,2,2,80,0,0
78333,-100,4,2,12,30,0,0
78499,-100,4,2,11,80,0,0
78666,-100,4,2,10,80,0,0
78833,-100,4,2,8,80,0,0
78999,-100,4,2,7,80,0,0
79166,-100,4,2,12,80,0,0
79333,-100,4,2,21,80,0,0
79499,-100,4,2,8,80,0,0
79749,-100,4,2,8,5,0,0
79833,-100,4,2,7,80,0,0
79999,-100,4,2,10,80,0,0
80166,-100,4,2,7,80,0,0
80249,-100,4,2,2,40,0,0
80333,-66.6666666666667,4,2,5,80,0,0
80666,-66.6666666666667,4,2,20,80,0,0
80999,-66.6666666666667,4,2,2,80,0,0
81249,-66.6666666666667,4,2,2,5,0,0
81333,-100,4,2,2,80,0,0
81499,-100,4,2,6,80,0,0
81666,-100,4,2,7,80,0,0
81833,-100,4,2,6,80,0,0
81999,-83.3333333333333,4,2,2,80,0,0
82249,-83.3333333333333,4,2,2,5,0,0
82333,-83.3333333333333,4,2,3,80,0,0
82666,-83.3333333333333,4,2,4,80,0,0
82999,-83.3333333333333,4,2,5,80,0,0
83333,-83.3333333333333,4,2,6,80,0,0
83583,-83.3333333333333,4,2,6,5,0,0
83666,-83.3333333333333,4,2,7,80,0,0
83833,-83.3333333333333,4,2,8,80,0,0
83999,-83.3333333333333,4,2,7,80,0,0
84249,-83.3333333333333,4,2,7,5,0,0
84333,-83.3333333333333,4,2,5,80,0,0
84666,-83.3333333333333,4,2,9,80,0,0
84999,-83.3333333333333,4,2,2,80,0,0
85333,-83.3333333333333,4,2,11,80,0,0
85499,-83.3333333333333,4,2,6,80,0,0
85666,-83.3333333333333,4,2,7,80,0,0
85833,-83.3333333333333,4,2,8,80,0,0
85999,-100,4,2,10,80,0,0
86333,-100,4,2,12,30,0,0
86499,-100,4,2,10,80,0,0
86666,-100,4,2,6,80,0,0
86833,-100,4,2,5,80,0,0
86999,-100,4,2,7,80,0,0
87249,-100,4,2,7,5,0,0
87333,-100,4,2,7,30,0,0
87499,-100,4,2,8,80,0,0
87666,-100,4,2,7,80,0,0
87833,-100,4,2,6,80,0,0
87999,-100,4,2,2,80,0,0
88166,-100,4,2,12,30,0,0
88333,-100,4,2,6,80,0,0
88499,-83.3333333333333,4,2,12,80,0,0
88583,-83.3333333333333,4,2,12,5,0,0
88666,-100,4,2,7,80,0,0
88833,-100,4,2,12,30,0,0
88999,-100,4,2,14,80,0,0
89249,-100,4,2,16,5,0,0
89333,-100,4,2,7,80,0,0
89499,-100,4,2,16,80,0,0
89666,-100,4,2,5,80,0,0
89833,-100,4,2,9,80,0,0
89999,-83.3333333333333,4,2,2,80,0,0
90249,-83.3333333333333,4,2,2,5,0,0
90333,-83.3333333333333,4,2,3,80,0,0
90666,-83.3333333333333,4,2,4,80,0,0
90999,-83.3333333333333,4,2,5,80,0,0
91333,-83.3333333333333,4,2,6,80,0,0
91583,-83.3333333333333,4,2,6,5,0,0
91666,-83.3333333333333,4,2,7,80,0,0
91833,-83.3333333333333,4,2,8,80,0,0
91999,-83.3333333333333,4,2,7,45,0,0
92249,-83.3333333333333,4,2,7,5,0,0
92333,-83.3333333333333,4,2,5,55,0,0
92666,-83.3333333333333,4,2,9,65,0,0
92999,-83.3333333333333,4,2,2,80,0,0
93249,-83.3333333333333,4,2,2,5,0,0
93333,-83.3333333333333,4,2,16,30,0,0
93499,-83.3333333333333,4,2,6,80,0,0
93666,-83.3333333333333,4,2,7,80,0,0
93833,-83.3333333333333,4,2,6,80,0,0
93999,-100,4,2,2,80,0,0
94333,-100,4,2,12,30,0,0
94499,-100,4,2,11,80,0,0
94666,-100,4,2,10,80,0,0
94833,-100,4,2,8,80,0,0
94999,-100,4,2,7,80,0,0
95166,-100,4,2,12,80,0,0
95333,-100,4,2,21,80,0,0
95499,-100,4,2,8,80,0,0
95749,-100,4,2,8,5,0,0
95833,-100,4,2,7,80,0,0
95999,-100,4,2,10,80,0,0
96333,-133.333333333333,4,2,17,65,0,0
96583,-133.333333333333,4,2,17,5,0,0
96666,-200,4,2,45,55,0,0
96916,-200,4,2,45,5,0,0
96999,-400,4,2,46,45,0,0
97999,342.857142857143,4,2,44,40,1,0
97999,-250,4,2,44,40,0,0
98341,362.537764350453,3,2,36,40,1,0
98341,-200,3,2,36,40,0,0
98522,420.333333333333,3,2,47,40,1,0
98522,-200,3,2,47,40,0,0
98732,434.782608695652,3,2,34,40,1,0
98732,-200,3,2,34,40,0,0
98949,-100,3,2,33,40,0,0
99146,474.308300395257,3,2,32,40,1,0
99146,-100,3,2,32,40,0,0
99383,438.59649122807,3,2,35,40,1,0
99383,-100,3,2,35,40,0,0
99603,-100,3,2,40,40,0,0
99819,584.666666666667,3,2,32,40,1,0
99819,-100,3,2,32,40,0,0
100403,462.249614791988,3,2,40,40,1,0
100403,-100,3,2,40,40,0,0
101791,464.538461538462,3,2,41,20,1,0
101791,-100,3,2,41,20,0,0
101907,-100,3,2,42,20,0,0
102023,-100,3,2,43,20,0,0
102720,338.333333333333,3,2,39,40,1,0
103058,-100,3,2,39,40,0,0
103142,-100,3,2,2,40,0,0
103735,436.333333333333,3,2,2,40,1,0
104171,-100,3,2,33,20,0,0

[Colours]
Combo1 : 0,255,255
Combo2 : 0,128,255

[HitObjects]
467,342,2000,6,0,P|394:322|319:318,1,150,6|0,0:0|0:0,0:0:0:0:
249,246,2333,2,0,P|321:226|395:221,1,150,2|0,0:0|0:0,0:0:0:0:
491,179,2666,1,2,0:0:0:0:
78,51,2999,6,0,P|92:124|78:198,1,150,2|0,0:0|0:0,0:0:0:0:
26,287,3333,2,0,B|98:278|83:355|171:346,1,150,2|0,0:0|0:0,0:0:0:0:
258,319,3666,1,2,0:0:0:0:
156,266,3833,1,2,0:0:0:0:
321,375,3999,6,0,P|337:328|328:280,1,100,2|0,0:0|0:0,0:0:0:0:
512,298,4333,2,0,P|496:251|505:202,1,100,2|0,0:0|0:0,0:0:0:0:
274,215,4666,2,0,P|289:168|280:119,1,100,2|0,0:0|0:0,0:0:0:0:
466,24,4999,5,2,0:0:0:0:
95,165,5333,6,0,L|88:97,1,64.9999970245363,10|0,0:0|0:0,0:0:0:0:
55,237,5499,1,10,0:0:0:0:
217,68,5666,1,6,0:3:0:0:
123,306,5833,1,6,0:3:0:0:
22,28,5999,6,0,P|78:23|197:119,1,200,6|0,0:0|0:0,0:0:0:0:
232,213,6499,1,2,0:0:0:0:
363,129,6666,1,2,0:0:0:0:
143,47,6833,1,2,0:0:0:0:
348,205,6999,6,0,P|418:186|439:117,1,150,2|0,0:0|0:0,0:0:0:0:
481,24,7333,2,0,P|437:43|390:29,1,100,4|2,0:0|0:0,0:0:0:0:
265,110,7666,1,2,0:0:0:0:
502,203,7833,1,2,0:0:0:0:
289,258,7999,5,6,0:0:0:0:
363,129,8166,1,2,0:0:0:0:
374,297,8333,5,2,0:0:0:0:
240,187,8500,1,2,0:0:0:0:
208,344,8666,5,2,0:0:0:0:
422,227,8833,1,2,0:0:0:0:
167,171,8999,6,0,P|96:188|73:252,1,100,2|2,0:0|0:0,0:0:0:0:
29,301,9333,1,2,0:0:0:0:
133,95,9499,1,2,0:0:0:0:
288,361,9666,1,2,0:0:0:0:
288,361,9999,6,0,P|320:294|387:264,1,150,6|0,0:0|0:0,0:0:0:0:
455,317,10333,2,0,P|382:330|317:294,1,150,2|0,0:0|0:0,0:0:0:0:
267,231,10666,1,2,0:0:0:0:
71,351,10999,6,0,P|88:278|73:205,1,150,2|0,0:0|0:0,0:0:0:0:
39,123,11333,2,0,B|111:128|89:42|177:58,1,150,2|0,0:0|0:0,0:0:0:0:
241,107,11666,1,2,0:0:0:0:
34,51,11833,1,2,0:0:0:0:
187,202,11999,6,0,P|233:217|286:210,1,100,2|0,0:0|0:0,0:0:0:0:
358,46,12333,2,0,P|387:85|398:134,1,100,2|0,0:0|0:0,0:0:0:0:
333,312,12666,2,0,P|369:278|388:232,1,100,2|0,0:0|0:0,0:0:0:0:
273,32,12999,5,2,0:0:0:0:
111,347,13333,5,2,0:0:0:0:
263,285,13499,1,2,0:0:0:0:
66,257,13666,1,2,0:0:0:0:
291,188,13833,1,2,0:0:0:0:
22,167,13999,6,0,P|80:95|30:16,1,200,2|2,0:0|0:0,0:0:0:0:
3,90,14499,1,2,0:0:0:0:
160,184,14666,1,2,0:0:0:0:
164,210,14749,1,0,0:0:0:0:
168,235,14833,1,2,0:0:0:0:
193,78,14999,5,2,0:0:0:0:
88,239,15166,1,2,0:0:0:0:
281,107,15333,5,6,0:0:0:0:
21,191,15500,2,0,P|4:238|17:286,1,100,2|0,0:0|0:0,0:0:0:0:
123,15,15833,5,2,0:0:0:0:
243,192,15999,2,0,L|250:291,1,100,2|0,0:0|0:0,0:0:0:0:
425,55,16333,5,12,0:0:0:0:
433,47,16666,1,8,0:0:0:0:
441,39,16999,6,0,B|415:91|440:136|440:136|424:152|424:152|448:207|423:254,1,225.000008583069,4|0,0:0|0:0,0:0:0:0:
377,346,17666,1,2,0:0:0:0:
377,346,17999,6,0,P|297:330|228:343,1,134.999995880127,6|0,0:0|0:0,0:0:0:0:
174,384,18333,2,0,P|227:322|251:256,1,134.999995880127,2|0,0:0|0:0,0:0:0:0:
246,194,18666,2,0,P|273:255|319:304,1,134.999995880127,2|0,0:0|0:0,0:0:0:0:
432,152,18999,5,10,0:0:0:0:
347,206,19166,1,2,0:0:0:0:
512,207,19333,1,2,0:0:0:0:
350,62,19499,1,2,0:0:0:0:
441,259,19666,2,0,B|385:244|380:320|296:300,1,134.999995880127,2|0,0:0|0:0,0:0:0:0:
145,230,19999,6,0,P|189:278|208:159,1,250,2|0,0:0|0:0,0:0:0:0:
146,146,20499,1,2,0:0:0:0:
296,103,20666,1,2,0:0:0:0:
96,61,20833,1,2,0:0:0:0:
345,23,20999,5,10,0:0:0:0:
366,136,21166,2,0,P|361:208|399:318,1,179.999994506836,2|0,0:0|0:0,0:0:0:0:
512,253,21666,2,0,B|459:249|450:327|372:307,1,134.999995880127,2|0,0:0|0:0,0:0:0:0:
303,288,21999,6,0,P|285:216|289:151,1,134.999995880127,2|0,0:0|0:0,0:0:0:0:
222,103,22333,2,0,P|204:175|208:240,1,134.999995880127,2|0,0:0|0:0,0:0:0:0:
141,289,22666,2,0,P|123:217|127:152,1,134.999995880127,2|0,0:0|0:0,0:0:0:0:
163,37,22999,5,10,0:0:0:0:
34,135,23166,1,2,0:0:0:0:
207,235,23333,1,2,0:0:0:0:
207,235,23499,1,2,0:0:0:0:
222,103,23666,1,2,0:0:0:0:
141,289,23833,1,2,0:0:0:0:
283,172,23999,6,0,B|369:130|393:250|502:182,1,224.999993133545,2|0,0:0|0:0,0:0:0:0:
438,118,24499,1,6,0:0:0:0:
319,243,24666,1,2,0:0:0:0:
371,53,24833,1,2,0:0:0:0:
407,309,24999,5,14,0:0:0:0:
193,120,25166,1,2,0:0:0:0:
464,28,25333,1,2,0:0:0:0:
56,361,25833,1,2,0:0:0:0:
101,296,25999,6,0,P|106:228|71:132,1,134.999995880127,6|0,0:0|0:0,0:0:0:0:
39,92,26333,2,0,P|74:128|123:138,1,100,2|2,0:0|0:0,0:0:0:0:
273,105,26666,1,2,0:0:0:0:
116,46,26833,1,2,0:0:0:0:
210,245,26999,5,10,0:0:0:0:
283,17,27166,1,2,0:0:0:0:
380,284,27333,1,2,0:0:0:0:
144,203,27499,1,2,0:0:0:0:
434,145,27666,1,2,0:0:0:0:
116,46,27833,1,2,0:0:0:0:
291,363,27999,6,0,P|303:305|289:175,1,179.999994506836,6|0,0:0|0:0,0:0:0:0:
85,47,28333,2,0,P|73:105|153:243,1,194.999991073609,10|0,2:1|0:0,0:0:0:0:
380,42,28666,2,0,P|277:41|204:113,1,209.999993591309,10|0,2:1|0:0,0:0:0:0:
232,288,28999,6,0,B|360:344|360:144|488:192,1,300.000011444092,14|0,0:1|0:0,0:0:0:0:
234,193,29499,6,0,B|362:145|362:345|490:289,1,300.000011444092,14|0,0:1|0:0,0:0:0:0:
58,344,29999,5,6,0:0:0:0:
58,344,30333,1,0,0:0:0:0:
232,288,30499,1,2,0:0:0:0:
0,221,30666,1,2,0:0:0:0:
266,157,30833,1,2,0:0:0:0:
163,381,30999,5,10,0:0:0:0:
163,381,31333,1,0,0:0:0:0:
367,284,31499,1,2,0:0:0:0:
266,157,31666,1,2,0:0:0:0:
337,371,31833,1,2,0:0:0:0:
441,91,31999,5,2,0:0:0:0:
56,367,32333,5,8,0:0:0:0:
67,351,32666,1,12,0:0:0:0:
77,335,32999,6,0,P|103:249|90:160,1,179.999994506836,14|0,0:0|0:0,0:0:0:0:
51,82,33333,1,2,0:0:0:0:
195,250,33499,1,8,0:0:0:0:
250,27,33666,2,0,B|321:17|312:99|394:80,1,150,2|0,0:0|0:0,0:0:0:0:
489,28,33999,6,0,P|444:104|443:193,1,179.999994506836,6|0,0:0|0:0,0:0:0:0:
508,292,34333,2,0,B|449:277|449:277|391:288,1,119.999996337891,2|0,0:0|0:0,0:0:0:0:
263,349,34666,2,0,B|204:364|204:364|146:352,1,119.999996337891,2|0,0:0|0:0,0:0:0:0:
7,192,34999,5,10,0:0:0:0:
7,192,35333,2,0,B|93:186|93:186|188:217,1,179.999994506836,2|0,0:0|0:0,0:0:0:0:
255,245,35666,1,2,0:0:0:0:
150,113,35833,1,2,0:0:0:0:
173,310,35999,6,0,P|258:280|346:294,1,179.999994506836,2|0,0:0|0:0,0:0:0:0:
441,339,36333,2,0,B|430:281|430:281|445:222,1,119.999996337891,2|0,0:0|0:0,0:0:0:0:
329,129,36666,2,0,B|284:167|284:167|225:184,1,119.999996337891,2|0,0:0|0:0,0:0:0:0:
456,94,36999,5,10,0:0:0:0:
456,94,37333,1,2,0:0:0:0:
278,34,37499,1,2,0:0:0:0:
445,221,37666,1,2,0:0:0:0:
390,0,37833,1,2,0:0:0:0:
349,268,37999,6,0,P|251:255|155:281,1,200,2|0,0:0|0:0,0:0:0:0:
60,343,38499,1,2,0:0:0:0:
100,233,38666,1,2,0:0:0:0:
139,381,38833,1,2,0:0:0:0:
34,173,38999,6,0,P|102:145|168:177,1,150,10|0,0:0|0:0,0:0:0:0:
223,238,39333,1,0,0:0:0:0:
218,111,39499,1,2,0:0:0:0:
157,280,39666,1,2,0:0:0:0:
317,154,39833,1,2,0:0:0:0:
100,233,39999,6,0,B|87:182|87:182|99:119,1,100,2|2,0:0|0:0,0:0:0:0:
118,35,40333,1,2,0:0:0:0:
24,111,40499,2,0,L|13:170,1,50,10|0,0:0|0:0,0:0:0:0:
63,300,40666,1,2,0:0:0:0:
161,167,40833,1,2,0:0:0:0:
171,384,40999,6,0,P|155:311|174:239,1,150,6|0,0:0|0:0,0:0:0:0:
233,151,41333,1,2,0:0:0:0:
98,216,41499,1,0,0:0:0:0:
290,247,41666,1,2,0:0:0:0:
133,67,41833,1,0,0:0:0:0:
10,299,41999,6,0,B|104:280|72:378|208:357,1,179.999994506836,6|0,0:0|0:0,0:0:0:0:
226,309,42333,2,0,B|211:250|211:250|222:192,1,119.999996337891,2|0,0:0|0:0,0:0:0:0:
340,74,42666,2,0,B|355:133|355:133|343:191,1,119.999996337891,2|0,0:0|0:0,0:0:0:0:
270,6,42999,5,10,0:0:0:0:
270,6,43333,2,0,P|179:56|81:62,1,179.999994506836,2|0,0:0|0:0,0:0:0:0:
32,29,43666,1,2,0:0:0:0:
175,134,43833,1,2,0:0:0:0:
0,129,43999,6,0,P|68:185|88:271,1,179.999994506836,2|0,0:0|0:0,0:0:0:0:
67,351,44333,2,0,B|125:340|125:340|184:355,1,119.999996337891,2|0,0:0|0:0,0:0:0:0:
292,138,44666,2,0,B|234:149|234:149|175:134,1,119.999996337891,2|0,0:0|0:0,0:0:0:0:
367,285,44999,5,10,0:0:0:0:
367,285,45333,1,2,0:0:0:0:
511,251,45499,1,2,0:0:0:0:
306,214,45666,1,2,0:0:0:0:
499,364,45833,1,2,0:0:0:0:
376,135,45999,6,0,B|275:148|290:50|190:67,1,200,2|2,0:0|0:0,0:0:0:0:
102,96,46499,1,2,0:0:0:0:
211,147,46666,1,2,0:0:0:0:
138,7,46833,1,2,0:0:0:0:
45,151,46999,5,10,0:0:0:0:
282,119,47166,1,2,0:0:0:0:
292,148,47249,1,0,0:0:0:0:
284,178,47332,1,2,0:0:0:0:
100,271,47499,2,0,P|147:254|238:308,1,150,2|0,0:0|0:0,0:0:0:0:
271,364,47833,5,2,0:0:0:0:
136,182,47999,2,0,L|143:83,1,100,2|0,0:0|0:0,0:0:0:0:
284,178,48333,6,0,P|243:196|194:185,1,75.0000028610231,2|0,0:0|0:0,0:0:0:0:
369,137,48666,6,0,P|378:167|374:212,1,75,2|0,0:0|0:0,0:0:0:0:
374,210,48999,6,0,P|369:269|390:314,1,100,6|2,0:0|0:0,0:0:0:0:
436,369,49833,6,0,L|449:358,2,12.5,2|2|2,0:0|0:0|0:0,0:0:0:0:
203,312,50333,1,2,0:0:0:0:
130,246,50499,1,2,0:0:0:0:
190,201,50666,1,2,0:0:0:0:
259,231,50833,1,2,0:0:0:0:
203,312,50999,5,2,0:0:0:0:
375,169,51333,1,2,0:0:0:0:
397,248,51499,1,2,0:0:0:0:
212,122,51833,1,2,0:0:0:0:
190,201,51999,1,2,0:0:0:0:
247,383,52333,5,2,0:0:0:0:
288,306,52499,1,2,0:0:0:0:
288,234,52666,1,2,0:0:0:0:
288,162,52833,1,2,0:0:0:0:
195,109,52999,5,2,0:0:0:0:
351,84,53166,1,2,0:0:0:0:
444,187,53333,5,2,0:0:0:0:
288,162,53500,1,2,0:0:0:0:
203,256,53666,5,2,0:0:0:0:
359,231,53833,1,2,0:0:0:0:
480,345,53999,5,2,0:0:0:0:
137,222,54333,1,2,0:0:0:0:
76,264,54499,1,2,0:0:0:0:
134,149,54666,1,2,0:0:0:0:
203,256,54833,1,2,0:0:0:0:
137,222,54999,5,2,0:0:0:0:
323,162,55333,1,2,0:0:0:0:
359,231,55499,1,2,0:0:0:0:
168,104,55833,2,0,L|163:76,1,25,2|0,0:0|0:0,0:0:0:0:
137,222,55999,1,2,0:0:0:0:
446,66,56333,6,0,P|378:95|338:86,1,112.500004291535,2|0,0:0|0:0,0:0:0:0:
275,37,56666,2,0,P|219:38|156:96,1,127.50000243187,2|0,0:0|0:0,0:0:0:0:
96,170,56999,6,0,B|160:161|149:236|226:226,1,134.999995880127,6|0,0:0|0:0,0:0:0:0:
294,193,57333,1,10,0:0:0:0:
258,307,57499,1,8,0:0:0:0:
220,153,57666,2,0,P|276:112|350:132,1,134.999995880127,6|0,0:3|0:0,0:0:0:0:
413,159,57999,6,0,P|453:75|355:147,1,300,6|0,0:0|0:0,0:0:0:0:
440,226,58666,2,0,P|493:195|523:150,1,100,2|0,0:0|0:0,0:0:0:0:
471,333,58999,6,0,B|340:363|344:196|203:222,1,300.000011444092,10|2,0:0|0:0,0:0:0:0:
88,322,59499,2,0,P|125:247|110:168,1,150.000005722046,10|0,0:0|0:0,0:0:0:0:
41,27,59833,1,2,0:0:0:0:
102,80,59999,6,0,P|174:97|249:92,1,150,6|0,0:0|0:0,0:0:0:0:
313,20,60333,2,0,P|272:47|249:92,1,100,10|0,0:0|0:0,0:0:0:0:
443,74,60666,2,0,P|393:77|352:104,1,100,2|0,0:0|0:0,0:0:0:0:
456,324,60999,6,0,P|464:252|387:129,1,179.999994506836,10|0,0:0|0:0,0:0:0:0:
274,281,61333,2,0,P|351:283|315:223,1,179.999994506836,10|0,0:0|0:0,0:0:0:0:
136,312,61666,1,10,0:0:0:0:
136,312,61999,6,0,B|79:239|206:212|136:112,1,200,6|2,0:0|0:0,0:0:0:0:
93,31,62499,1,2,0:0:0:0:
257,77,62666,1,2,0:0:0:0:
76,167,62833,1,2,0:0:0:0:
306,145,62999,6,0,P|333:104|334:55,1,100,10|0,0:0|0:0,0:0:0:0:
308,273,63333,2,0,P|330:317|372:342,1,100,2|0,0:0|0:0,0:0:0:0:
196,211,63666,2,0,P|146:208|103:231,1,100,2|0,0:0|0:0,0:0:0:0:
20,373,63999,6,0,P|34:285|27:195,1,179.999994506836,6|0,0:0|0:0,0:0:0:0:
0,109,64333,1,10,0:0:0:0:
166,289,64499,1,0,0:0:0:0:
131,38,64666,1,12,0:0:0:0:
27,195,64833,1,0,0:0:0:0:
215,82,64999,6,0,P|289:74|405:95,1,179.999994506836,14|0,0:0|0:0,0:0:0:0:
462,129,65333,1,2,0:0:0:0:
405,298,65499,1,10,0:0:0:0:
344,158,65666,2,0,P|285:150|225:161,1,100,2|2,0:0|0:0,0:0:0:0:
88,120,65999,6,0,P|108:207|91:294,1,179.999994506836,6|0,0:0|0:0,0:0:0:0:
61,375,66333,2,0,B|120:360|120:360|178:371,1,119.999996337891,2|0,0:0|0:0,0:0:0:0:
288,294,66666,2,0,B|347:309|347:309|405:297,1,119.999996337891,2|0,0:0|0:0,0:0:0:0:
512,192,66999,5,10,0:0:0:0:
512,192,67333,2,0,B|426:198|426:198|331:167,1,179.999994506836,2|0,0:0|0:0,0:0:0:0:
263,131,67666,1,2,0:0:0:0:
441,86,67833,1,2,0:0:0:0:
268,214,67999,6,0,P|211:197|192:85,1,179.999994506836,2|2,0:0|0:0,0:0:0:0:
225,23,68333,2,0,L|105:8,1,119.999996337891,2|0,0:0|0:0,0:0:0:0:
66,179,68666,2,0,L|185:164,1,119.999996337891,2|0,0:0|0:0,0:0:0:0:
138,318,68999,5,10,0:0:0:0:
138,318,69333,1,2,0:0:0:0:
311,271,69499,1,2,0:0:0:0:
85,252,69666,1,2,0:0:0:0:
286,364,69833,1,2,0:0:0:0:
170,93,69999,6,0,B|265:79|249:171|351:156,1,200,2|0,0:0|0:0,0:0:0:0:
454,125,70499,1,2,0:0:0:0:
326,75,70666,1,2,0:0:0:0:
432,236,70833,1,2,0:0:0:0:
380,14,70999,6,0,P|307:-4|250:44,1,150,10|0,0:0|0:0,0:0:0:0:
219,117,71333,1,0,0:0:0:0:
347,162,71499,1,2,0:0:0:0:
164,25,71666,1,2,0:0:0:0:
198,240,71833,1,2,0:0:0:0:
293,94,71999,6,0,B|344:81|344:81|407:93,1,100,2|2,0:0|0:0,0:0:0:0:
507,138,72333,1,2,0:0:0:0:
314,13,72499,2,0,L|253:28,1,59.9999981689454,10|0,0:0|0:0,0:0:0:0:
157,156,72666,1,2,0:0:0:0:
82,0,72833,1,2,0:0:0:0:
34,245,72999,6,0,P|106:227|181:231,1,150,6|0,0:0|0:0,0:0:0:0:
261,258,73333,1,2,0:0:0:0:
157,156,73499,1,2,0:0:0:0:
200,362,73666,1,2,0:0:0:0:
389,131,73833,1,2,0:0:0:0:
280,352,73999,6,0,P|260:265|277:178,1,179.999994506836,6|0,0:0|0:0,0:0:0:0:
313,87,74333,2,0,B|254:102|254:102|196:91,1,119.999996337891,2|0,0:0|0:0,0:0:0:0:
372,14,74666,2,0,B|430:2|430:2|489:17,1,119.999996337891,2|0,0:0|0:0,0:0:0:0:
426,209,74999,5,10,0:0:0:0:
426,209,75333,2,0,P|341:204|242:221,1,179.999994506836,2|0,0:0|0:0,0:0:0:0:
168,254,75666,1,2,0:0:0:0:
282,124,75833,1,2,0:0:0:0:
338,351,75999,6,0,P|357:264|425:208,1,179.999994506836,6|0,0:0|0:0,0:0:0:0:
501,227,76333,2,0,B|486:168|486:168|497:110,1,119.999996337891,10|0,0:0|0:0,0:0:0:0:
284,7,76666,2,0,B|296:65|296:65|281:124,1,119.999996337891,14|0,0:0|0:0,0:0:0:0:
109,268,76999,6,0,B|209:258|170:353|284:338,1,179.999994506836,14|0,0:0|0:0,0:0:0:0:
344,306,77333,1,2,0:0:0:0:
219,150,77499,1,14,0:0:0:0:
121,345,77666,1,2,0:0:0:0:
257,257,77833,1,2,0:0:0:0:
39,153,77999,6,0,P|129:188|219:150,1,200,6|2,0:0|0:0,0:0:0:0:
308,67,78499,1,2,0:0:0:0:
257,257,78666,1,2,0:0:0:0:
177,44,78833,1,2,0:0:0:0:
384,195,78999,5,10,0:0:0:0:
194,225,79166,1,2,0:0:0:0:
180,253,79249,1,0,0:0:0:0:
189,283,79332,1,2,0:0:0:0:
444,252,79499,2,0,P|464:206|409:119,1,150,2|0,0:0|0:0,0:0:0:0:
351,83,79833,5,2,0:0:0:0:
327,282,79999,2,0,L|338:409,1,100,2|2,0:0|0:0,0:0:0:0:
437,329,80249,1,2,0:0:0:0:
437,329,80333,6,0,L|450:177,1,150.000005722046,6|0,0:0|0:0,0:0:0:0:
180,253,80666,2,0,P|252:238|298:181,1,150.000005722046,14|0,0:0|0:0,0:0:0:0:
122,0,80999,2,0,P|60:92|59:203,1,225.000008583069,14|0,0:0|0:0,0:0:0:0:
102,330,81333,5,2,0:0:0:0:
204,160,81499,1,10,0:0:0:0:
226,373,81666,1,2,0:0:0:0:
58,202,81832,1,2,0:0:0:0:
328,353,81999,6,0,P|305:266|315:177,1,179.999994506836,6|0,0:0|0:0,0:0:0:0:
345,94,82333,2,0,B|286:109|286:109|228:98,1,119.999996337891,2|0,0:0|0:0,0:0:0:0:
391,251,82666,2,0,B|450:236|450:236|508:248,1,119.999996337891,2|0,0:0|0:0,0:0:0:0:
285,27,82999,5,10,0:0:0:0:
285,27,83333,2,0,B|194:11|194:11|111:63,1,179.999994506836,2|0,0:0|0:0,0:0:0:0:
48,117,83666,1,2,0:0:0:0:
209,100,83833,1,2,0:0:0:0:
16,207,83999,6,0,P|95:205|200:281,1,179.999994506836,2|0,0:0|0:0,0:0:0:0:
232,330,84333,2,0,B|291:315|291:315|349:326,1,119.999996337891,2|0,0:0|0:0,0:0:0:0:
447,188,84666,2,0,B|388:203|388:203|330:191,1,119.999996337891,2|0,0:0|0:0,0:0:0:0:
486,352,84999,5,10,0:0:0:0:
486,352,85333,1,2,0:0:0:0:
330,191,85499,1,2,0:0:0:0:
512,248,85666,1,2,0:0:0:0:
302,353,85833,1,2,0:0:0:0:
387,114,85999,6,0,P|312:90|192:97,1,200,2|2,0:0|0:0,0:0:0:0:
68,195,86499,1,2,0:0:0:0:
146,24,86666,1,2,0:0:0:0:
205,256,86833,1,2,0:0:0:0:
63,120,86999,6,0,B|136:111|120:176|201:175,1,150,10|0,0:0|0:0,0:0:0:0:
284,159,87333,1,0,0:0:0:0:
241,334,87499,1,2,0:0:0:0:
192,96,87666,1,2,0:0:0:0:
309,259,87833,1,2,0:0:0:0:
40,291,87999,6,0,B|91:278|91:278|154:290,1,100,2|2,0:0|0:0,0:0:0:0:
241,334,88333,1,2,0:0:0:0:
52,179,88499,2,0,L|63:120,1,59.9999981689454,10|0,0:0|0:0,0:0:0:0:
148,31,88666,1,2,0:0:0:0:
204,215,88833,1,2,0:0:0:0:
302,89,88999,6,0,P|371:43|444:24,1,150,6|0,0:0|0:0,0:0:0:0:
512,44,89333,1,2,0:0:0:0:
262,17,89499,1,2,0:0:0:0:
419,196,89666,1,2,0:0:0:0:
434,25,89833,1,2,0:0:0:0:
502,263,89999,6,0,B|408:244|440:342|304:321,1,179.999994506836,6|0,0:0|0:0,0:0:0:0:
255,352,90333,2,0,B|270:293|270:293|259:235,1,119.999996337891,2|0,0:0|0:0,0:0:0:0:
49,136,90666,2,0,B|37:194|37:194|52:253,1,119.999996337891,2|0,0:0|0:0,0:0:0:0:
175,50,90999,5,10,0:0:0:0:
175,50,91333,2,0,P|260:75|349:66,1,179.999994506836,2|0,0:0|0:0,0:0:0:0:
425,35,91666,1,2,0:0:0:0:
298,160,91833,1,2,0:0:0:0:
485,162,91999,6,0,P|417:220|382:302,1,179.999994506836,6|0,0:0|0:0,0:0:0:0:
366,377,92333,2,0,B|307:362|307:362|249:373,1,119.999996337891,14|0,0:0|0:0,0:0:0:0:
57,46,92666,2,0,B|116:61|116:61|174:50,1,119.999996337891,14|0,0:0|0:0,0:0:0:0:
37,284,92999,6,0,B|119:291|107:185|183:187,1,179.999994506836,14|0,0:0|0:0,0:0:0:0:
266,208,93333,1,2,0:0:0:0:
86,131,93499,1,14,0:0:0:0:
190,338,93666,1,2,0:0:0:0:
248,63,93833,1,2,0:0:0:0:
42,369,93999,6,0,P|136:337|255:357,1,200,6|2,0:0|0:0,0:0:0:0:
351,384,94499,1,2,0:0:0:0:
193,248,94666,1,2,0:0:0:0:
426,200,94833,1,2,0:0:0:0:
132,136,94999,5,10,0:0:0:0:
233,58,95166,1,2,0:0:0:0:
267,47,95249,1,0,0:0:0:0:
302,44,95332,1,2,0:0:0:0:
417,218,95499,2,0,P|369:203|271:255,1,150,2|0,0:0|0:0,0:0:0:0:
237,311,95833,5,2,0:0:0:0:
132,136,95999,2,0,L|139:37,1,100,2|0,0:0|0:0,0:0:0:0:
34,233,96333,6,0,P|78:210|147:221,1,112.500004291535,2|0,0:0|0:0,0:0:0:0:
138,216,96666,6,0,P|173:238|220:237,1,75,2|0,0:0|0:0,0:0:0:0:
206,241,96999,6,0,P|247:229|327:250,1,125,2|0,0:0|0:0,0:0:0:0:
393,294,97999,5,2,0:0:0:0:
393,294,98341,2,0,P|400:258|420:233,1,50,2|2,0:0|0:0,0:0:0:0:
320,155,98732,2,0,P|330:177|333:202,1,50,2|2,0:0|0:0,0:0:0:0:
295,322,99146,5,2,0:0:0:0:
241,249,99383,1,2,0:0:0:0:
203,332,99603,1,2,0:0:0:0:
149,210,99819,5,2,0:0:0:0:
134,218,100403,5,2,0:0:0:0:
348,86,101791,6,0,L|321:47,1,25,2|0,0:0|0:0,0:0:0:0:
359,100,101907,1,2,0:0:0:0:
367,112,102023,1,2,0:0:0:0:
256,192,102139,12,2,104171,0:0:0:0:
